  0
SECTION
  2
HEADER
  9
$ACADVER
  1
AC1015
  9
$ACADMAINTVER
 70
     6
  9
$DWGCODEPAGE
  3
DOS932
  9
$INSBASE
 10
0.0
 20
0.0
 30
0.0
  9
$EXTMIN
 10
0.0
 20
0.0
 30
0.0
  9
$EXTMAX
 10
420.0
 20
297.0
 30
0.0
  9
$LIMMIN
 10
0.0
 20
0.0
  9
$LIMMAX
 10
420.0
 20
297.0
  9
$ORTHOMODE
 70
     0
  9
$REGENMODE
 70
     1
  9
$FILLMODE
 70
     1
  9
$QTEXTMODE
 70
     0
  9
$MIRRTEXT
 70
     1
  9
$LTSCALE
 40
1.0
  9
$ATTMODE
 70
     1
  9
$TEXTSIZE
 40
2.8222222222
  9
$TRACEWID
 40
1.0
  9
$TEXTSTYLE
  7
Standard
  9
$CLAYER
  8
0
  9
$CELTYPE
  6
ByLayer
  9
$CECOLOR
 62
   256
  9
$CELTSCALE
 40
1.0
  9
$DISPSILH
 70
     0
  9
$DIMSCALE
 40
1.0
  9
$DIMASZ
 40
2.5
  9
$DIMEXO
 40
0.0
  9
$DIMDLI
 40
3.75
  9
$DIMRND
 40
0.0
  9
$DIMDLE
 40
0.0
  9
$DIMEXE
 40
1.0
  9
$DIMTP
 40
0.0
  9
$DIMTM
 40
0.0
  9
$DIMTXT
 40
2.8222222222
  9
$DIMCEN
 40
2.5
  9
$DIMTSZ
 40
0.0
  9
$DIMTOL
 70
     0
  9
$DIMLIM
 70
     0
  9
$DIMTIH
 70
     1
  9
$DIMTOH
 70
     1
  9
$DIMSE1
 70
     0
  9
$DIMSE2
 70
     0
  9
$DIMTAD
 70
     1
  9
$DIMZIN
 70
     0
  9
$DIMBLK
  1

  9
$DIMASO
 70
     1
  9
$DIMSHO
 70
     1
  9
$DIMPOST
  1

  9
$DIMAPOST
  1

  9
$DIMALT
 70
     0
  9
$DIMALTD
 70
     3
  9
$DIMALTF
 40
0.0393700787
  9
$DIMLFAC
 40
1.0
  9
$DIMTOFL
 70
     1
  9
$DIMTVP
 40
0.0
  9
$DIMTIX
 70
     0
  9
$DIMSOXD
 70
     0
  9
$DIMSAH
 70
     0
  9
$DIMBLK1
  1

  9
$DIMBLK2
  1

  9
$DIMSTYLE
  2
ISO-25
  9
$DIMCLRD
 70
     0
  9
$DIMCLRE
 70
     0
  9
$DIMCLRT
 70
     0
  9
$DIMTFAC
 40
1.0
  9
$DIMGAP
 40
1.524
  9
$DIMJUST
 70
     0
  9
$DIMSD1
 70
     0
  9
$DIMSD2
 70
     0
  9
$DIMTOLJ
 70
     0
  9
$DIMTZIN
 70
     0
  9
$DIMALTZ
 70
     0
  9
$DIMALTTZ
 70
     0
  9
$DIMUPT
 70
     0
  9
$DIMDEC
 70
     1
  9
$DIMTDEC
 70
     1
  9
$DIMALTU
 70
     2
  9
$DIMALTTD
 70
     3
  9
$DIMTXSTY
  7
Standard
  9
$DIMAUNIT
 70
     0
  9
$DIMADEC
 70
     2
  9
$DIMALTRND
 40
0.0
  9
$DIMAZIN
 70
     0
  9
$DIMDSEP
 70
    44
  9
$DIMATFIT
 70
     3
  9
$DIMFRAC
 70
     0
  9
$DIMLDRBLK
  1

  9
$DIMLUNIT
 70
     2
  9
$DIMLWD
 70
    -2
  9
$DIMLWE
 70
    -2
  9
$DIMTMOVE
 70
     0
  9
$LUNITS
 70
     2
  9
$LUPREC
 70
     1
  9
$SKETCHINC
 40
1.0
  9
$FILLETRAD
 40
10.0
  9
$AUNITS
 70
     0
  9
$AUPREC
 70
     2
  9
$MENU
  1
.
  9
$ELEVATION
 40
0.0
  9
$PELEVATION
 40
0.0
  9
$THICKNESS
 40
0.0
  9
$LIMCHECK
 70
     0
  9
$CHAMFERA
 40
0.0
  9
$CHAMFERB
 40
0.0
  9
$CHAMFERC
 40
0.0
  9
$CHAMFERD
 40
0.0
  9
$SKPOLY
 70
     0
  9
$TDCREATE
 40
2459571.439066238
  9
$TDUCREATE
 40
2459571.064066238
  9
$TDUPDATE
 40
2459571.439070417
  9
$TDUUPDATE
 40
2459571.064070417
  9
$TDINDWG
 40
0.0000000116
  9
$TDUSRTIMER
 40
0.0000000116
  9
$USRTIMER
 70
     1
  9
$ANGBASE
 50
0.0
  9
$ANGDIR
 70
     0
  9
$PDMODE
 70
     0
  9
$PDSIZE
 40
-1.0
  9
$PLINEWID
 40
0.0
  9
$SPLFRAME
 70
     0
  9
$SPLINETYPE
 70
     6
  9
$SPLINESEGS
 70
     8
  9
$HANDSEED
  5
33C
  9
$SURFTAB1
 70
     6
  9
$SURFTAB2
 70
     6
  9
$SURFTYPE
 70
     6
  9
$SURFU
 70
     6
  9
$SURFV
 70
     6
  9
$UCSBASE
  2

  9
$UCSNAME
  2

  9
$UCSORG
 10
0.0
 20
0.0
 30
0.0
  9
$UCSXDIR
 10
1.0
 20
0.0
 30
0.0
  9
$UCSYDIR
 10
0.0
 20
1.0
 30
0.0
  9
$UCSORTHOREF
  2

  9
$UCSORTHOVIEW
 70
     0
  9
$UCSORGTOP
 10
0.0
 20
0.0
 30
0.0
  9
$UCSORGBOTTOM
 10
0.0
 20
0.0
 30
0.0
  9
$UCSORGLEFT
 10
0.0
 20
0.0
 30
0.0
  9
$UCSORGRIGHT
 10
0.0
 20
0.0
 30
0.0
  9
$UCSORGFRONT
 10
0.0
 20
0.0
 30
0.0
  9
$UCSORGBACK
 10
0.0
 20
0.0
 30
0.0
  9
$PUCSBASE
  2

  9
$PUCSNAME
  2

  9
$PUCSORG
 10
0.0
 20
0.0
 30
0.0
  9
$PUCSXDIR
 10
1.0
 20
0.0
 30
0.0
  9
$PUCSYDIR
 10
0.0
 20
1.0
 30
0.0
  9
$PUCSORTHOREF
  2

  9
$PUCSORTHOVIEW
 70
     0
  9
$PUCSORGTOP
 10
0.0
 20
0.0
 30
0.0
  9
$PUCSORGBOTTOM
 10
0.0
 20
0.0
 30
0.0
  9
$PUCSORGLEFT
 10
0.0
 20
0.0
 30
0.0
  9
$PUCSORGRIGHT
 10
0.0
 20
0.0
 30
0.0
  9
$PUCSORGFRONT
 10
0.0
 20
0.0
 30
0.0
  9
$PUCSORGBACK
 10
0.0
 20
0.0
 30
0.0
  9
$USERI1
 70
     0
  9
$USERI2
 70
     0
  9
$USERI3
 70
     0
  9
$USERI4
 70
     0
  9
$USERI5
 70
     0
  9
$USERR1
 40
0.0
  9
$USERR2
 40
0.0
  9
$USERR3
 40
0.0
  9
$USERR4
 40
0.0
  9
$USERR5
 40
0.0
  9
$WORLDVIEW
 70
     1
  9
$SHADEDGE
 70
     3
  9
$SHADEDIF
 70
    70
  9
$TILEMODE
 70
     1
  9
$MAXACTVP
 70
    64
  9
$PINSBASE
 10
0.0
 20
0.0
 30
0.0
  9
$PLIMCHECK
 70
     0
  9
$PEXTMIN
 10
1.0000000000E+20
 20
1.0000000000E+20
 30
1.0000000000E+20
  9
$PEXTMAX
 10
-1.0000000000E+20
 20
-1.0000000000E+20
 30
-1.0000000000E+20
  9
$PLIMMIN
 10
0.0
 20
0.0
  9
$PLIMMAX
 10
420.0
 20
297.0
  9
$UNITMODE
 70
     0
  9
$VISRETAIN
 70
     1
  9
$PLINEGEN
 70
     0
  9
$PSLTSCALE
 70
     1
  9
$TREEDEPTH
 70
  3020
  9
$CMLSTYLE
  2
Standard
  9
$CMLJUST
 70
     0
  9
$CMLSCALE
 40
20.0
  9
$PROXYGRAPHICS
 70
     1
  9
$MEASUREMENT
 70
     1
  9
$CELWEIGHT
370
    -1
  9
$ENDCAPS
280
     0
  9
$JOINSTYLE
280
     0
  9
$LWDISPLAY
290
     1
  9
$INSUNITS
 70
     4
  9
$HYPERLINKBASE
  1

  9
$STYLESHEET
  1

  9
$XEDIT
290
     1
  9
$CEPSNTYPE
380
     0
  9
$PSTYLEMODE
290
     1
  9
$FINGERPRINTGUID
  2
{0A3A3426-A81E-49A2-A496-A2D6E8044136}
  9
$VERSIONGUID
  2
{FAEB1C32-E019-11D5-929B-00C0DF256EC4}
  9
$EXTNAMES
290
     1
  9
$PSVPSCALE
 40
0.0
  9
$OLESTARTUP
290
     0
  0
ENDSEC
  0
SECTION
  2
CLASSES
  0
CLASS
  1
ACDBDICTIONARYWDFLT
  2
AcDbDictionaryWithDefault
  3
ObjectDBX Classes
 90
        0
280
     0
281
     0
  0
CLASS
  1
VISUALSTYLE
  2
AcDbVisualStyle
  3
ObjectDBX Classes
 90
     4095
280
     0
281
     0
  0
CLASS
  1
MATERIAL
  2
AcDbMaterial
  3
ObjectDBX Classes
 90
     1153
280
     0
281
     0
  0
CLASS
  1
SCALE
  2
AcDbScale
  3
ObjectDBX Classes
 90
     1153
280
     0
281
     0
  0
CLASS
  1
TABLESTYLE
  2
AcDbTableStyle
  3
ObjectDBX Classes
 90
     4095
280
     0
281
     0
  0
CLASS
  1
MLEADERSTYLE
  2
AcDbMLeaderStyle
  3
ACDB_MLEADERSTYLE_CLASS
 90
     4095
280
     0
281
     0
  0
CLASS
  1
SUN
  2
AcDbSun
  3
SCENEOE
 90
     1153
280
     0
281
     0
  0
CLASS
  1
ACDBPLACEHOLDER
  2
AcDbPlaceHolder
  3
ObjectDBX Classes
 90
        0
280
     0
281
     0
  0
CLASS
  1
LAYOUT
  2
AcDbLayout
  3
ObjectDBX Classes
 90
        0
280
     0
281
     0
  0
ENDSEC
  0
SECTION
  2
TABLES
  0
TABLE
  2
VPORT
  5
8
330
0
100
AcDbSymbolTable
 70
     1
  0
VPORT
  5
29
330
8
100
AcDbSymbolTableRecord
100
AcDbViewportTableRecord
  2
*Active
 70
     0
 10
0.0
 20
0.0
 11
1.0
 21
1.0
 12
210.0
 22
148.5
 13
0.0
 23
0.0
 14
10.0
 24
10.0
 15
10.0
 25
10.0
 16
0.0
 26
0.0
 36
1.0
 17
0.0
 27
0.0
 37
0.0
 40
297.0
 41
1.4141414141
 42
50.0
 43
0.0
 44
0.0
 50
0.0
 51
0.0
 71
     0
 72
  2000
 73
     1
 74
     3
 75
     0
 76
     0
 77
     0
 78
     0
281
     0
 65
     1
110
0.0
120
0.0
130
0.0
111
1.0
121
0.0
131
0.0
112
0.0
122
1.0
132
0.0
 79
     0
146
0.0
  0
ENDTAB
  0
TABLE
  2
LTYPE
  5
5
330
0
100
AcDbSymbolTable
 70
     6
  0
LTYPE
  5
14
330
5
100
AcDbSymbolTableRecord
100
AcDbLinetypeTableRecord
  2
ByBlock
 70
     0
  3

 72
    65
 73
     0
 40
0.0
  0
LTYPE
  5
15
330
5
100
AcDbSymbolTableRecord
100
AcDbLinetypeTableRecord
  2
ByLayer
 70
     0
  3

 72
    65
 73
     0
 40
0.0
  0
LTYPE
  5
16
330
5
100
AcDbSymbolTableRecord
100
AcDbLinetypeTableRecord
  2
Continuous
 70
     0
  3
Solid line
 72
    65
 73
     0
 40
0.0
  0
LTYPE
  5
6E
330
5
100
AcDbSymbolTableRecord
100
AcDbLinetypeTableRecord
  2
HIDDEN
 70
     0
  3
Hidden __ __ __ __ __ __ __ __ __ __ __ __ __ __
 72
    65
 73
     2
 40
1.905
 49
1.27
 74
     0
 49
-0.635
 74
     0
  0
LTYPE
  5
6F
330
5
100
AcDbSymbolTableRecord
100
AcDbLinetypeTableRecord
  2
PHANTOM
 70
     0
  3
Phantom ______  __  __  ______  __  __  ______
 72
    65
 73
     6
 40
12.7
 49
6.35
 74
     0
 49
-1.27
 74
     0
 49
1.27
 74
     0
 49
-1.27
 74
     0
 49
1.27
 74
     0
 49
-1.27
 74
     0
  0
LTYPE
  5
70
330
5
100
AcDbSymbolTableRecord
100
AcDbLinetypeTableRecord
  2
CENTER
 70
     0
  3
Center ____ _ ____ _ ____ _ ____ _ ____ _ ____
 72
    65
 73
     4
 40
10.16
 49
6.35
 74
     0
 49
-1.27
 74
     0
 49
1.27
 74
     0
 49
-1.27
 74
     0
  0
LTYPE
  5
71
330
5
100
AcDbSymbolTableRecord
100
AcDbLinetypeTableRecord
  2
CENTERX2
 70
     0
  3
Center (2x) ________  __  ________  __  _____
 72
    65
 73
     4
 40
20.32
 49
12.7
 74
     0
 49
-2.54
 74
     0
 49
2.54
 74
     0
 49
-2.54
 74
     0
  0
LTYPE
  5
72
330
5
100
AcDbSymbolTableRecord
100
AcDbLinetypeTableRecord
  2
DOT2
 70
     0
  3
Dot (.5x) ........................................
 72
    65
 73
     2
 40
0.635
 49
0.0
 74
     0
 49
-0.635
 74
     0
  0
ENDTAB
  0
TABLE
  2
LAYER
  5
2
330
0
100
AcDbSymbolTable
 70
    11
  0
LAYER
  5
10
330
2
100
AcDbSymbolTableRecord
100
AcDbLayerTableRecord
  2
0
 70
     0
 62
     7
  6
Continuous
370
    -3
390
F
  0
LAYER
  5
73
330
2
100
AcDbSymbolTableRecord
100
AcDbLayerTableRecord
  2
DEFAULT_LAYER
 70
     0
 62
     7
  6
Continuous
370
    -3
390
F
  0
LAYER
  5
74
330
2
100
AcDbSymbolTableRecord
100
AcDbLayerTableRecord
  2
新図枠仮線
 70
     0
 62
     7
  6
Continuous
370
    -3
390
F
  0
LAYER
  5
75
330
2
100
AcDbSymbolTableRecord
100
AcDbLayerTableRecord
  2
LOGO
 70
     0
 62
     7
  6
Continuous
370
    25
390
F
  0
LAYER
  5
76
330
2
100
AcDbSymbolTableRecord
100
AcDbLayerTableRecord
  2
DRAW1
 70
     0
 62
     7
  6
Continuous
370
    -3
390
F
  0
LAYER
  5
77
330
2
100
AcDbSymbolTableRecord
100
AcDbLayerTableRecord
  2
PIC06
 70
     0
 62
     7
  6
Continuous
370
    -3
390
F
  0
LAYER
  5
78
330
2
100
AcDbSymbolTableRecord
100
AcDbLayerTableRecord
  2
PIC02
 70
     0
 62
     7
  6
Continuous
370
    -3
390
F
  0
LAYER
  5
79
330
2
100
AcDbSymbolTableRecord
100
AcDbLayerTableRecord
  2
PIC04
 70
     0
 62
     7
  6
Continuous
370
    -3
390
F
  0
LAYER
  5
7A
330
2
100
AcDbSymbolTableRecord
100
AcDbLayerTableRecord
  2
PIC05
 70
     0
 62
     7
  6
Continuous
370
    -3
390
F
  0
LAYER
  5
7B
330
2
100
AcDbSymbolTableRecord
100
AcDbLayerTableRecord
  2
PIC01
 70
     0
 62
     7
  6
Continuous
370
    -3
390
F
  0
LAYER
  5
7C
330
2
100
AcDbSymbolTableRecord
100
AcDbLayerTableRecord
  2
PIC03
 70
     0
 62
     7
  6
Continuous
370
    -3
390
F
  0
ENDTAB
  0
TABLE
  2
STYLE
  5
3
330
0
100
AcDbSymbolTable
 70
     2
  0
STYLE
  5
11
330
3
100
AcDbSymbolTableRecord
100
AcDbTextStyleTableRecord
  2
Standard
 70
     0
 40
0.0
 41
1.0
 50
0.0
 71
     0
 42
2.8222222222
  3
txt
  4
bigfont
  0
STYLE
  5
125
330
3
100
AcDbSymbolTableRecord
100
AcDbTextStyleTableRecord
  2
SLDTEXTSTYLE0
 70
     0
 40
0.0
 41
0.7
 50
0.0
 71
     0
 42
2.8222222222
  3
TXT
  4
bigfont
  0
ENDTAB
  0
TABLE
  2
VIEW
  5
6
330
0
100
AcDbSymbolTable
 70
     0
  0
ENDTAB
  0
TABLE
  2
UCS
  5
7
330
0
100
AcDbSymbolTable
 70
     0
  0
ENDTAB
  0
TABLE
  2
APPID
  5
9
330
0
100
AcDbSymbolTable
 70
     1
  0
APPID
  5
12
330
9
100
AcDbSymbolTableRecord
100
AcDbRegAppTableRecord
  2
ACAD
 70
     0
  0
ENDTAB
  0
TABLE
  2
DIMSTYLE
  5
A
330
0
100
AcDbSymbolTable
 70
     6
100
AcDbDimStyleTable
  0
DIMSTYLE
105
27
330
A
100
AcDbSymbolTableRecord
100
AcDbDimStyleTableRecord
  2
ISO-25
 70
     0
 41
2.5
 42
0.625
 43
3.75
 44
1.25
 73
     0
 74
     0
 77
     1
 78
     8
140
2.5
141
2.5
143
0.0393700787
147
0.625
171
     3
172
     1
178
     0
271
     2
272
     2
274
     3
278
    44
283
     0
284
     8
340
11
  0
DIMSTYLE
105
1A3
102
{ACAD_REACTORS
330
1A2
330
1B5
102
}
330
A
100
AcDbSymbolTableRecord
100
AcDbDimStyleTableRecord
  2
SLDDIMSTYLE0
 70
     0
 41
2.5
 44
0.0
 45
0.000000001
 73
     0
 74
     0
 77
     3
 78
    12
 79
     3
140
2.4253472222
141
0.0
147
0.6063368056
172
     1
173
     1
178
     0
271
     1
272
     1
276
     2
284
    12
340
125
341
1A4
343
1A4
344
1A4
  0
DIMSTYLE
105
24F
102
{ACAD_REACTORS
330
24E
330
271
102
}
330
A
100
AcDbSymbolTableRecord
100
AcDbDimStyleTableRecord
  2
SLDDIMSTYLE1
 70
     0
 41
2.5
 44
0.0
 45
0.000000001
 73
     0
 74
     0
 77
     3
 78
    12
 79
     3
140
2.4253472222
147
0.6063368056
173
     1
178
     0
271
     1
272
     1
276
     2
284
    12
340
125
341
1A4
343
1A4
344
1A4
  0
DIMSTYLE
105
25A
102
{ACAD_REACTORS
330
259
102
}
330
A
100
AcDbSymbolTableRecord
100
AcDbDimStyleTableRecord
  2
SLDDIMSTYLE2
 70
     0
 41
2.5
 44
0.0
 45
0.000000001
 47
4.0
 48
4.0
 71
     1
 73
     0
 74
     0
 77
     3
 78
    12
 79
     3
140
2.4253472222
147
0.6063368056
173
     1
178
     0
271
     0
272
     0
276
     2
284
     8
340
125
341
1A4
343
1A4
344
1A4
  0
DIMSTYLE
105
265
102
{ACAD_REACTORS
330
264
102
}
330
A
100
AcDbSymbolTableRecord
100
AcDbDimStyleTableRecord
  2
SLDDIMSTYLE3
 70
     0
 41
2.5
 44
0.0
 45
0.000000001
 47
4.0
 48
4.0
 71
     1
 73
     0
 74
     0
 77
     3
 78
    12
 79
     3
140
2.4253472222
147
0.6063368056
173
     1
178
     0
271
     1
272
     0
276
     2
284
     8
340
125
341
1A4
343
1A4
344
1A4
  0
DIMSTYLE
105
27F
330
A
100
AcDbSymbolTableRecord
100
AcDbDimStyleTableRecord
  2
SLDDIMSTYLE4
 70
     0
 41
2.5
 44
0.0
 45
0.000000001
146
2.5
147
0.0
173
     1
178
     0
271
     0
272
     0
276
     2
340
11
341
1A4
343
1A4
344
1A4
  0
ENDTAB
  0
TABLE
  2
BLOCK_RECORD
  5
1
330
0
100
AcDbSymbolTable
 70
    16
  0
BLOCK_RECORD
  5
1F
330
1
100
AcDbSymbolTableRecord
100
AcDbBlockTableRecord
  2
*Model_Space
340
22
  0
BLOCK_RECORD
  5
1B
330
1
100
AcDbSymbolTableRecord
100
AcDbBlockTableRecord
  2
*Paper_Space
340
1E
  0
BLOCK_RECORD
  5
23
330
1
100
AcDbSymbolTableRecord
100
AcDbBlockTableRecord
  2
*Paper_Space0
340
26
  0
BLOCK_RECORD
  5
7D
330
1
100
AcDbSymbolTableRecord
100
AcDbBlockTableRecord
  2
ﾌﾞﾛｯｸ7
340
0
102
{BLKREFS
331
120
102
}
  0
BLOCK_RECORD
  5
88
330
1
100
AcDbSymbolTableRecord
100
AcDbBlockTableRecord
  2
ﾌﾞﾛｯｸ5
340
0
102
{BLKREFS
331
121
102
}
  0
BLOCK_RECORD
  5
122
330
1
100
AcDbSymbolTableRecord
100
AcDbBlockTableRecord
  2
SW_NOTE_0
340
0
102
{BLKREFS
331
128
102
}
  0
BLOCK_RECORD
  5
132
330
1
100
AcDbSymbolTableRecord
100
AcDbBlockTableRecord
  2
SW_NOTE_1
340
0
102
{BLKREFS
331
13E
102
}
  0
BLOCK_RECORD
  5
1A4
330
1
100
AcDbSymbolTableRecord
100
AcDbBlockTableRecord
  2
_OPEN30
340
0
102
{BLKREFS
331
1AE
331
1AF
331
1B9
331
1BA
331
253
331
254
331
25E
331
25F
331
269
331
26A
331
275
331
276
102
}
  0
BLOCK_RECORD
  5
1AA
330
1
100
AcDbSymbolTableRecord
100
AcDbBlockTableRecord
  2
_D
340
0
  0
BLOCK_RECORD
  5
1B6
330
1
100
AcDbSymbolTableRecord
100
AcDbBlockTableRecord
  2
_D_1
340
0
  0
BLOCK_RECORD
  5
1C0
330
1
100
AcDbSymbolTableRecord
100
AcDbBlockTableRecord
  2
SW_CENTERMARKSYMBOL_0
340
0
102
{BLKREFS
331
1CB
102
}
  0
BLOCK_RECORD
  5
250
330
1
100
AcDbSymbolTableRecord
100
AcDbBlockTableRecord
  2
_D_2
340
0
  0
BLOCK_RECORD
  5
25B
330
1
100
AcDbSymbolTableRecord
100
AcDbBlockTableRecord
  2
_D_3
340
0
  0
BLOCK_RECORD
  5
266
330
1
100
AcDbSymbolTableRecord
100
AcDbBlockTableRecord
  2
_D_4
340
0
  0
BLOCK_RECORD
  5
272
330
1
100
AcDbSymbolTableRecord
100
AcDbBlockTableRecord
  2
_D_5
340
0
  0
BLOCK_RECORD
  5
279
330
1
100
AcDbSymbolTableRecord
100
AcDbBlockTableRecord
  2
SW_NOTE_2
340
0
102
{BLKREFS
331
27E
102
}
  0
BLOCK_RECORD
  5
283
330
1
100
AcDbSymbolTableRecord
100
AcDbBlockTableRecord
  2
SW_NOTE_3
340
0
102
{BLKREFS
331
288
102
}
  0
BLOCK_RECORD
  5
334
330
1
100
AcDbSymbolTableRecord
100
AcDbBlockTableRecord
  2
SW_NOTE_4
340
0
102
{BLKREFS
331
339
102
}
  0
ENDTAB
  0
ENDSEC
  0
SECTION
  2
BLOCKS
  0
BLOCK
  5
20
330
1F
100
AcDbEntity
  8
0
100
AcDbBlockBegin
  2
*Model_Space
 70
     0
 10
0.0
 20
0.0
 30
0.0
  3
*Model_Space
  1

  0
ENDBLK
  5
21
330
1F
100
AcDbEntity
  8
0
100
AcDbBlockEnd
  0
BLOCK
  5
1C
330
1B
100
AcDbEntity
 67
     1
  8
0
100
AcDbBlockBegin
  2
*Paper_Space
 70
     0
 10
0.0
 20
0.0
 30
0.0
  3
*Paper_Space
  1

  0
ENDBLK
  5
1D
330
1B
100
AcDbEntity
 67
     1
  8
0
100
AcDbBlockEnd
  0
BLOCK
  5
24
330
23
100
AcDbEntity
  8
0
100
AcDbBlockBegin
  2
*Paper_Space0
 70
     0
 10
0.0
 20
0.0
 30
0.0
  3
*Paper_Space0
  1

  0
ENDBLK
  5
25
330
23
100
AcDbEntity
  8
0
100
AcDbBlockEnd
  0
BLOCK
  5
7E
330
7D
100
AcDbEntity
  8
0
100
AcDbBlockBegin
  2
ﾌﾞﾛｯｸ7
 70
     0
 10
0.0
 20
0.0
 30
0.0
  3
ﾌﾞﾛｯｸ7
  1

  0
CIRCLE
  5
80
330
7D
100
AcDbEntity
  8
0
  6
Continuous
 62
     7
370
    25
100
AcDbCircle
 10
2.6
 20
2.6
 30
0.0
 40
0.7499999999999729
  0
CIRCLE
  5
81
330
7D
100
AcDbEntity
  8
0
  6
Continuous
 62
     7
370
    25
100
AcDbCircle
 10
2.6
 20
2.6
 30
0.0
 40
1.600000000000101
  0
LINE
  5
82
330
7D
100
AcDbEntity
  8
0
  6
CENTER
 62
     7
370
    25
100
AcDbLine
 10
2.6
 20
5.2
 30
0.0
 11
2.6
 21
0.0
 31
0.0
  0
LINE
  5
83
330
7D
100
AcDbEntity
  8
0
  6
Continuous
 62
     7
370
    25
100
AcDbLine
 10
6.7
 20
3.35
 30
0.0
 11
6.7
 21
1.85
 31
0.0
  0
LINE
  5
84
330
7D
100
AcDbEntity
  8
0
  6
Continuous
 62
     7
370
    25
100
AcDbLine
 10
10.7
 20
4.2
 30
0.0
 11
6.7
 21
3.35
 31
0.0
  0
LINE
  5
85
330
7D
100
AcDbEntity
  8
0
  6
CENTER
 62
     7
370
    25
100
AcDbLine
 10
0.0
 20
2.6
 30
0.0
 11
11.7
 21
2.6
 31
0.0
  0
LINE
  5
86
330
7D
100
AcDbEntity
  8
0
  6
Continuous
 62
     7
370
    25
100
AcDbLine
 10
10.7
 20
1.0
 30
0.0
 11
10.7
 21
4.2
 31
0.0
  0
LINE
  5
87
330
7D
100
AcDbEntity
  8
0
  6
Continuous
 62
     7
370
    25
100
AcDbLine
 10
6.7
 20
1.85
 30
0.0
 11
10.7
 21
1.0
 31
0.0
  0
ENDBLK
  5
7F
330
7D
100
AcDbEntity
  8
0
100
AcDbBlockEnd
  0
BLOCK
  5
89
330
88
100
AcDbEntity
  8
0
100
AcDbBlockBegin
  2
ﾌﾞﾛｯｸ5
 70
     0
 10
0.0
 20
0.0
 30
0.0
  3
ﾌﾞﾛｯｸ5
  1

  0
LINE
  5
8B
330
88
100
AcDbEntity
  8
0
  6
Continuous
 62
     7
370
    25
100
AcDbLine
 10
4.6054066828
 20
0.2149741001
 30
0.0
 11
4.6054066828
 21
0.8722987523
 31
0.0
  0
LINE
  5
8C
330
88
100
AcDbEntity
  8
0
  6
Continuous
 62
     7
370
    25
100
AcDbLine
 10
4.6054066828
 20
0.8722987523
 30
0.0
 11
3.8605765476
 21
0.8722987523
 31
0.0
  0
LINE
  5
8D
330
88
100
AcDbEntity
  8
0
  6
Continuous
 62
     7
370
    25
100
AcDbLine
 10
3.5098655958
 20
1.2230097041
 30
0.0
 11
3.5098655958
 21
4.8231368611
 31
0.0
  0
LINE
  5
8E
330
88
100
AcDbEntity
  8
0
  6
Continuous
 62
     7
370
    25
100
AcDbLine
 10
3.5098655958
 20
4.8231368611
 30
0.0
 11
4.107245547
 21
4.8231368611
 31
0.0
  0
LINE
  5
8F
330
88
100
AcDbEntity
  8
0
  6
Continuous
 62
     7
370
    25
100
AcDbLine
 10
5.0022819446
 20
3.7234616568
 30
0.0
 11
5.0022819446
 21
3.5071095176
 31
0.0
  0
LINE
  5
90
330
88
100
AcDbEntity
  8
0
  6
Continuous
 62
     7
370
    25
100
AcDbLine
 10
5.0022819446
 20
3.5071095176
 30
0.0
 11
5.7016367894
 21
3.5071095176
 31
0.0
  0
LINE
  5
91
330
88
100
AcDbEntity
  8
0
  6
Continuous
 62
     7
370
    25
100
AcDbLine
 10
5.7016367894
 20
3.5071095176
 30
0.0
 11
5.7016367894
 21
5.4783944547
 31
0.0
  0
LINE
  5
92
330
88
100
AcDbEntity
  8
0
  6
Continuous
 62
     7
370
    25
100
AcDbLine
 10
5.7016367894
 20
5.4783944547
 30
0.0
 11
0.0
 21
5.4783944547
 31
0.0
  0
LINE
  5
93
330
88
100
AcDbEntity
  8
0
  6
Continuous
 62
     7
370
    25
100
AcDbLine
 10
0.0
 20
5.4783944547
 30
0.0
 11
0.0
 21
3.5071095176
 31
0.0
  0
LINE
  5
94
330
88
100
AcDbEntity
  8
0
  6
Continuous
 62
     7
370
    25
100
AcDbLine
 10
0.0
 20
3.5071095176
 30
0.0
 11
0.700732884
 21
3.5071095176
 31
0.0
  0
LINE
  5
95
330
88
100
AcDbEntity
  8
0
  6
Continuous
 62
     7
370
    25
100
AcDbLine
 10
0.700732884
 20
3.5071095176
 30
0.0
 11
0.700732884
 21
3.7234616568
 31
0.0
  0
LINE
  5
96
330
88
100
AcDbEntity
  8
0
  6
Continuous
 62
     7
370
    25
100
AcDbLine
 10
1.5937022228
 20
4.8231368611
 30
0.0
 11
2.1917711936
 21
4.8231368611
 31
0.0
  0
LINE
  5
97
330
88
100
AcDbEntity
  8
0
  6
Continuous
 62
     7
370
    25
100
AcDbLine
 10
2.1917711936
 20
4.8231368611
 30
0.0
 11
2.1917711936
 21
1.2230097041
 31
0.0
  0
LINE
  5
98
330
88
100
AcDbEntity
  8
0
  6
Continuous
 62
     7
370
    25
100
AcDbLine
 10
1.8410602419
 20
0.8722987523
 30
0.0
 11
1.0962301066
 21
0.8722987523
 31
0.0
  0
LINE
  5
99
330
88
100
AcDbEntity
  8
0
  6
Continuous
 62
     7
370
    25
100
AcDbLine
 10
1.0962301066
 20
0.8722987523
 30
0.0
 11
1.0962301066
 21
0.2149741001
 31
0.0
  0
LINE
  5
9A
330
88
100
AcDbEntity
  8
0
  6
Continuous
 62
     7
370
    25
100
AcDbLine
 10
1.0962301066
 20
0.2149741001
 30
0.0
 11
4.6054066828
 21
0.2149741001
 31
0.0
  0
LINE
  5
9B
330
88
100
AcDbEntity
  8
0
  6
Continuous
 62
     7
370
    25
100
AcDbLine
 10
10.791424217
 20
2.9166197619
 30
0.0
 11
10.791424217
 21
2.7808829102
 31
0.0
  0
LINE
  5
9C
330
88
100
AcDbEntity
  8
0
  6
Continuous
 62
     7
370
    25
100
AcDbLine
 10
7.6357146707
 20
2.7808829102
 30
0.0
 11
7.6357146707
 21
2.9166197619
 31
0.0
  0
LINE
  5
9D
330
88
100
AcDbEntity
  8
0
  6
Continuous
 62
     7
370
    25
100
AcDbLine
 10
12.2817735071
 20
2.851851924
 30
0.0
 11
12.2817735071
 21
3.0020581863
 31
0.0
  0
LINE
  5
9E
330
88
100
AcDbEntity
  8
0
  6
Continuous
 62
     7
370
    25
100
AcDbLine
 10
6.1405422438
 20
3.0020581863
 30
0.0
 11
6.1405422438
 21
2.851851924
 31
0.0
  0
LINE
  5
9F
330
88
100
AcDbEntity
  8
0
  6
Continuous
 62
     7
370
    25
100
AcDbLine
 10
6.1405422438
 20
2.851851924
 30
0.0
 11
6.1405422438
 21
2.6947554663
 31
0.0
  0
LINE
  5
A0
330
88
100
AcDbEntity
  8
0
  6
Continuous
 62
     7
370
    25
100
AcDbLine
 10
12.2817735071
 20
2.6947554663
 30
0.0
 11
12.2817735071
 21
2.851851924
 31
0.0
  0
LINE
  5
A1
330
88
100
AcDbEntity
  8
0
  6
Continuous
 62
     7
370
    25
100
AcDbLine
 10
17.3233295661
 20
0.2149741001
 30
0.0
 11
17.3233295661
 21
0.8722987523
 31
0.0
  0
LINE
  5
A2
330
88
100
AcDbEntity
  8
0
  6
Continuous
 62
     7
370
    25
100
AcDbLine
 10
17.3233295661
 20
0.8722987523
 30
0.0
 11
16.5784994309
 21
0.8722987523
 31
0.0
  0
LINE
  5
A3
330
88
100
AcDbEntity
  8
0
  6
Continuous
 62
     7
370
    25
100
AcDbLine
 10
16.2291665182
 20
1.2230097041
 30
0.0
 11
16.2291665182
 21
4.8231368611
 31
0.0
  0
LINE
  5
A4
330
88
100
AcDbEntity
  8
0
  6
Continuous
 62
     7
370
    25
100
AcDbLine
 10
16.2291665182
 20
4.8231368611
 30
0.0
 11
16.8244794108
 21
4.8231368611
 31
0.0
  0
LINE
  5
A5
330
88
100
AcDbEntity
  8
0
  6
Continuous
 62
     7
370
    25
100
AcDbLine
 10
17.7195158083
 20
3.7234616568
 30
0.0
 11
17.7195158083
 21
3.5071095176
 31
0.0
  0
LINE
  5
A6
330
88
100
AcDbEntity
  8
0
  6
Continuous
 62
     7
370
    25
100
AcDbLine
 10
17.7195158083
 20
3.5071095176
 30
0.0
 11
18.4195596727
 21
3.5071095176
 31
0.0
  0
LINE
  5
A7
330
88
100
AcDbEntity
  8
0
  6
Continuous
 62
     7
370
    25
100
AcDbLine
 10
18.4195596727
 20
3.5071095176
 30
0.0
 11
18.4195596727
 21
5.4783944547
 31
0.0
  0
LINE
  5
A8
330
88
100
AcDbEntity
  8
0
  6
Continuous
 62
     7
370
    25
100
AcDbLine
 10
18.4195596727
 20
5.4783944547
 30
0.0
 11
12.7193009224
 21
5.4783944547
 31
0.0
  0
LINE
  5
A9
330
88
100
AcDbEntity
  8
0
  6
Continuous
 62
     7
370
    25
100
AcDbLine
 10
12.7193009224
 20
5.4783944547
 30
0.0
 11
12.7193009224
 21
3.5071095176
 31
0.0
  0
LINE
  5
AA
330
88
100
AcDbEntity
  8
0
  6
Continuous
 62
     7
370
    25
100
AcDbLine
 10
12.7193009224
 20
3.5071095176
 30
0.0
 11
13.4186557673
 21
3.5071095176
 31
0.0
  0
LINE
  5
AB
330
88
100
AcDbEntity
  8
0
  6
Continuous
 62
     7
370
    25
100
AcDbLine
 10
13.4186557673
 20
3.5071095176
 30
0.0
 11
13.4186557673
 21
3.7234616568
 31
0.0
  0
LINE
  5
AC
330
88
100
AcDbEntity
  8
0
  6
Continuous
 62
     7
370
    25
100
AcDbLine
 10
14.3136921648
 20
4.8231368611
 30
0.0
 11
14.911072116
 21
4.8231368611
 31
0.0
  0
LINE
  5
AD
330
88
100
AcDbEntity
  8
0
  6
Continuous
 62
     7
370
    25
100
AcDbLine
 10
14.911072116
 20
4.8231368611
 30
0.0
 11
14.911072116
 21
1.2230097041
 31
0.0
  0
LINE
  5
AE
330
88
100
AcDbEntity
  8
0
  6
Continuous
 62
     7
370
    25
100
AcDbLine
 10
14.5589831251
 20
0.8722987523
 30
0.0
 11
13.8175980876
 21
0.8722987523
 31
0.0
  0
LINE
  5
AF
330
88
100
AcDbEntity
  8
0
  6
Continuous
 62
     7
370
    25
100
AcDbLine
 10
13.8175980876
 20
0.8722987523
 30
0.0
 11
13.8175980876
 21
0.2149741001
 31
0.0
  0
LINE
  5
B0
330
88
100
AcDbEntity
  8
0
  6
Continuous
 62
     7
370
    25
100
AcDbLine
 10
13.8175980876
 20
0.2149741001
 30
0.0
 11
17.3233295661
 21
0.2149741001
 31
0.0
  0
LINE
  5
B1
330
88
100
AcDbEntity
  8
0
  6
Continuous
 62
     7
370
    25
100
AcDbLine
 10
23.5107251394
 20
2.9166197619
 30
0.0
 11
23.5107251394
 21
2.7808829102
 31
0.0
  0
LINE
  5
B2
330
88
100
AcDbEntity
  8
0
  6
Continuous
 62
     7
370
    25
100
AcDbLine
 10
20.3550155931
 20
2.7808829102
 30
0.0
 11
20.3550155931
 21
2.9166197619
 31
0.0
  0
LINE
  5
B3
330
88
100
AcDbEntity
  8
0
  6
Continuous
 62
     7
370
    25
100
AcDbLine
 10
24.9996963904
 20
2.851851924
 30
0.0
 11
24.9996963904
 21
3.0020581863
 31
0.0
  0
LINE
  5
B4
330
88
100
AcDbEntity
  8
0
  6
Continuous
 62
     7
370
    25
100
AcDbLine
 10
18.8619102248
 20
3.0020581863
 30
0.0
 11
18.8619102248
 21
2.851851924
 31
0.0
  0
LINE
  5
B5
330
88
100
AcDbEntity
  8
0
  6
Continuous
 62
     7
370
    25
100
AcDbLine
 10
18.8619102248
 20
2.851851924
 30
0.0
 11
18.8619102248
 21
2.6947554663
 31
0.0
  0
LINE
  5
B6
330
88
100
AcDbEntity
  8
0
  6
Continuous
 62
     7
370
    25
100
AcDbLine
 10
24.9996963904
 20
2.6947554663
 30
0.0
 11
24.9996963904
 21
2.851851924
 31
0.0
  0
SPLINE
  5
B7
330
88
100
AcDbEntity
  8
0
  6
Continuous
 62
     8
370
    25
100
AcDbSpline
210
0.0
220
0.0
230
1.0
 70
     8
 71
     3
 72
     8
 73
     4
 74
     0
 42
0.000000001
 43
0.00000001
 40
2.0
 40
2.0
 40
2.0
 40
2.0
 40
3.0
 40
3.0
 40
3.0
 40
3.0
 10
3.860576547571881
 20
0.8722987523158976
 30
0.0
 10
3.66765107312611
 20
0.8722987523158976
 30
0.0
 10
3.509865595811401
 20
1.030084229630496
 30
0.0
 10
3.509865595811401
 20
1.223009704076405
 30
0.0
  0
SPLINE
  5
B8
330
88
100
AcDbEntity
  8
0
  6
Continuous
 62
     8
370
    25
100
AcDbSpline
210
0.0
220
0.0
230
1.0
 70
     8
 71
     3
 72
     8
 73
     4
 74
     0
 42
0.000000001
 43
0.00000001
 40
5.0
 40
5.0
 40
5.0
 40
5.0
 40
6.0
 40
6.0
 40
6.0
 40
6.0
 10
4.107245547042004
 20
4.823136861146299
 30
0.0
 10
4.421438462568094
 20
4.823136861146299
 30
0.0
 10
5.002281944560371
 20
4.561309431541205
 30
0.0
 10
5.002281944560371
 20
3.723461656804983
 30
0.0
  0
SPLINE
  5
B9
330
88
100
AcDbEntity
  8
0
  6
Continuous
 62
     8
370
    25
100
AcDbSpline
210
0.0
220
0.0
230
1.0
 70
     8
 71
     3
 72
     8
 73
     4
 74
     0
 42
0.000000001
 43
0.00000001
 40
13.0
 40
13.0
 40
13.0
 40
13.0
 40
14.0
 40
14.0
 40
14.0
 40
14.0
 10
0.7007328839694904
 20
3.723461656804983
 30
0.0
 10
0.7007328839694904
 20
4.561309431541205
 30
0.0
 10
1.281576365961767
 20
4.823136861146299
 30
0.0
 10
1.593702222833115
 20
4.823136861146299
 30
0.0
  0
SPLINE
  5
BA
330
88
100
AcDbEntity
  8
0
  6
Continuous
 62
     8
370
    25
100
AcDbSpline
210
0.0
220
0.0
230
1.0
 70
     8
 71
     3
 72
     8
 73
     4
 74
     0
 42
0.000000001
 43
0.00000001
 40
16.0
 40
16.0
 40
16.0
 40
16.0
 40
17.0
 40
17.0
 40
17.0
 40
17.0
 10
2.191771193615299
 20
1.223009704076405
 30
0.0
 10
2.191771193615299
 20
1.030084229630496
 30
0.0
 10
2.03398571630059
 20
0.8722987523158976
 30
0.0
 10
1.841060241854764
 20
0.8722987523158976
 30
0.0
  0
SPLINE
  5
BB
330
88
100
AcDbEntity
  8
0
  6
Continuous
 62
     8
370
    25
100
AcDbSpline
210
0.0
220
0.0
230
1.0
 70
     8
 71
     3
 72
     8
 73
     4
 74
     0
 42
0.000000001
 43
0.00000001
 40
0.0
 40
0.0
 40
0.0
 40
0.0
 40
1.0
 40
1.0
 40
1.0
 40
1.0
 10
7.635714670746252
 20
2.916619761890421
 30
0.0
 10
7.635714670746252
 20
3.691077737880105
 30
0.0
 10
7.827951125640553
 20
4.182348678165498
 30
0.0
 10
8.076687183765364
 20
4.477938065798604
 30
0.0
  0
SPLINE
  5
BC
330
88
100
AcDbEntity
  8
0
  6
Continuous
 62
     8
370
    25
100
AcDbSpline
210
0.0
220
0.0
230
1.0
 70
     8
 71
     3
 72
     8
 73
     4
 74
     0
 42
0.000000001
 43
0.00000001
 40
1.0
 40
1.0
 40
1.0
 40
1.0
 40
2.0
 40
2.0
 40
2.0
 40
2.0
 10
8.076687183765364
 20
4.477938065798604
 30
0.0
 10
8.51421459902657
 20
5.000214885905574
 30
0.0
 10
9.105393374292781
 20
4.998147827250804
 30
0.0
 10
9.213569443892789
 20
4.998147827250804
 30
0.0
  0
SPLINE
  5
BD
330
88
100
AcDbEntity
  8
0
  6
Continuous
 62
     8
370
    25
100
AcDbSpline
210
0.0
220
0.0
230
1.0
 70
     8
 71
     3
 72
     8
 73
     4
 74
     0
 42
0.000000001
 43
0.00000001
 40
2.0
 40
2.0
 40
2.0
 40
2.0
 40
3.0
 40
3.0
 40
3.0
 40
3.0
 10
9.213569443892789
 20
4.998147827250804
 30
0.0
 10
9.332080806766674
 20
4.998147827250804
 30
0.0
 10
9.908790171449356
 20
5.000214885905574
 30
0.0
 10
10.35320778222648
 20
4.477938065798604
 30
0.0
  0
SPLINE
  5
BE
330
88
100
AcDbEntity
  8
0
  6
Continuous
 62
     8
370
    25
100
AcDbSpline
210
0.0
220
0.0
230
1.0
 70
     8
 71
     3
 72
     8
 73
     4
 74
     0
 42
0.000000001
 43
0.00000001
 40
3.0
 40
3.0
 40
3.0
 40
3.0
 40
4.0
 40
4.0
 40
4.0
 40
4.0
 10
10.35320778222648
 20
4.477938065798604
 30
0.0
 10
10.59780972304175
 20
4.182348678165498
 30
0.0
 10
10.79142421703921
 20
3.691077737880105
 30
0.0
 10
10.79142421703921
 20
2.916619761890421
 30
0.0
  0
SPLINE
  5
BF
330
88
100
AcDbEntity
  8
0
  6
Continuous
 62
     8
370
    25
100
AcDbSpline
210
0.0
220
0.0
230
1.0
 70
     8
 71
     3
 72
     8
 73
     4
 74
     0
 42
0.000000001
 43
0.00000001
 40
5.0
 40
5.0
 40
5.0
 40
5.0
 40
6.0
 40
6.0
 40
6.0
 40
6.0
 10
10.79142421703921
 20
2.780882910226684
 30
0.0
 10
10.79142421703921
 20
2.005735914685308
 30
0.0
 10
10.59780972304175
 20
1.517910072157902
 30
0.0
 10
10.35320778222648
 20
1.223009704076405
 30
0.0
  0
SPLINE
  5
C0
330
88
100
AcDbEntity
  8
0
  6
Continuous
 62
     8
370
    25
100
AcDbSpline
210
0.0
220
0.0
230
1.0
 70
     8
 71
     3
 72
     8
 73
     4
 74
     0
 42
0.000000001
 43
0.00000001
 40
6.0
 40
6.0
 40
6.0
 40
6.0
 40
7.0
 40
7.0
 40
7.0
 40
7.0
 10
10.35320778222648
 20
1.223009704076405
 30
0.0
 10
9.908790171449356
 20
0.6952207275567057
 30
0.0
 10
9.327257669905498
 20
0.6993548448661902
 30
0.0
 10
9.213569443892789
 20
0.6993548448661902
 30
0.0
  0
SPLINE
  5
C1
330
88
100
AcDbEntity
  8
0
  6
Continuous
 62
     8
370
    25
100
AcDbSpline
210
0.0
220
0.0
230
1.0
 70
     8
 71
     3
 72
     8
 73
     4
 74
     0
 42
0.000000001
 43
0.00000001
 40
7.0
 40
7.0
 40
7.0
 40
7.0
 40
8.0
 40
8.0
 40
8.0
 40
8.0
 10
9.213569443892789
 20
0.6993548448661902
 30
0.0
 10
9.105393374292781
 20
0.6993548448661902
 30
0.0
 10
8.51421459902657
 20
0.6952207275567057
 30
0.0
 10
8.076687183765364
 20
1.223009704076405
 30
0.0
  0
SPLINE
  5
C2
330
88
100
AcDbEntity
  8
0
  6
Continuous
 62
     8
370
    25
100
AcDbSpline
210
0.0
220
0.0
230
1.0
 70
     8
 71
     3
 72
     8
 73
     4
 74
     0
 42
0.000000001
 43
0.00000001
 40
8.0
 40
8.0
 40
8.0
 40
8.0
 40
9.0
 40
9.0
 40
9.0
 40
9.0
 10
8.076687183765364
 20
1.223009704076405
 30
0.0
 10
7.827951125640553
 20
1.517910072157902
 30
0.0
 10
7.635714670746252
 20
2.005735914685308
 30
0.0
 10
7.635714670746252
 20
2.780882910226684
 30
0.0
  0
SPLINE
  5
C3
330
88
100
AcDbEntity
  8
0
  6
Continuous
 62
     8
370
    25
100
AcDbSpline
210
0.0
220
0.0
230
1.0
 70
     8
 71
     3
 72
     8
 73
     4
 74
     0
 42
0.000000001
 43
0.00000001
 40
1.0
 40
1.0
 40
1.0
 40
1.0
 40
2.0
 40
2.0
 40
2.0
 40
2.0
 10
12.2817735071335
 20
3.002058186287793
 30
0.0
 10
12.2817735071335
 20
3.822680472234302
 30
0.0
 10
11.90487981241239
 20
4.540638844993506
 30
0.0
 10
11.36331044486089
 20
5.000214885905574
 30
0.0
  0
SPLINE
  5
C4
330
88
100
AcDbEntity
  8
0
  6
Continuous
 62
     8
370
    25
100
AcDbSpline
210
0.0
220
0.0
230
1.0
 70
     8
 71
     3
 72
     8
 73
     4
 74
     0
 42
0.000000001
 43
0.00000001
 40
2.0
 40
2.0
 40
2.0
 40
2.0
 40
3.0
 40
3.0
 40
3.0
 40
3.0
 10
11.36331044486089
 20
5.000214885905574
 30
0.0
 10
10.81002774493217
 20
5.46599210278198
 30
0.0
 10
10.04177094490677
 20
5.700258750323401
 30
0.0
 10
9.213569443892789
 20
5.700258750323401
 30
0.0
  0
SPLINE
  5
C5
330
88
100
AcDbEntity
  8
0
  6
Continuous
 62
     8
370
    25
100
AcDbSpline
210
0.0
220
0.0
230
1.0
 70
     8
 71
     3
 72
     8
 73
     4
 74
     0
 42
0.000000001
 43
0.00000001
 40
3.0
 40
3.0
 40
3.0
 40
3.0
 40
4.0
 40
4.0
 40
4.0
 40
4.0
 10
9.213569443892789
 20
5.700258750323401
 30
0.0
 10
8.383300884223955
 20
5.700258750323401
 30
0.0
 10
7.61297702554381
 20
5.46599210278198
 30
0.0
 10
7.065895501579488
 20
5.000214885905574
 30
0.0
  0
SPLINE
  5
C6
330
88
100
AcDbEntity
  8
0
  6
Continuous
 62
     8
370
    25
100
AcDbSpline
210
0.0
220
0.0
230
1.0
 70
     8
 71
     3
 72
     8
 73
     4
 74
     0
 42
0.000000001
 43
0.00000001
 40
4.0
 40
4.0
 40
4.0
 40
4.0
 40
5.0
 40
5.0
 40
5.0
 40
5.0
 10
7.065895501579488
 20
5.000214885905574
 30
0.0
 10
6.517435938512007
 20
4.540638844993506
 30
0.0
 10
6.140542243790903
 20
3.822680472234302
 30
0.0
 10
6.140542243790903
 20
3.002058186287793
 30
0.0
  0
SPLINE
  5
C7
330
88
100
AcDbEntity
  8
0
  6
Continuous
 62
     8
370
    25
100
AcDbSpline
210
0.0
220
0.0
230
1.0
 70
     8
 71
     3
 72
     8
 73
     4
 74
     0
 42
0.000000001
 43
0.00000001
 40
7.0
 40
7.0
 40
7.0
 40
7.0
 40
8.0
 40
8.0
 40
8.0
 40
8.0
 10
6.140542243790903
 20
2.694755466277593
 30
0.0
 10
6.140542243790903
 20
1.876889258537517
 30
0.0
 10
6.517435938512007
 20
1.156863827123517
 30
0.0
 10
7.065895501579488
 20
0.6952207275567057
 30
0.0
  0
SPLINE
  5
C8
330
88
100
AcDbEntity
  8
0
  6
Continuous
 62
     8
370
    25
100
AcDbSpline
210
0.0
220
0.0
230
1.0
 70
     8
 71
     3
 72
     8
 73
     4
 74
     0
 42
0.000000001
 43
0.00000001
 40
8.0
 40
8.0
 40
8.0
 40
8.0
 40
9.0
 40
9.0
 40
9.0
 40
9.0
 10
7.065895501579488
 20
0.6952207275567057
 30
0.0
 10
7.61297702554381
 20
0.2349556670930009
 30
0.0
 10
8.383300884223955
 20
0.0
 30
0.0
 10
9.213569443892789
 20
0.0
 30
0.0
  0
SPLINE
  5
C9
330
88
100
AcDbEntity
  8
0
  6
Continuous
 62
     8
370
    25
100
AcDbSpline
210
0.0
220
0.0
230
1.0
 70
     8
 71
     3
 72
     8
 73
     4
 74
     0
 42
0.000000001
 43
0.00000001
 40
9.0
 40
9.0
 40
9.0
 40
9.0
 40
10.0
 40
10.0
 40
10.0
 40
10.0
 10
9.213569443892789
 20
0.0
 30
0.0
 10
10.04177094490677
 20
0.0
 30
0.0
 10
10.81002774493217
 20
0.2349556670930009
 30
0.0
 10
11.36331044486089
 20
0.6952207275567057
 30
0.0
  0
SPLINE
  5
CA
330
88
100
AcDbEntity
  8
0
  6
Continuous
 62
     8
370
    25
100
AcDbSpline
210
0.0
220
0.0
230
1.0
 70
     8
 71
     3
 72
     8
 73
     4
 74
     0
 42
0.000000001
 43
0.00000001
 40
10.0
 40
10.0
 40
10.0
 40
10.0
 40
11.0
 40
11.0
 40
11.0
 40
11.0
 10
11.36331044486089
 20
0.6952207275567057
 30
0.0
 10
11.90487981241239
 20
1.156863827123517
 30
0.0
 10
12.2817735071335
 20
1.876889258537517
 30
0.0
 10
12.2817735071335
 20
2.694755466277593
 30
0.0
  0
SPLINE
  5
CB
330
88
100
AcDbEntity
  8
0
  6
Continuous
 62
     8
370
    25
100
AcDbSpline
210
0.0
220
0.0
230
1.0
 70
     8
 71
     3
 72
     8
 73
     4
 74
     0
 42
0.000000001
 43
0.00000001
 40
2.0
 40
2.0
 40
2.0
 40
2.0
 40
3.0
 40
3.0
 40
3.0
 40
3.0
 10
16.57849943086326
 20
0.8722987523158976
 30
0.0
 10
16.38626297596896
 20
0.8722987523158976
 30
0.0
 10
16.229166518206
 20
1.030084229630496
 30
0.0
 10
16.229166518206
 20
1.223009704076405
 30
0.0
  0
SPLINE
  5
CC
330
88
100
AcDbEntity
  8
0
  6
Continuous
 62
     8
370
    25
100
AcDbSpline
210
0.0
220
0.0
230
1.0
 70
     8
 71
     3
 72
     8
 73
     4
 74
     0
 42
0.000000001
 43
0.00000001
 40
5.0
 40
5.0
 40
5.0
 40
5.0
 40
6.0
 40
6.0
 40
6.0
 40
6.0
 10
16.8244794107818
 20
4.823136861146299
 30
0.0
 10
17.14142840451422
 20
4.823136861146299
 30
0.0
 10
17.71951580830017
 20
4.561309431541205
 30
0.0
 10
17.71951580830017
 20
3.723461656804983
 30
0.0
  0
SPLINE
  5
CD
330
88
100
AcDbEntity
  8
0
  6
Continuous
 62
     8
370
    25
100
AcDbSpline
210
0.0
220
0.0
230
1.0
 70
     8
 71
     3
 72
     8
 73
     4
 74
     0
 42
0.000000001
 43
0.00000001
 40
13.0
 40
13.0
 40
13.0
 40
13.0
 40
14.0
 40
14.0
 40
14.0
 40
14.0
 10
13.41865576726081
 20
3.723461656804983
 30
0.0
 10
13.41865576726081
 20
4.561309431541205
 30
0.0
 10
14.00087728835625
 20
4.823136861146299
 30
0.0
 10
14.31369216477929
 20
4.823136861146299
 30
0.0
  0
SPLINE
  5
CE
330
88
100
AcDbEntity
  8
0
  6
Continuous
 62
     8
370
    25
100
AcDbSpline
210
0.0
220
0.0
230
1.0
 70
     8
 71
     3
 72
     8
 73
     4
 74
     0
 42
0.000000001
 43
0.00000001
 40
16.0
 40
16.0
 40
16.0
 40
16.0
 40
17.0
 40
17.0
 40
17.0
 40
17.0
 10
14.91107211600978
 20
1.223009704076405
 30
0.0
 10
14.91107211600978
 20
1.030084229630496
 30
0.0
 10
14.7546646777984
 20
0.8722987523158976
 30
0.0
 10
14.55898312514609
 20
0.8722987523158976
 30
0.0
  0
SPLINE
  5
CF
330
88
100
AcDbEntity
  8
0
  6
Continuous
 62
     8
370
    25
100
AcDbSpline
210
0.0
220
0.0
230
1.0
 70
     8
 71
     3
 72
     8
 73
     4
 74
     0
 42
0.000000001
 43
0.00000001
 40
0.0
 40
0.0
 40
0.0
 40
0.0
 40
1.0
 40
1.0
 40
1.0
 40
1.0
 10
20.3550155931409
 20
2.916619761890421
 30
0.0
 10
20.3550155931409
 20
3.691077737880105
 30
0.0
 10
20.5472520480352
 20
4.182348678165498
 30
0.0
 10
20.79667712571159
 20
4.477938065798604
 30
0.0
  0
SPLINE
  5
D0
330
88
100
AcDbEntity
  8
0
  6
Continuous
 62
     8
370
    25
100
AcDbSpline
210
0.0
220
0.0
230
1.0
 70
     8
 71
     3
 72
     8
 73
     4
 74
     0
 42
0.000000001
 43
0.00000001
 40
1.0
 40
1.0
 40
1.0
 40
1.0
 40
2.0
 40
2.0
 40
2.0
 40
2.0
 10
20.79667712571159
 20
4.477938065798604
 30
0.0
 10
21.23558258007591
 20
5.000214885905574
 30
0.0
 10
21.82676135534206
 20
4.998147827250804
 30
0.0
 10
21.93355938583891
 20
4.998147827250804
 30
0.0
  0
SPLINE
  5
D1
330
88
100
AcDbEntity
  8
0
  6
Continuous
 62
     8
370
    25
100
AcDbSpline
210
0.0
220
0.0
230
1.0
 70
     8
 71
     3
 72
     8
 73
     4
 74
     0
 42
0.000000001
 43
0.00000001
 40
2.0
 40
2.0
 40
2.0
 40
2.0
 40
3.0
 40
3.0
 40
3.0
 40
3.0
 10
21.93355938583891
 20
4.998147827250804
 30
0.0
 10
22.05138172916116
 20
4.998147827250804
 30
0.0
 10
22.62878011339559
 20
5.000214885905574
 30
0.0
 10
23.0718196850695
 20
4.477938065798604
 30
0.0
  0
SPLINE
  5
D2
330
88
100
AcDbEntity
  8
0
  6
Continuous
 62
     8
370
    25
100
AcDbSpline
210
0.0
220
0.0
230
1.0
 70
     8
 71
     3
 72
     8
 73
     4
 74
     0
 42
0.000000001
 43
0.00000001
 40
3.0
 40
3.0
 40
3.0
 40
3.0
 40
4.0
 40
4.0
 40
4.0
 40
4.0
 10
23.0718196850695
 20
4.477938065798604
 30
0.0
 10
23.31779966498787
 20
4.182348678165498
 30
0.0
 10
23.51072513943381
 20
3.691077737880105
 30
0.0
 10
23.51072513943381
 20
2.916619761890421
 30
0.0
  0
SPLINE
  5
D3
330
88
100
AcDbEntity
  8
0
  6
Continuous
 62
     8
370
    25
100
AcDbSpline
210
0.0
220
0.0
230
1.0
 70
     8
 71
     3
 72
     8
 73
     4
 74
     0
 42
0.000000001
 43
0.00000001
 40
5.0
 40
5.0
 40
5.0
 40
5.0
 40
6.0
 40
6.0
 40
6.0
 40
6.0
 10
23.51072513943381
 20
2.780882910226684
 30
0.0
 10
23.51072513943381
 20
2.005735914685308
 30
0.0
 10
23.31779966498787
 20
1.517910072157902
 30
0.0
 10
23.0718196850695
 20
1.223009704076405
 30
0.0
  0
SPLINE
  5
D4
330
88
100
AcDbEntity
  8
0
  6
Continuous
 62
     8
370
    25
100
AcDbSpline
210
0.0
220
0.0
230
1.0
 70
     8
 71
     3
 72
     8
 73
     4
 74
     0
 42
0.000000001
 43
0.00000001
 40
6.0
 40
6.0
 40
6.0
 40
6.0
 40
7.0
 40
7.0
 40
7.0
 40
7.0
 10
23.0718196850695
 20
1.223009704076405
 30
0.0
 10
22.62878011339559
 20
0.6952207275567057
 30
0.0
 10
22.04655859230009
 20
0.6993548448661902
 30
0.0
 10
21.93355938583891
 20
0.6993548448661902
 30
0.0
  0
SPLINE
  5
D5
330
88
100
AcDbEntity
  8
0
  6
Continuous
 62
     8
370
    25
100
AcDbSpline
210
0.0
220
0.0
230
1.0
 70
     8
 71
     3
 72
     8
 73
     4
 74
     0
 42
0.000000001
 43
0.00000001
 40
7.0
 40
7.0
 40
7.0
 40
7.0
 40
8.0
 40
8.0
 40
8.0
 40
8.0
 10
21.93355938583891
 20
0.6993548448661902
 30
0.0
 10
21.82676135534206
 20
0.6993548448661902
 30
0.0
 10
21.23558258007591
 20
0.6952207275567057
 30
0.0
 10
20.79667712571159
 20
1.223009704076405
 30
0.0
  0
SPLINE
  5
D6
330
88
100
AcDbEntity
  8
0
  6
Continuous
 62
     8
370
    25
100
AcDbSpline
210
0.0
220
0.0
230
1.0
 70
     8
 71
     3
 72
     8
 73
     4
 74
     0
 42
0.000000001
 43
0.00000001
 40
8.0
 40
8.0
 40
8.0
 40
8.0
 40
9.0
 40
9.0
 40
9.0
 40
9.0
 10
20.79667712571159
 20
1.223009704076405
 30
0.0
 10
20.5472520480352
 20
1.517910072157902
 30
0.0
 10
20.3550155931409
 20
2.005735914685308
 30
0.0
 10
20.3550155931409
 20
2.780882910226684
 30
0.0
  0
SPLINE
  5
D7
330
88
100
AcDbEntity
  8
0
  6
Continuous
 62
     8
370
    25
100
AcDbSpline
210
0.0
220
0.0
230
1.0
 70
     8
 71
     3
 72
     8
 73
     4
 74
     0
 42
0.000000001
 43
0.00000001
 40
1.0
 40
1.0
 40
1.0
 40
1.0
 40
2.0
 40
2.0
 40
2.0
 40
2.0
 10
24.99969639042476
 20
3.002058186287793
 30
0.0
 10
24.99969639042476
 20
3.822680472234302
 30
0.0
 10
24.62211367615219
 20
4.540638844993506
 30
0.0
 10
24.08054430860068
 20
5.000214885905574
 30
0.0
  0
SPLINE
  5
D8
330
88
100
AcDbEntity
  8
0
  6
Continuous
 62
     8
370
    25
100
AcDbSpline
210
0.0
220
0.0
230
1.0
 70
     8
 71
     3
 72
     8
 73
     4
 74
     0
 42
0.000000001
 43
0.00000001
 40
2.0
 40
2.0
 40
2.0
 40
2.0
 40
3.0
 40
3.0
 40
3.0
 40
3.0
 10
24.08054430860068
 20
5.000214885905574
 30
0.0
 10
23.5320847455332
 20
5.46599210278198
 30
0.0
 10
22.76107186730131
 20
5.700258750323401
 30
0.0
 10
21.93149232718411
 20
5.700258750323401
 30
0.0
  0
SPLINE
  5
D9
330
88
100
AcDbEntity
  8
0
  6
Continuous
 62
     8
370
    25
100
AcDbSpline
210
0.0
220
0.0
230
1.0
 70
     8
 71
     3
 72
     8
 73
     4
 74
     0
 42
0.000000001
 43
0.00000001
 40
3.0
 40
3.0
 40
3.0
 40
3.0
 40
4.0
 40
4.0
 40
4.0
 40
4.0
 10
21.93149232718411
 20
5.700258750323401
 30
0.0
 10
21.10191278706697
 20
5.700258750323401
 30
0.0
 10
20.33227794793829
 20
5.46599210278198
 30
0.0
 10
19.78381838487081
 20
5.000214885905574
 30
0.0
  0
SPLINE
  5
DA
330
88
100
AcDbEntity
  8
0
  6
Continuous
 62
     8
370
    25
100
AcDbSpline
210
0.0
220
0.0
230
1.0
 70
     8
 71
     3
 72
     8
 73
     4
 74
     0
 42
0.000000001
 43
0.00000001
 40
4.0
 40
4.0
 40
4.0
 40
4.0
 40
5.0
 40
5.0
 40
5.0
 40
5.0
 10
19.78381838487081
 20
5.000214885905574
 30
0.0
 10
19.23742588045807
 20
4.540638844993506
 30
0.0
 10
18.86191022484029
 20
3.822680472234302
 30
0.0
 10
18.86191022484029
 20
3.002058186287793
 30
0.0
  0
SPLINE
  5
DB
330
88
100
AcDbEntity
  8
0
  6
Continuous
 62
     8
370
    25
100
AcDbSpline
210
0.0
220
0.0
230
1.0
 70
     8
 71
     3
 72
     8
 73
     4
 74
     0
 42
0.000000001
 43
0.00000001
 40
7.0
 40
7.0
 40
7.0
 40
7.0
 40
8.0
 40
8.0
 40
8.0
 40
8.0
 10
18.86191022484029
 20
2.694755466277593
 30
0.0
 10
18.86191022484029
 20
1.876889258537517
 30
0.0
 10
19.23742588045807
 20
1.156863827123517
 30
0.0
 10
19.78381838487081
 20
0.6952207275567057
 30
0.0
  0
SPLINE
  5
DC
330
88
100
AcDbEntity
  8
0
  6
Continuous
 62
     8
370
    25
100
AcDbSpline
210
0.0
220
0.0
230
1.0
 70
     8
 71
     3
 72
     8
 73
     4
 74
     0
 42
0.000000001
 43
0.00000001
 40
8.0
 40
8.0
 40
8.0
 40
8.0
 40
9.0
 40
9.0
 40
9.0
 40
9.0
 10
19.78381838487081
 20
0.6952207275567057
 30
0.0
 10
20.33227794793829
 20
0.2349556670930009
 30
0.0
 10
21.10191278706697
 20
0.0
 30
0.0
 10
21.93149232718411
 20
0.0
 30
0.0
  0
SPLINE
  5
DD
330
88
100
AcDbEntity
  8
0
  6
Continuous
 62
     8
370
    25
100
AcDbSpline
210
0.0
220
0.0
230
1.0
 70
     8
 71
     3
 72
     8
 73
     4
 74
     0
 42
0.000000001
 43
0.00000001
 40
9.0
 40
9.0
 40
9.0
 40
9.0
 40
10.0
 40
10.0
 40
10.0
 40
10.0
 10
21.93149232718411
 20
0.0
 30
0.0
 10
22.76107186730131
 20
0.0
 30
0.0
 10
23.5320847455332
 20
0.2349556670930009
 30
0.0
 10
24.08054430860068
 20
0.6952207275567057
 30
0.0
  0
SPLINE
  5
DE
330
88
100
AcDbEntity
  8
0
  6
Continuous
 62
     8
370
    25
100
AcDbSpline
210
0.0
220
0.0
230
1.0
 70
     8
 71
     3
 72
     8
 73
     4
 74
     0
 42
0.000000001
 43
0.00000001
 40
10.0
 40
10.0
 40
10.0
 40
10.0
 40
11.0
 40
11.0
 40
11.0
 40
11.0
 10
24.08054430860068
 20
0.6952207275567057
 30
0.0
 10
24.62211367615219
 20
1.156863827123517
 30
0.0
 10
24.99969639042476
 20
1.876889258537517
 30
0.0
 10
24.99969639042476
 20
2.694755466277593
 30
0.0
  0
HATCH
  5
DF
330
88
100
AcDbEntity
  8
0
  6
Continuous
 62
     7
100
AcDbHatch
 10
0.0
 20
0.0
 30
0.0
210
0.0
220
0.0
230
1.0
  2
0_TOTO_Metal
 70
     0
 71
     0
 91
        1
 92
        0
 93
       20
 72
     4
 94
        3
 73
     1
 74
     0
 95
        8
 96
        4
 40
16.0
 40
16.0
 40
16.0
 40
16.0
 40
17.0
 40
17.0
 40
17.0
 40
17.0
 10
2.191771193615299
 20
1.223009704076405
 42
1.0
 10
2.191771193615299
 20
1.030084229630496
 42
1.0
 10
2.03398571630059
 20
0.8722987523158976
 42
1.0
 10
1.841060241854764
 20
0.8722987523158976
 42
1.0
 72
     1
 10
1.841060241854764
 20
0.8722987523158976
 11
1.096230106583496
 21
0.8722987523158976
 72
     1
 10
1.096230106583496
 20
0.8722987523158976
 11
1.096230106583496
 21
0.2149741000967986
 72
     1
 10
1.096230106583496
 20
0.2149741000967986
 11
4.605406682843205
 21
0.2149741000967986
 72
     1
 10
4.605406682843205
 20
0.2149741000967986
 11
4.605406682843205
 21
0.8722987523158976
 72
     1
 10
4.605406682843205
 20
0.8722987523158976
 11
3.860576547571881
 21
0.8722987523158976
 72
     4
 94
        3
 73
     1
 74
     0
 95
        8
 96
        4
 40
2.0
 40
2.0
 40
2.0
 40
2.0
 40
3.0
 40
3.0
 40
3.0
 40
3.0
 10
3.860576547571881
 20
0.8722987523158976
 42
1.0
 10
3.66765107312611
 20
0.8722987523158976
 42
1.0
 10
3.509865595811401
 20
1.030084229630496
 42
1.0
 10
3.509865595811401
 20
1.223009704076405
 42
1.0
 72
     1
 10
3.509865595811401
 20
1.223009704076405
 11
3.509865595811401
 21
4.823136861146299
 72
     1
 10
3.509865595811401
 20
4.823136861146299
 11
4.107245547042004
 21
4.823136861146299
 72
     4
 94
        3
 73
     1
 74
     0
 95
        8
 96
        4
 40
5.0
 40
5.0
 40
5.0
 40
5.0
 40
6.0
 40
6.0
 40
6.0
 40
6.0
 10
4.107245547042004
 20
4.823136861146299
 42
1.0
 10
4.421438462568094
 20
4.823136861146299
 42
1.0
 10
5.002281944560371
 20
4.561309431541205
 42
1.0
 10
5.002281944560371
 20
3.723461656804983
 42
1.0
 72
     1
 10
5.002281944560371
 20
3.723461656804983
 11
5.002281944560371
 21
3.507109517604995
 72
     1
 10
5.002281944560371
 20
3.507109517604995
 11
5.70163678942659
 21
3.507109517604995
 72
     1
 10
5.70163678942659
 20
3.507109517604995
 11
5.70163678942659
 21
5.478394454710683
 72
     1
 10
5.70163678942659
 20
5.478394454710683
 11
0.0
 21
5.478394454710683
 72
     1
 10
0.0
 20
5.478394454710683
 11
0.0
 21
3.507109517604995
 72
     1
 10
0.0
 20
3.507109517604995
 11
0.7007328839694904
 21
3.507109517604995
 72
     1
 10
0.7007328839694904
 20
3.507109517604995
 11
0.7007328839694904
 21
3.723461656804983
 72
     4
 94
        3
 73
     1
 74
     0
 95
        8
 96
        4
 40
13.0
 40
13.0
 40
13.0
 40
13.0
 40
14.0
 40
14.0
 40
14.0
 40
14.0
 10
0.7007328839694904
 20
3.723461656804983
 42
1.0
 10
0.7007328839694904
 20
4.561309431541205
 42
1.0
 10
1.281576365961767
 20
4.823136861146299
 42
1.0
 10
1.593702222833115
 20
4.823136861146299
 42
1.0
 72
     1
 10
1.593702222833115
 20
4.823136861146299
 11
2.191771193615299
 21
4.823136861146299
 72
     1
 10
2.191771193615299
 20
4.823136861146299
 11
2.191771193615299
 21
1.223009704076405
 97
        0
 75
     0
 76
     2
 52
0.0
 41
0.0625
 77
     0
 78
     1
 53
45.00000209717174
 43
0.0
 44
0.0
 45
-0.1324587826340992
 46
0.1324587729374407
 79
     0
 98
        1
 10
0.0
 20
0.0
  0
HATCH
  5
E0
330
88
100
AcDbEntity
  8
0
  6
Continuous
 62
     7
100
AcDbHatch
 10
0.0
 20
0.0
 30
0.0
210
0.0
220
0.0
230
1.0
  2
0_TOTO_Metal
 70
     0
 71
     0
 91
        2
 92
        0
 93
       12
 72
     4
 94
        3
 73
     1
 74
     0
 95
        8
 96
        4
 40
10.0
 40
10.0
 40
10.0
 40
10.0
 40
11.0
 40
11.0
 40
11.0
 40
11.0
 10
11.36331044486089
 20
0.6952207275567057
 42
1.0
 10
11.90487981241239
 20
1.156863827123517
 42
1.0
 10
12.2817735071335
 20
1.876889258537517
 42
1.0
 10
12.2817735071335
 20
2.694755466277593
 42
1.0
 72
     1
 10
12.2817735071335
 20
2.694755466277593
 11
12.2817735071335
 21
2.851851924040694
 72
     1
 10
12.2817735071335
 20
2.851851924040694
 11
12.2817735071335
 21
3.002058186287793
 72
     4
 94
        3
 73
     1
 74
     0
 95
        8
 96
        4
 40
1.0
 40
1.0
 40
1.0
 40
1.0
 40
2.0
 40
2.0
 40
2.0
 40
2.0
 10
12.2817735071335
 20
3.002058186287793
 42
1.0
 10
12.2817735071335
 20
3.822680472234302
 42
1.0
 10
11.90487981241239
 20
4.540638844993506
 42
1.0
 10
11.36331044486089
 20
5.000214885905574
 42
1.0
 72
     4
 94
        3
 73
     1
 74
     0
 95
        8
 96
        4
 40
2.0
 40
2.0
 40
2.0
 40
2.0
 40
3.0
 40
3.0
 40
3.0
 40
3.0
 10
11.36331044486089
 20
5.000214885905574
 42
1.0
 10
10.81002774493217
 20
5.46599210278198
 42
1.0
 10
10.04177094490677
 20
5.700258750323401
 42
1.0
 10
9.213569443892789
 20
5.700258750323401
 42
1.0
 72
     4
 94
        3
 73
     1
 74
     0
 95
        8
 96
        4
 40
3.0
 40
3.0
 40
3.0
 40
3.0
 40
4.0
 40
4.0
 40
4.0
 40
4.0
 10
9.213569443892789
 20
5.700258750323401
 42
1.0
 10
8.383300884223955
 20
5.700258750323401
 42
1.0
 10
7.61297702554381
 20
5.46599210278198
 42
1.0
 10
7.065895501579488
 20
5.000214885905574
 42
1.0
 72
     4
 94
        3
 73
     1
 74
     0
 95
        8
 96
        4
 40
4.0
 40
4.0
 40
4.0
 40
4.0
 40
5.0
 40
5.0
 40
5.0
 40
5.0
 10
7.065895501579488
 20
5.000214885905574
 42
1.0
 10
6.517435938512007
 20
4.540638844993506
 42
1.0
 10
6.140542243790903
 20
3.822680472234302
 42
1.0
 10
6.140542243790903
 20
3.002058186287793
 42
1.0
 72
     1
 10
6.140542243790903
 20
3.002058186287793
 11
6.140542243790903
 21
2.851851924040694
 72
     1
 10
6.140542243790903
 20
2.851851924040694
 11
6.140542243790903
 21
2.694755466277593
 72
     4
 94
        3
 73
     1
 74
     0
 95
        8
 96
        4
 40
7.0
 40
7.0
 40
7.0
 40
7.0
 40
8.0
 40
8.0
 40
8.0
 40
8.0
 10
6.140542243790903
 20
2.694755466277593
 42
1.0
 10
6.140542243790903
 20
1.876889258537517
 42
1.0
 10
6.517435938512007
 20
1.156863827123517
 42
1.0
 10
7.065895501579488
 20
0.6952207275567057
 42
1.0
 72
     4
 94
        3
 73
     1
 74
     0
 95
        8
 96
        4
 40
8.0
 40
8.0
 40
8.0
 40
8.0
 40
9.0
 40
9.0
 40
9.0
 40
9.0
 10
7.065895501579488
 20
0.6952207275567057
 42
1.0
 10
7.61297702554381
 20
0.2349556670930009
 42
1.0
 10
8.383300884223955
 20
0.0
 42
1.0
 10
9.213569443892789
 20
0.0
 42
1.0
 72
     4
 94
        3
 73
     1
 74
     0
 95
        8
 96
        4
 40
9.0
 40
9.0
 40
9.0
 40
9.0
 40
10.0
 40
10.0
 40
10.0
 40
10.0
 10
9.213569443892789
 20
0.0
 42
1.0
 10
10.04177094490677
 20
0.0
 42
1.0
 10
10.81002774493217
 20
0.2349556670930009
 42
1.0
 10
11.36331044486089
 20
0.6952207275567057
 42
1.0
 97
        0
 92
        0
 93
       10
 72
     4
 94
        3
 73
     1
 74
     0
 95
        8
 96
        4
 40
7.0
 40
7.0
 40
7.0
 40
7.0
 40
8.0
 40
8.0
 40
8.0
 40
8.0
 10
9.213569443892789
 20
0.6993548448661902
 42
1.0
 10
9.105393374292781
 20
0.6993548448661902
 42
1.0
 10
8.51421459902657
 20
0.6952207275567057
 42
1.0
 10
8.076687183765364
 20
1.223009704076405
 42
1.0
 72
     4
 94
        3
 73
     1
 74
     0
 95
        8
 96
        4
 40
8.0
 40
8.0
 40
8.0
 40
8.0
 40
9.0
 40
9.0
 40
9.0
 40
9.0
 10
8.076687183765364
 20
1.223009704076405
 42
1.0
 10
7.827951125640553
 20
1.517910072157902
 42
1.0
 10
7.635714670746252
 20
2.005735914685308
 42
1.0
 10
7.635714670746252
 20
2.780882910226684
 42
1.0
 72
     1
 10
7.635714670746252
 20
2.780882910226684
 11
7.635714670746252
 21
2.916619761890421
 72
     4
 94
        3
 73
     1
 74
     0
 95
        8
 96
        4
 40
0.0
 40
0.0
 40
0.0
 40
0.0
 40
1.0
 40
1.0
 40
1.0
 40
1.0
 10
7.635714670746252
 20
2.916619761890421
 42
1.0
 10
7.635714670746252
 20
3.691077737880105
 42
1.0
 10
7.827951125640553
 20
4.182348678165498
 42
1.0
 10
8.076687183765364
 20
4.477938065798604
 42
1.0
 72
     4
 94
        3
 73
     1
 74
     0
 95
        8
 96
        4
 40
1.0
 40
1.0
 40
1.0
 40
1.0
 40
2.0
 40
2.0
 40
2.0
 40
2.0
 10
8.076687183765364
 20
4.477938065798604
 42
1.0
 10
8.51421459902657
 20
5.000214885905574
 42
1.0
 10
9.105393374292781
 20
4.998147827250804
 42
1.0
 10
9.213569443892789
 20
4.998147827250804
 42
1.0
 72
     4
 94
        3
 73
     1
 74
     0
 95
        8
 96
        4
 40
2.0
 40
2.0
 40
2.0
 40
2.0
 40
3.0
 40
3.0
 40
3.0
 40
3.0
 10
9.213569443892789
 20
4.998147827250804
 42
1.0
 10
9.332080806766674
 20
4.998147827250804
 42
1.0
 10
9.908790171449356
 20
5.000214885905574
 42
1.0
 10
10.35320778222648
 20
4.477938065798604
 42
1.0
 72
     4
 94
        3
 73
     1
 74
     0
 95
        8
 96
        4
 40
3.0
 40
3.0
 40
3.0
 40
3.0
 40
4.0
 40
4.0
 40
4.0
 40
4.0
 10
10.35320778222648
 20
4.477938065798604
 42
1.0
 10
10.59780972304175
 20
4.182348678165498
 42
1.0
 10
10.79142421703921
 20
3.691077737880105
 42
1.0
 10
10.79142421703921
 20
2.916619761890421
 42
1.0
 72
     1
 10
10.79142421703921
 20
2.916619761890421
 11
10.79142421703921
 21
2.780882910226684
 72
     4
 94
        3
 73
     1
 74
     0
 95
        8
 96
        4
 40
5.0
 40
5.0
 40
5.0
 40
5.0
 40
6.0
 40
6.0
 40
6.0
 40
6.0
 10
10.79142421703921
 20
2.780882910226684
 42
1.0
 10
10.79142421703921
 20
2.005735914685308
 42
1.0
 10
10.59780972304175
 20
1.517910072157902
 42
1.0
 10
10.35320778222648
 20
1.223009704076405
 42
1.0
 72
     4
 94
        3
 73
     1
 74
     0
 95
        8
 96
        4
 40
6.0
 40
6.0
 40
6.0
 40
6.0
 40
7.0
 40
7.0
 40
7.0
 40
7.0
 10
10.35320778222648
 20
1.223009704076405
 42
1.0
 10
9.908790171449356
 20
0.6952207275567057
 42
1.0
 10
9.327257669905498
 20
0.6993548448661902
 42
1.0
 10
9.213569443892789
 20
0.6993548448661902
 42
1.0
 97
        0
 75
     0
 76
     2
 52
0.0
 41
0.0625
 77
     0
 78
     1
 53
45.00000209717174
 43
0.0
 44
0.0
 45
-0.1324587826340992
 46
0.1324587729374407
 79
     0
 98
        1
 10
0.0
 20
0.0
  0
HATCH
  5
E1
330
88
100
AcDbEntity
  8
0
  6
Continuous
 62
     7
100
AcDbHatch
 10
0.0
 20
0.0
 30
0.0
210
0.0
220
0.0
230
1.0
  2
0_TOTO_Metal
 70
     0
 71
     0
 91
        1
 92
        0
 93
       20
 72
     4
 94
        3
 73
     1
 74
     0
 95
        8
 96
        4
 40
16.0
 40
16.0
 40
16.0
 40
16.0
 40
17.0
 40
17.0
 40
17.0
 40
17.0
 10
14.91107211600978
 20
1.223009704076405
 42
1.0
 10
14.91107211600978
 20
1.030084229630496
 42
1.0
 10
14.7546646777984
 20
0.8722987523158976
 42
1.0
 10
14.55898312514609
 20
0.8722987523158976
 42
1.0
 72
     1
 10
14.55898312514609
 20
0.8722987523158976
 11
13.81759808763278
 21
0.8722987523158976
 72
     1
 10
13.81759808763278
 20
0.8722987523158976
 11
13.81759808763278
 21
0.2149741000967986
 72
     1
 10
13.81759808763278
 20
0.2149741000967986
 11
17.32332956613458
 21
0.2149741000967986
 72
     1
 10
17.32332956613458
 20
0.2149741000967986
 11
17.32332956613458
 21
0.8722987523158976
 72
     1
 10
17.32332956613458
 20
0.8722987523158976
 11
16.57849943086326
 21
0.8722987523158976
 72
     4
 94
        3
 73
     1
 74
     0
 95
        8
 96
        4
 40
2.0
 40
2.0
 40
2.0
 40
2.0
 40
3.0
 40
3.0
 40
3.0
 40
3.0
 10
16.57849943086326
 20
0.8722987523158976
 42
1.0
 10
16.38626297596896
 20
0.8722987523158976
 42
1.0
 10
16.229166518206
 20
1.030084229630496
 42
1.0
 10
16.229166518206
 20
1.223009704076405
 42
1.0
 72
     1
 10
16.229166518206
 20
1.223009704076405
 11
16.229166518206
 21
4.823136861146299
 72
     1
 10
16.229166518206
 20
4.823136861146299
 11
16.8244794107818
 21
4.823136861146299
 72
     4
 94
        3
 73
     1
 74
     0
 95
        8
 96
        4
 40
5.0
 40
5.0
 40
5.0
 40
5.0
 40
6.0
 40
6.0
 40
6.0
 40
6.0
 10
16.8244794107818
 20
4.823136861146299
 42
1.0
 10
17.14142840451422
 20
4.823136861146299
 42
1.0
 10
17.71951580830017
 20
4.561309431541205
 42
1.0
 10
17.71951580830017
 20
3.723461656804983
 42
1.0
 72
     1
 10
17.71951580830017
 20
3.723461656804983
 11
17.71951580830017
 21
3.507109517604995
 72
     1
 10
17.71951580830017
 20
3.507109517604995
 11
18.41955967271797
 21
3.507109517604995
 72
     1
 10
18.41955967271797
 20
3.507109517604995
 11
18.41955967271797
 21
5.478394454710683
 72
     1
 10
18.41955967271797
 20
5.478394454710683
 11
12.71930092239459
 21
5.478394454710683
 72
     1
 10
12.71930092239459
 20
5.478394454710683
 11
12.71930092239459
 21
3.507109517604995
 72
     1
 10
12.71930092239459
 20
3.507109517604995
 11
13.41865576726081
 21
3.507109517604995
 72
     1
 10
13.41865576726081
 20
3.507109517604995
 11
13.41865576726081
 21
3.723461656804983
 72
     4
 94
        3
 73
     1
 74
     0
 95
        8
 96
        4
 40
13.0
 40
13.0
 40
13.0
 40
13.0
 40
14.0
 40
14.0
 40
14.0
 40
14.0
 10
13.41865576726081
 20
3.723461656804983
 42
1.0
 10
13.41865576726081
 20
4.561309431541205
 42
1.0
 10
14.00087728835625
 20
4.823136861146299
 42
1.0
 10
14.31369216477929
 20
4.823136861146299
 42
1.0
 72
     1
 10
14.31369216477929
 20
4.823136861146299
 11
14.91107211600978
 21
4.823136861146299
 72
     1
 10
14.91107211600978
 20
4.823136861146299
 11
14.91107211600978
 21
1.223009704076405
 97
        0
 75
     0
 76
     2
 52
0.0
 41
0.0625
 77
     0
 78
     1
 53
45.00000209717174
 43
0.0
 44
0.0
 45
-0.1324587826340992
 46
0.1324587729374407
 79
     0
 98
        1
 10
0.0
 20
0.0
  0
HATCH
  5
E2
330
88
100
AcDbEntity
  8
0
  6
Continuous
 62
     7
100
AcDbHatch
 10
0.0
 20
0.0
 30
0.0
210
0.0
220
0.0
230
1.0
  2
0_TOTO_Metal
 70
     0
 71
     0
 91
        2
 92
        0
 93
       12
 72
     4
 94
        3
 73
     1
 74
     0
 95
        8
 96
        4
 40
10.0
 40
10.0
 40
10.0
 40
10.0
 40
11.0
 40
11.0
 40
11.0
 40
11.0
 10
24.08054430860068
 20
0.6952207275567057
 42
1.0
 10
24.62211367615219
 20
1.156863827123517
 42
1.0
 10
24.99969639042476
 20
1.876889258537517
 42
1.0
 10
24.99969639042476
 20
2.694755466277593
 42
1.0
 72
     1
 10
24.99969639042476
 20
2.694755466277593
 11
24.99969639042476
 21
2.851851924040694
 72
     1
 10
24.99969639042476
 20
2.851851924040694
 11
24.99969639042476
 21
3.002058186287793
 72
     4
 94
        3
 73
     1
 74
     0
 95
        8
 96
        4
 40
1.0
 40
1.0
 40
1.0
 40
1.0
 40
2.0
 40
2.0
 40
2.0
 40
2.0
 10
24.99969639042476
 20
3.002058186287793
 42
1.0
 10
24.99969639042476
 20
3.822680472234302
 42
1.0
 10
24.62211367615219
 20
4.540638844993506
 42
1.0
 10
24.08054430860068
 20
5.000214885905574
 42
1.0
 72
     4
 94
        3
 73
     1
 74
     0
 95
        8
 96
        4
 40
2.0
 40
2.0
 40
2.0
 40
2.0
 40
3.0
 40
3.0
 40
3.0
 40
3.0
 10
24.08054430860068
 20
5.000214885905574
 42
1.0
 10
23.5320847455332
 20
5.46599210278198
 42
1.0
 10
22.76107186730131
 20
5.700258750323401
 42
1.0
 10
21.93149232718411
 20
5.700258750323401
 42
1.0
 72
     4
 94
        3
 73
     1
 74
     0
 95
        8
 96
        4
 40
3.0
 40
3.0
 40
3.0
 40
3.0
 40
4.0
 40
4.0
 40
4.0
 40
4.0
 10
21.93149232718411
 20
5.700258750323401
 42
1.0
 10
21.10191278706697
 20
5.700258750323401
 42
1.0
 10
20.33227794793829
 20
5.46599210278198
 42
1.0
 10
19.78381838487081
 20
5.000214885905574
 42
1.0
 72
     4
 94
        3
 73
     1
 74
     0
 95
        8
 96
        4
 40
4.0
 40
4.0
 40
4.0
 40
4.0
 40
5.0
 40
5.0
 40
5.0
 40
5.0
 10
19.78381838487081
 20
5.000214885905574
 42
1.0
 10
19.23742588045807
 20
4.540638844993506
 42
1.0
 10
18.86191022484029
 20
3.822680472234302
 42
1.0
 10
18.86191022484029
 20
3.002058186287793
 42
1.0
 72
     1
 10
18.86191022484029
 20
3.002058186287793
 11
18.86191022484029
 21
2.851851924040694
 72
     1
 10
18.86191022484029
 20
2.851851924040694
 11
18.86191022484029
 21
2.694755466277593
 72
     4
 94
        3
 73
     1
 74
     0
 95
        8
 96
        4
 40
7.0
 40
7.0
 40
7.0
 40
7.0
 40
8.0
 40
8.0
 40
8.0
 40
8.0
 10
18.86191022484029
 20
2.694755466277593
 42
1.0
 10
18.86191022484029
 20
1.876889258537517
 42
1.0
 10
19.23742588045807
 20
1.156863827123517
 42
1.0
 10
19.78381838487081
 20
0.6952207275567057
 42
1.0
 72
     4
 94
        3
 73
     1
 74
     0
 95
        8
 96
        4
 40
8.0
 40
8.0
 40
8.0
 40
8.0
 40
9.0
 40
9.0
 40
9.0
 40
9.0
 10
19.78381838487081
 20
0.6952207275567057
 42
1.0
 10
20.33227794793829
 20
0.2349556670930009
 42
1.0
 10
21.10191278706697
 20
0.0
 42
1.0
 10
21.93149232718411
 20
0.0
 42
1.0
 72
     4
 94
        3
 73
     1
 74
     0
 95
        8
 96
        4
 40
9.0
 40
9.0
 40
9.0
 40
9.0
 40
10.0
 40
10.0
 40
10.0
 40
10.0
 10
21.93149232718411
 20
0.0
 42
1.0
 10
22.76107186730131
 20
0.0
 42
1.0
 10
23.5320847455332
 20
0.2349556670930009
 42
1.0
 10
24.08054430860068
 20
0.6952207275567057
 42
1.0
 97
        0
 92
        0
 93
       10
 72
     4
 94
        3
 73
     1
 74
     0
 95
        8
 96
        4
 40
7.0
 40
7.0
 40
7.0
 40
7.0
 40
8.0
 40
8.0
 40
8.0
 40
8.0
 10
21.93355938583891
 20
0.6993548448661902
 42
1.0
 10
21.82676135534206
 20
0.6993548448661902
 42
1.0
 10
21.23558258007591
 20
0.6952207275567057
 42
1.0
 10
20.79667712571159
 20
1.223009704076405
 42
1.0
 72
     4
 94
        3
 73
     1
 74
     0
 95
        8
 96
        4
 40
8.0
 40
8.0
 40
8.0
 40
8.0
 40
9.0
 40
9.0
 40
9.0
 40
9.0
 10
20.79667712571159
 20
1.223009704076405
 42
1.0
 10
20.5472520480352
 20
1.517910072157902
 42
1.0
 10
20.3550155931409
 20
2.005735914685308
 42
1.0
 10
20.3550155931409
 20
2.780882910226684
 42
1.0
 72
     1
 10
20.3550155931409
 20
2.780882910226684
 11
20.3550155931409
 21
2.916619761890421
 72
     4
 94
        3
 73
     1
 74
     0
 95
        8
 96
        4
 40
0.0
 40
0.0
 40
0.0
 40
0.0
 40
1.0
 40
1.0
 40
1.0
 40
1.0
 10
20.3550155931409
 20
2.916619761890421
 42
1.0
 10
20.3550155931409
 20
3.691077737880105
 42
1.0
 10
20.5472520480352
 20
4.182348678165498
 42
1.0
 10
20.79667712571159
 20
4.477938065798604
 42
1.0
 72
     4
 94
        3
 73
     1
 74
     0
 95
        8
 96
        4
 40
1.0
 40
1.0
 40
1.0
 40
1.0
 40
2.0
 40
2.0
 40
2.0
 40
2.0
 10
20.79667712571159
 20
4.477938065798604
 42
1.0
 10
21.23558258007591
 20
5.000214885905574
 42
1.0
 10
21.82676135534206
 20
4.998147827250804
 42
1.0
 10
21.93355938583891
 20
4.998147827250804
 42
1.0
 72
     4
 94
        3
 73
     1
 74
     0
 95
        8
 96
        4
 40
2.0
 40
2.0
 40
2.0
 40
2.0
 40
3.0
 40
3.0
 40
3.0
 40
3.0
 10
21.93355938583891
 20
4.998147827250804
 42
1.0
 10
22.05138172916116
 20
4.998147827250804
 42
1.0
 10
22.62878011339559
 20
5.000214885905574
 42
1.0
 10
23.0718196850695
 20
4.477938065798604
 42
1.0
 72
     4
 94
        3
 73
     1
 74
     0
 95
        8
 96
        4
 40
3.0
 40
3.0
 40
3.0
 40
3.0
 40
4.0
 40
4.0
 40
4.0
 40
4.0
 10
23.0718196850695
 20
4.477938065798604
 42
1.0
 10
23.31779966498787
 20
4.182348678165498
 42
1.0
 10
23.51072513943381
 20
3.691077737880105
 42
1.0
 10
23.51072513943381
 20
2.916619761890421
 42
1.0
 72
     1
 10
23.51072513943381
 20
2.916619761890421
 11
23.51072513943381
 21
2.780882910226684
 72
     4
 94
        3
 73
     1
 74
     0
 95
        8
 96
        4
 40
5.0
 40
5.0
 40
5.0
 40
5.0
 40
6.0
 40
6.0
 40
6.0
 40
6.0
 10
23.51072513943381
 20
2.780882910226684
 42
1.0
 10
23.51072513943381
 20
2.005735914685308
 42
1.0
 10
23.31779966498787
 20
1.517910072157902
 42
1.0
 10
23.0718196850695
 20
1.223009704076405
 42
1.0
 72
     4
 94
        3
 73
     1
 74
     0
 95
        8
 96
        4
 40
6.0
 40
6.0
 40
6.0
 40
6.0
 40
7.0
 40
7.0
 40
7.0
 40
7.0
 10
23.0718196850695
 20
1.223009704076405
 42
1.0
 10
22.62878011339559
 20
0.6952207275567057
 42
1.0
 10
22.04655859230009
 20
0.6993548448661902
 42
1.0
 10
21.93355938583891
 20
0.6993548448661902
 42
1.0
 97
        0
 75
     0
 76
     2
 52
0.0
 41
0.0625
 77
     0
 78
     1
 53
45.00000209717174
 43
0.0
 44
0.0
 45
-0.1324587826340992
 46
0.1324587729374407
 79
     0
 98
        1
 10
0.0
 20
0.0
  0
ENDBLK
  5
8A
330
88
100
AcDbEntity
  8
0
100
AcDbBlockEnd
  0
BLOCK
  5
123
330
122
100
AcDbEntity
  8
0
100
AcDbBlockBegin
  2
SW_NOTE_0
 70
     0
 10
0.0
 20
0.0
 30
0.0
  3
SW_NOTE_0
  1

  0
MTEXT
  5
126
330
122
100
AcDbEntity
  8
DEFAULT_LAYER
 62
     0
100
AcDbMText
 10
0.0
 20
4.0927900738
 30
0.0
 40
3.175
 41
0.0
 71
     1
 72
     1
  1
ハンガー付きシャワーエルボ
  7
SLDTEXTSTYLE0
 73
     1
 44
1.0
  0
MTEXT
  5
127
330
122
100
AcDbEntity
  8
DEFAULT_LAYER
 62
     0
100
AcDbMText
 10
0.0
 20
-1.1405433723
 30
0.0
 40
3.175
 41
0.0
 71
     1
 72
     1
  1
丸型
  7
SLDTEXTSTYLE0
 73
     1
 44
1.0
  0
ENDBLK
  5
124
330
122
100
AcDbEntity
  8
0
100
AcDbBlockEnd
  0
BLOCK
  5
133
330
132
100
AcDbEntity
  8
0
100
AcDbBlockBegin
  2
SW_NOTE_1
 70
     0
 10
0.0
 20
0.0
 30
0.0
  3
SW_NOTE_1
  1

  0
MTEXT
  5
135
330
132
100
AcDbEntity
  8
0
  6
Continuous
 62
     0
370
     0
100
AcDbMText
 10
0.653125
 20
2.8359490275
 30
0.0
 40
2.2
 41
0.0
 71
     2
 72
     1
  1
R
  7
SLDTEXTSTYLE0
 73
     1
 44
1.0
  0
MTEXT
  5
136
330
132
100
AcDbEntity
  8
0
  6
Continuous
 62
     0
370
     0
100
AcDbMText
 10
0.653125
 20
0.1359489575
 30
0.0
 40
2.2
 41
0.0
 71
     2
 72
     1
  1
E
  7
SLDTEXTSTYLE0
 73
     1
 44
1.0
  0
MTEXT
  5
137
330
132
100
AcDbEntity
  8
0
  6
Continuous
 62
     0
370
     0
100
AcDbMText
 10
0.653125
 20
-2.5640511126
 30
0.0
 40
2.2
 41
0.0
 71
     2
 72
     1
  1
V
  7
SLDTEXTSTYLE0
 73
     1
 44
1.0
  0
MTEXT
  5
138
330
132
100
AcDbEntity
  8
0
  6
Continuous
 62
     0
370
     0
100
AcDbMText
 10
0.653125
 20
-5.2640511826
 30
0.0
 40
2.2
 41
0.0
 71
     2
 72
     1
  1
I
  7
SLDTEXTSTYLE0
 73
     1
 44
1.0
  0
MTEXT
  5
139
330
132
100
AcDbEntity
  8
0
  6
Continuous
 62
     0
370
     0
100
AcDbMText
 10
0.653125
 20
-7.9640512526
 30
0.0
 40
2.2
 41
0.0
 71
     2
 72
     1
  1
S
  7
SLDTEXTSTYLE0
 73
     1
 44
1.0
  0
MTEXT
  5
13A
330
132
100
AcDbEntity
  8
0
  6
Continuous
 62
     0
370
     0
100
AcDbMText
 10
0.653125
 20
-10.6640513227
 30
0.0
 40
2.2
 41
0.0
 71
     2
 72
     1
  1
I
  7
SLDTEXTSTYLE0
 73
     1
 44
1.0
  0
MTEXT
  5
13B
330
132
100
AcDbEntity
  8
0
  6
Continuous
 62
     0
370
     0
100
AcDbMText
 10
0.653125
 20
-13.3640513927
 30
0.0
 40
2.2
 41
0.0
 71
     2
 72
     1
  1
O
  7
SLDTEXTSTYLE0
 73
     1
 44
1.0
  0
MTEXT
  5
13C
330
132
100
AcDbEntity
  8
0
  6
Continuous
 62
     0
370
     0
100
AcDbMText
 10
0.653125
 20
-16.0640514627
 30
0.0
 40
2.2
 41
0.0
 71
     2
 72
     1
  1
N
  7
SLDTEXTSTYLE0
 73
     1
 44
1.0
  0
MTEXT
  5
13D
330
132
100
AcDbEntity
  8
0
  6
Continuous
 62
     0
370
     0
100
AcDbMText
 10
0.653125
 20
-18.7640515328
 30
0.0
 40
2.2
 41
0.0
 71
     2
 72
     1
  1
S
  7
SLDTEXTSTYLE0
 73
     1
 44
1.0
  0
ENDBLK
  5
134
330
132
100
AcDbEntity
  8
0
100
AcDbBlockEnd
  0
BLOCK
  5
1A5
330
1A4
100
AcDbEntity
  8
0
100
AcDbBlockBegin
  2
_OPEN30
 70
     0
 10
0.0
 20
0.0
 30
0.0
  3
_OPEN30
  1

  0
LINE
  5
1A7
330
1A4
100
AcDbEntity
  8
0
  6
ByBlock
 62
     0
370
    -2
100
AcDbLine
 10
-1.0
 20
0.267949
 30
0.0
 11
0.0
 21
0.0
 31
0.0
  0
LINE
  5
1A8
330
1A4
100
AcDbEntity
  8
0
  6
ByBlock
 62
     0
370
    -2
100
AcDbLine
 10
0.0
 20
0.0
 30
0.0
 11
-1.0
 21
-0.267949
 31
0.0
  0
LINE
  5
1A9
330
1A4
100
AcDbEntity
  8
0
  6
ByBlock
 62
     0
370
    -2
100
AcDbLine
 10
0.0
 20
0.0
 30
0.0
 11
-1.0
 21
0.0
 31
0.0
  0
ENDBLK
  5
1A6
330
1A4
100
AcDbEntity
  8
0
100
AcDbBlockEnd
  0
BLOCK
  5
1AB
330
1AA
100
AcDbEntity
  8
0
100
AcDbBlockBegin
  2
_D
 70
     0
 10
0.0
 20
0.0
 30
0.0
  3
_D
  1

  0
ARC
  5
1AD
330
1AA
100
AcDbEntity
  8
DEFAULT_LAYER
100
AcDbCircle
 10
96.8634483283
 20
109.1322011272
 30
0.0
 40
19.00000000000001
100
AcDbArc
 50
191.9872124958
 51
295.759585359
  0
INSERT
  5
1AE
330
1AA
100
AcDbEntity
  8
DEFAULT_LAYER
100
AcDbBlockReference
  2
_OPEN30
 10
78.5108576288
 20
104.2146392702
 30
0.4436997155
 41
2.5
 42
2.5
 50
15.0
  0
INSERT
  5
1AF
330
1AA
100
AcDbEntity
  8
DEFAULT_LAYER
100
AcDbBlockReference
  2
_OPEN30
 10
115.2160390278
 20
114.0497629841
 30
0.4436997155
 41
2.5
 42
2.5
 50
195.0
  0
LINE
  5
1B0
330
1AA
100
AcDbEntity
  8
DEFAULT_LAYER
100
AcDbLine
 10
115.2160390278
 20
114.0497629841
 30
0.0
 11
130.7753710628
 21
118.2188734377
 31
0.0
  0
LINE
  5
1B1
330
1AA
100
AcDbEntity
  8
DEFAULT_LAYER
100
AcDbLine
 10
78.5108576288
 20
104.2146392702
 30
0.0
 11
75.6130801499
 21
103.4381821349
 31
0.0
  0
LINE
  5
1B2
330
1AA
100
AcDbEntity
  8
DEFAULT_LAYER
100
AcDbLine
 10
115.2160390278
 20
114.0497629841
 30
0.0
 11
78.5108576288
 21
104.2146392702
 31
0.0
  0
MTEXT
  5
1B3
330
1AA
100
AcDbEntity
  8
DEFAULT_LAYER
100
AcDbMText
 10
124.7538774888
 20
119.4281468209
 30
0.0
 40
2.1166666667
 41
0.0
 71
     1
 72
     1
  1
%%c
  7
SLDTEXTSTYLE0
 11
0.9659258262890681
 21
0.2588190451025216
 31
0.0
 73
     1
 44
1.0
  0
MTEXT
  5
1B4
330
1AA
100
AcDbEntity
  8
DEFAULT_LAYER
100
AcDbMText
 10
127.3436320578
 20
120.1220694663
 30
0.0
 40
2.1166666667
 41
0.0
 71
     1
 72
     1
  1
38
  7
SLDTEXTSTYLE0
 11
0.9659258262890681
 21
0.2588190451025216
 31
0.0
 73
     1
 44
1.0
  0
ENDBLK
  5
1AC
330
1AA
100
AcDbEntity
  8
0
100
AcDbBlockEnd
  0
BLOCK
  5
1B7
330
1B6
100
AcDbEntity
  8
0
100
AcDbBlockBegin
  2
_D_1
 70
     0
 10
0.0
 20
0.0
 30
0.0
  3
_D_1
  1

  0
INSERT
  5
1B9
330
1B6
100
AcDbEntity
  8
DEFAULT_LAYER
100
AcDbBlockReference
  2
_OPEN30
 10
73.5861252917
 20
94.4892426744
 30
0.4436997155
 41
2.5
 42
2.5
 50
32.1725775262
  0
INSERT
  5
1BA
330
1B6
100
AcDbEntity
  8
DEFAULT_LAYER
100
AcDbBlockReference
  2
_OPEN30
 10
120.1407713649
 20
123.7751595799
 30
0.4436997155
 41
2.5
 42
2.5
 50
212.1725775262
  0
LINE
  5
1BB
330
1B6
100
AcDbEntity
  8
DEFAULT_LAYER
100
AcDbLine
 10
120.1407713649
 20
123.7751595799
 30
0.0
 11
127.8198950993
 21
128.6058305991
 31
0.0
  0
LINE
  5
1BC
330
1B6
100
AcDbEntity
  8
DEFAULT_LAYER
100
AcDbLine
 10
73.5861252917
 20
94.4892426744
 30
0.0
 11
71.0467809604
 21
92.891829025
 31
0.0
  0
LINE
  5
1BD
330
1B6
100
AcDbEntity
  8
DEFAULT_LAYER
100
AcDbLine
 10
120.1407713649
 20
123.7751595799
 30
0.0
 11
73.5861252917
 21
94.4892426744
 31
0.0
  0
MTEXT
  5
1BE
330
1B6
100
AcDbEntity
  8
DEFAULT_LAYER
100
AcDbMText
 10
121.7097130842
 20
127.9834849352
 30
0.0
 40
2.1166666667
 41
0.0
 71
     1
 72
     1
  1
%%c
  7
SLDTEXTSTYLE0
 11
0.8464481104224059
 21
0.5324712164637058
 31
0.0
 73
     1
 44
1.0
  0
MTEXT
  5
1BF
330
1B6
100
AcDbEntity
  8
DEFAULT_LAYER
100
AcDbMText
 10
123.9791346089
 20
129.4110994871
 30
0.0
 40
2.1166666667
 41
0.0
 71
     1
 72
     1
  1
55
  7
SLDTEXTSTYLE0
 11
0.8464481104224059
 21
0.5324712164637058
 31
0.0
 73
     1
 44
1.0
  0
ENDBLK
  5
1B8
330
1B6
100
AcDbEntity
  8
0
100
AcDbBlockEnd
  0
BLOCK
  5
1C1
330
1C0
100
AcDbEntity
  8
0
100
AcDbBlockBegin
  2
SW_CENTERMARKSYMBOL_0
 70
     0
 10
0.0
 20
0.0
 30
0.0
  3
SW_CENTERMARKSYMBOL_0
  1

  0
LINE
  5
1C3
330
1C0
100
AcDbEntity
  8
DEFAULT_LAYER
 62
     0
100
AcDbLine
 10
0.0
 20
0.0
 30
0.0
 11
0.0
 21
2.5
 31
0.0
  0
LINE
  5
1C4
330
1C0
100
AcDbEntity
  8
DEFAULT_LAYER
 62
     0
100
AcDbLine
 10
0.0
 20
0.0
 30
0.0
 11
-2.5
 21
0.0
 31
0.0
  0
LINE
  5
1C5
330
1C0
100
AcDbEntity
  8
DEFAULT_LAYER
 62
     0
100
AcDbLine
 10
0.0
 20
0.0
 30
0.0
 11
0.0
 21
-2.5
 31
0.0
  0
LINE
  5
1C6
330
1C0
100
AcDbEntity
  8
DEFAULT_LAYER
 62
     0
100
AcDbLine
 10
0.0
 20
0.0
 30
0.0
 11
2.5
 21
0.0
 31
0.0
  0
LINE
  5
1C7
330
1C0
100
AcDbEntity
  8
DEFAULT_LAYER
 62
     0
100
AcDbLine
 10
0.0
 20
5.0
 30
0.0
 11
0.0
 21
30.0
 31
0.0
  0
LINE
  5
1C8
330
1C0
100
AcDbEntity
  8
DEFAULT_LAYER
 62
     0
100
AcDbLine
 10
-5.0
 20
0.0
 30
0.0
 11
-30.0
 21
0.0
 31
0.0
  0
LINE
  5
1C9
330
1C0
100
AcDbEntity
  8
DEFAULT_LAYER
 62
     0
100
AcDbLine
 10
0.0
 20
-5.0
 30
0.0
 11
0.0
 21
-30.0
 31
0.0
  0
LINE
  5
1CA
330
1C0
100
AcDbEntity
  8
DEFAULT_LAYER
 62
     0
100
AcDbLine
 10
5.0
 20
0.0
 30
0.0
 11
30.0
 21
0.0
 31
0.0
  0
ENDBLK
  5
1C2
330
1C0
100
AcDbEntity
  8
0
100
AcDbBlockEnd
  0
BLOCK
  5
251
330
250
100
AcDbEntity
  8
0
100
AcDbBlockBegin
  2
_D_2
 70
     0
 10
0.0
 20
0.0
 30
0.0
  3
_D_2
  1

  0
INSERT
  5
253
330
250
100
AcDbEntity
  8
DEFAULT_LAYER
100
AcDbBlockReference
  2
_OPEN30
 10
155.6911606973
 20
157.2298422391
 30
0.0
 41
2.5
 42
2.5
 50
180.0
  0
INSERT
  5
254
330
250
100
AcDbEntity
  8
DEFAULT_LAYER
100
AcDbBlockReference
  2
_OPEN30
 10
230.0839747559
 20
157.2298422391
 30
0.0
 41
2.5
 42
2.5
 50
0.0
  0
LINE
  5
255
330
250
100
AcDbEntity
  8
DEFAULT_LAYER
100
AcDbLine
 10
155.6911606973
 20
109.1322011272
 30
0.0
 11
155.6911606973
 21
158.2298422391
 31
0.0
  0
LINE
  5
256
330
250
100
AcDbEntity
  8
DEFAULT_LAYER
100
AcDbLine
 10
230.0839747559
 20
150.980499864
 30
0.0
 11
230.0839747559
 21
158.2298422391
 31
0.0
  0
LINE
  5
257
330
250
100
AcDbEntity
  8
DEFAULT_LAYER
100
AcDbLine
 10
155.6911606973
 20
157.2298422391
 30
0.0
 11
230.0839747559
 21
157.2298422391
 31
0.0
  0
MTEXT
  5
258
330
250
100
AcDbEntity
  8
DEFAULT_LAYER
100
AcDbMText
 10
195.9856793882
 20
159.9583688677
 30
0.0
 40
2.1166666667
 41
0.0
 71
     1
 72
     1
  1
74.4
  7
SLDTEXTSTYLE0
 73
     1
 44
1.0
  0
ENDBLK
  5
252
330
250
100
AcDbEntity
  8
0
100
AcDbBlockEnd
  0
BLOCK
  5
25C
330
25B
100
AcDbEntity
  8
0
100
AcDbBlockBegin
  2
_D_3
 70
     0
 10
0.0
 20
0.0
 30
0.0
  3
_D_3
  1

  0
INSERT
  5
25E
330
25B
100
AcDbEntity
  8
DEFAULT_LAYER
100
AcDbBlockReference
  2
_OPEN30
 10
208.2010753249
 20
76.2249459827
 30
0.0
 41
2.5
 42
2.5
 50
180.0
  0
INSERT
  5
25F
330
25B
100
AcDbEntity
  8
DEFAULT_LAYER
100
AcDbBlockReference
  2
_OPEN30
 10
230.0839747559
 20
76.2249459827
 30
0.0
 41
2.5
 42
2.5
 50
0.0
  0
LINE
  5
260
330
25B
100
AcDbEntity
  8
DEFAULT_LAYER
100
AcDbLine
 10
208.2010753249
 20
83.6322011272
 30
0.0
 11
208.2010753249
 21
75.2249459827
 31
0.0
  0
LINE
  5
261
330
25B
100
AcDbEntity
  8
DEFAULT_LAYER
100
AcDbLine
 10
208.2010753249
 20
76.2249459827
 30
0.0
 11
230.0839747559
 21
76.2249459827
 31
0.0
  0
MTEXT
  5
262
330
25B
100
AcDbEntity
  8
DEFAULT_LAYER
100
AcDbMText
 10
214.5939059331
 20
78.9534726112
 30
0.0
 40
2.1166666667
 41
0.0
 71
     1
 72
     1
  1
23
  7
SLDTEXTSTYLE0
 73
     1
 44
1.0
  0
MTEXT
  5
263
330
25B
100
AcDbEntity
  8
DEFAULT_LAYER
100
AcDbMText
 10
218.6728989546
 20
78.9534726112
 30
0.0
 40
2.1166666667
 41
0.0
 71
     1
 72
     1
  1
±4
  7
SLDTEXTSTYLE0
 73
     1
 44
1.0
  0
ENDBLK
  5
25D
330
25B
100
AcDbEntity
  8
0
100
AcDbBlockEnd
  0
BLOCK
  5
267
330
266
100
AcDbEntity
  8
0
100
AcDbBlockBegin
  2
_D_4
 70
     0
 10
0.0
 20
0.0
 30
0.0
  3
_D_4
  1

  0
INSERT
  5
269
330
266
100
AcDbEntity
  8
DEFAULT_LAYER
100
AcDbBlockReference
  2
_OPEN30
 10
230.0839747559
 20
157.2298422391
 30
0.0
 41
2.5
 42
2.5
 50
180.0
  0
INSERT
  5
26A
330
266
100
AcDbEntity
  8
DEFAULT_LAYER
100
AcDbBlockReference
  2
_OPEN30
 10
241.6010753249
 20
157.2298422391
 30
0.0
 41
2.5
 42
2.5
 50
0.0
  0
LINE
  5
26B
330
266
100
AcDbEntity
  8
DEFAULT_LAYER
100
AcDbLine
 10
230.0839747559
 20
150.980499864
 30
0.0
 11
230.0839747559
 21
158.2298422391
 31
0.0
  0
LINE
  5
26C
330
266
100
AcDbEntity
  8
DEFAULT_LAYER
100
AcDbLine
 10
241.6010753249
 20
118.4477011272
 30
0.0
 11
241.6010753249
 21
158.2298422391
 31
0.0
  0
LINE
  5
26D
330
266
100
AcDbEntity
  8
DEFAULT_LAYER
100
AcDbLine
 10
230.0839747559
 20
157.2298422391
 30
0.0
 11
241.6010753249
 21
157.2298422391
 31
0.0
  0
LINE
  5
26E
330
266
100
AcDbEntity
  8
DEFAULT_LAYER
100
AcDbLine
 10
241.6010753249
 20
157.2298422391
 30
0.0
 11
254.1086991811
 21
157.2298422391
 31
0.0
  0
MTEXT
  5
26F
330
266
100
AcDbEntity
  8
DEFAULT_LAYER
100
AcDbMText
 10
242.8198104286
 20
159.9583688677
 30
0.0
 40
2.1166666667
 41
0.0
 71
     1
 72
     1
  1
10.5
  7
SLDTEXTSTYLE0
 73
     1
 44
1.0
  0
MTEXT
  5
270
330
266
100
AcDbEntity
  8
DEFAULT_LAYER
100
AcDbMText
 10
249.7210256382
 20
159.9583688677
 30
0.0
 40
2.1166666667
 41
0.0
 71
     1
 72
     1
  1
±4
  7
SLDTEXTSTYLE0
 73
     1
 44
1.0
  0
ENDBLK
  5
268
330
266
100
AcDbEntity
  8
0
100
AcDbBlockEnd
  0
BLOCK
  5
273
330
272
100
AcDbEntity
  8
0
100
AcDbBlockBegin
  2
_D_5
 70
     0
 10
0.0
 20
0.0
 30
0.0
  3
_D_5
  1

  0
INSERT
  5
275
330
272
100
AcDbEntity
  8
DEFAULT_LAYER
100
AcDbBlockReference
  2
_OPEN30
 10
203.3402628837
 20
109.1322011272
 30
0.0
 41
2.5
 42
2.5
 50
90.0
  0
INSERT
  5
276
330
272
100
AcDbEntity
  8
DEFAULT_LAYER
100
AcDbBlockReference
  2
_OPEN30
 10
203.3402628837
 20
85.6322011272
 30
0.0
 41
2.5
 42
2.5
 50
270.0
  0
LINE
  5
277
330
272
100
AcDbEntity
  8
DEFAULT_LAYER
100
AcDbLine
 10
203.3402628837
 20
109.1322011272
 30
0.0
 11
203.3402628837
 21
85.6322011272
 31
0.0
  0
MTEXT
  5
278
330
272
100
AcDbEntity
  8
DEFAULT_LAYER
100
AcDbMText
 10
200.6117362551
 20
97.8636365671
 30
0.0
 40
2.1166666667
 41
0.0
 71
     1
 72
     1
  1
23.5
  7
SLDTEXTSTYLE0
 11
-7.044195017643634E-15
 21
1.0
 31
0.0
 73
     1
 44
1.0
  0
ENDBLK
  5
274
330
272
100
AcDbEntity
  8
0
100
AcDbBlockEnd
  0
BLOCK
  5
27A
330
279
100
AcDbEntity
  8
0
100
AcDbBlockBegin
  2
SW_NOTE_2
 70
     0
 10
0.0
 20
0.0
 30
0.0
  3
SW_NOTE_2
  1

  0
LINE
  5
27C
330
279
100
AcDbEntity
  8
DEFAULT_LAYER
 62
     0
100
AcDbLine
 10
5.4464245743
 20
0.0
 30
0.0
 11
0.0
 21
0.0
 31
0.0
  0
MTEXT
  5
27D
330
279
100
AcDbEntity
  8
DEFAULT_LAYER
 62
     0
100
AcDbMText
 10
0.3061281959
 20
2.5865873675
 30
0.0
 40
2.1166666667
 41
0.0
 71
     1
 72
     1
  1
G1/2
  7
SLDTEXTSTYLE0
 73
     1
 44
1.0
  0
ENDBLK
  5
27B
330
279
100
AcDbEntity
  8
0
100
AcDbBlockEnd
  0
BLOCK
  5
284
330
283
100
AcDbEntity
  8
0
100
AcDbBlockBegin
  2
SW_NOTE_3
 70
     0
 10
0.0
 20
0.0
 30
0.0
  3
SW_NOTE_3
  1

  0
LINE
  5
286
330
283
100
AcDbEntity
  8
DEFAULT_LAYER
 62
     0
100
AcDbLine
 10
-5.8424641782
 20
0.0
 30
0.0
 11
0.0
 21
0.0
 31
0.0
  0
MTEXT
  5
287
330
283
100
AcDbEntity
  8
DEFAULT_LAYER
 62
     0
100
AcDbMText
 10
-6.2519124917
 20
2.7269318653
 30
0.0
 40
2.1166666667
 41
0.0
 71
     1
 72
     1
  1
G1/2
  7
SLDTEXTSTYLE0
 73
     1
 44
1.0
  0
ENDBLK
  5
285
330
283
100
AcDbEntity
  8
0
100
AcDbBlockEnd
  0
BLOCK
  5
335
330
334
100
AcDbEntity
  8
0
100
AcDbBlockBegin
  2
SW_NOTE_4
 70
     0
 10
0.0
 20
0.0
 30
0.0
  3
SW_NOTE_4
  1

  0
LINE
  5
337
330
334
100
AcDbEntity
  8
DEFAULT_LAYER
 62
     0
100
AcDbLine
 10
-5.8424641782
 20
0.0
 30
0.0
 11
0.0
 21
0.0
 31
0.0
  0
MTEXT
  5
338
330
334
100
AcDbEntity
  8
DEFAULT_LAYER
 62
     0
100
AcDbMText
 10
-6.2016632964
 20
2.7329282777
 30
0.0
 40
2.1166666667
 41
0.0
 71
     1
 72
     1
  1
TOTO
  7
SLDTEXTSTYLE0
 73
     1
 44
1.0
  0
ENDBLK
  5
336
330
334
100
AcDbEntity
  8
0
100
AcDbBlockEnd
  0
ENDSEC
  0
SECTION
  2
ENTITIES
  0
HATCH
  5
E3
330
1F
100
AcDbEntity
  8
0
  6
Continuous
 62
     7
100
AcDbHatch
 10
0.0
 20
0.0
 30
0.0
210
0.0
220
0.0
230
1.0
  2
0_TOTO_Metal
 70
     0
 71
     0
 91
        1
 92
        0
 93
        1
 72
     2
 10
210.0
 20
288.5
 40
0.6999999999999784
 50
0.0
 51
360.0
 73
     1
 97
        0
 75
     0
 76
     2
 52
0.0
 41
0.0625
 77
     0
 78
     1
 53
45.00000209717174
 43
0.0
 44
0.0
 45
-0.1324587826340992
 46
0.1324587729374407
 79
     0
 98
        1
 10
0.0
 20
0.0
  0
HATCH
  5
E4
330
1F
100
AcDbEntity
  8
0
  6
Continuous
 62
     7
100
AcDbHatch
 10
0.0
 20
0.0
 30
0.0
210
0.0
220
0.0
230
1.0
  2
0_TOTO_Metal
 70
     0
 71
     0
 91
        1
 92
        0
 93
        1
 72
     2
 10
315.0
 20
288.5
 40
0.7000000000000339
 50
0.0
 51
360.0
 73
     1
 97
        0
 75
     0
 76
     2
 52
0.0
 41
0.03125
 77
     0
 78
     1
 53
45.00000209717174
 43
0.0
 44
0.0
 45
-0.0662293913170496
 46
0.0662293864687203
 79
     0
 98
        1
 10
0.0
 20
0.0
  0
HATCH
  5
E5
330
1F
100
AcDbEntity
  8
0
  6
Continuous
 62
     7
100
AcDbHatch
 10
0.0
 20
0.0
 30
0.0
210
0.0
220
0.0
230
1.0
  2
0_TOTO_Metal
 70
     0
 71
     0
 91
        1
 92
        0
 93
        1
 72
     2
 10
315.0000000000001
 20
8.49999999999999
 40
0.7000000000000174
 50
0.0
 51
360.0
 73
     1
 97
        0
 75
     0
 76
     2
 52
0.0
 41
0.03125
 77
     0
 78
     1
 53
45.00000209717174
 43
0.0
 44
0.0
 45
-0.0662293913170496
 46
0.0662293864687203
 79
     0
 98
        1
 10
0.0
 20
0.0
  0
LINE
  5
E6
330
1F
100
AcDbEntity
  8
0
  6
Continuous
 62
     7
370
    25
100
AcDbLine
 10
328.0
 20
50.0
 30
0.0
 11
328.0
 21
10.0
 31
0.0
  0
LINE
  5
E7
330
1F
100
AcDbEntity
  8
0
  6
Continuous
 62
     7
370
    25
100
AcDbLine
 10
410.0
 20
10.0
 30
0.0
 11
410.0
 21
287.0
 31
0.0
  0
LINE
  5
E8
330
1F
100
AcDbEntity
  8
0
  6
Continuous
 62
     7
370
    25
100
AcDbLine
 10
378.0
 20
269.5
 30
0.0
 11
410.0
 21
269.5
 31
0.0
  0
LINE
  5
E9
330
1F
100
AcDbEntity
  8
0
  6
Continuous
 62
     7
370
    25
100
AcDbLine
 10
314.0
 20
50.0
 30
0.0
 11
314.0
 21
39.0
 31
0.0
  0
LINE
  5
EA
330
1F
100
AcDbEntity
  8
0
  6
Continuous
 62
     7
370
    25
100
AcDbLine
 10
20.0
 20
287.0
 30
0.0
 11
20.0
 21
291.5
 31
0.0
  0
LINE
  5
EB
330
1F
100
AcDbEntity
  8
0
  6
Continuous
 62
     7
370
    25
100
AcDbLine
 10
370.0
 20
50.0
 30
0.0
 11
370.0
 21
68.5
 31
0.0
  0
LINE
  5
EC
330
1F
100
AcDbEntity
  8
0
  6
Continuous
 62
     7
370
    25
100
AcDbLine
 10
210.0
 20
10.0
 30
0.0
 11
210.0
 21
15.0
 31
0.0
  0
LINE
  5
ED
330
1F
100
AcDbEntity
  8
0
  6
Continuous
 62
     7
370
    25
100
AcDbLine
 10
370.0
 20
68.5
 30
0.0
 11
410.0
 21
68.5
 31
0.0
  0
LINE
  5
EE
330
1F
100
AcDbEntity
  8
0
  6
Continuous
 62
     7
370
    25
100
AcDbLine
 10
210.0
 20
287.0
 30
0.0
 11
210.0
 21
282.0
 31
0.0
  0
LINE
  5
EF
330
1F
100
AcDbEntity
  8
0
  6
Continuous
 62
     7
370
    25
100
AcDbLine
 10
378.0
 20
282.0
 30
0.0
 11
410.0
 21
282.0
 31
0.0
  0
LINE
  5
F0
330
1F
100
AcDbEntity
  8
0
  6
Continuous
 62
     7
370
    25
100
AcDbLine
 10
240.0
 20
31.5
 30
0.0
 11
306.0
 21
31.5
 31
0.0
  0
LINE
  5
F1
330
1F
100
AcDbEntity
  8
0
  6
Continuous
 62
     7
370
    25
100
AcDbLine
 10
378.0
 20
277.0
 30
0.0
 11
410.0
 21
277.0
 31
0.0
  0
LINE
  5
F2
330
1F
100
AcDbEntity
  8
0
  6
Continuous
 62
     7
370
    25
100
AcDbLine
 10
378.0
 20
262.0
 30
0.0
 11
378.0
 21
287.0
 31
0.0
  0
LINE
  5
F3
330
1F
100
AcDbEntity
  8
0
  6
Continuous
 62
     7
370
    25
100
AcDbLine
 10
235.0
 20
287.0
 30
0.0
 11
235.0
 21
262.0
 31
0.0
  0
LINE
  5
F4
330
1F
100
AcDbEntity
  8
0
  6
Continuous
 62
     7
370
    25
100
AcDbLine
 10
230.0
 20
287.0
 30
0.0
 11
230.0
 21
262.0
 31
0.0
  0
LINE
  5
F5
330
1F
100
AcDbEntity
  8
0
  6
HIDDEN
 62
     7
370
    25
100
AcDbLine
 10
235.0
 20
272.0
 30
0.0
 11
378.0
 21
272.0
 31
0.0
  0
LINE
  5
F6
330
1F
100
AcDbEntity
  8
0
  6
HIDDEN
 62
     7
370
    25
100
AcDbLine
 10
235.0
 20
267.0
 30
0.0
 11
378.0
 21
267.0
 31
0.0
  0
LINE
  5
F7
330
1F
100
AcDbEntity
  8
0
  6
Continuous
 62
     7
370
    25
100
AcDbLine
 10
230.0
 20
262.0
 30
0.0
 11
410.0
 21
262.0
 31
0.0
  0
LINE
  5
F8
330
1F
100
AcDbEntity
  8
0
  6
Continuous
 62
     7
370
    25
100
AcDbLine
 10
20.0
 20
291.5
 30
0.0
 11
45.0
 21
291.5
 31
0.0
  0
LINE
  5
F9
330
1F
100
AcDbEntity
  8
0
  6
Continuous
 62
     7
370
    25
100
AcDbLine
 10
45.0
 20
291.5
 30
0.0
 11
45.0
 21
287.0
 31
0.0
  0
LINE
  5
FA
330
1F
100
AcDbEntity
  8
0
  6
Continuous
 62
     7
370
    25
100
AcDbLine
 10
286.0
 20
50.0
 30
0.0
 11
286.0
 21
39.0
 31
0.0
  0
LINE
  5
FB
330
1F
100
AcDbEntity
  8
0
  6
Continuous
 62
     7
370
    25
100
AcDbLine
 10
209.318682
 20
8.339447
 30
0.0
 11
210.160553
 21
9.181318
 31
0.0
  0
LINE
  5
FC
330
1F
100
AcDbEntity
  8
0
  6
Continuous
 62
     7
370
    25
100
AcDbLine
 10
210.0
 20
287.0
 30
0.0
 11
210.0
 21
297.0
 31
0.0
  0
LINE
  5
FD
330
1F
100
AcDbEntity
  8
0
  6
Continuous
 62
     7
370
    25
100
AcDbLine
 10
210.054152
 20
7.802124
 30
0.0
 11
210.697876
 21
8.445848
 31
0.0
  0
LINE
  5
FE
330
1F
100
AcDbEntity
  8
0
  6
Continuous
 62
     7
370
    25
100
AcDbLine
 10
20.0
 20
287.0
 30
0.0
 11
410.0
 21
287.0
 31
0.0
  0
LINE
  5
FF
330
1F
100
AcDbEntity
  8
0
  6
Continuous
 62
     7
370
    25
100
AcDbLine
 10
209.696842
 20
7.869078
 30
0.0
 11
210.630922
 21
8.803158
 31
0.0
  0
LINE
  5
100
330
1F
100
AcDbEntity
  8
0
  6
Continuous
 62
     7
370
    25
100
AcDbLine
 10
410.0
 20
10.0
 30
0.0
 11
20.0
 21
10.0
 31
0.0
  0
LINE
  5
101
330
1F
100
AcDbEntity
  8
0
  6
Continuous
 62
     7
370
    25
100
AcDbLine
 10
209.353157
 20
8.2325
 30
0.0
 11
210.2675
 21
9.146843
 31
0.0
  0
LINE
  5
102
330
1F
100
AcDbEntity
  8
0
  6
Continuous
 62
     7
370
    25
100
AcDbLine
 10
410.0
 20
50.0
 30
0.0
 11
240.0
 21
50.0
 31
0.0
  0
LINE
  5
103
330
1F
100
AcDbEntity
  8
0
  6
Continuous
 62
     7
370
    25
100
AcDbLine
 10
25.0
 20
148.5
 30
0.0
 11
0.0
 21
148.5
 31
0.0
  0
LINE
  5
104
330
1F
100
AcDbEntity
  8
0
  6
Continuous
 62
     7
370
    25
100
AcDbLine
 10
240.0
 20
39.0
 30
0.0
 11
328.0
 21
39.0
 31
0.0
  0
LINE
  5
105
330
1F
100
AcDbEntity
  8
0
  6
Continuous
 62
     7
370
    25
100
AcDbLine
 10
20.0
 20
10.0
 30
0.0
 11
20.0
 21
287.0
 31
0.0
  0
LINE
  5
106
330
1F
100
AcDbEntity
  8
0
  6
Continuous
 62
     7
370
    25
100
AcDbLine
 10
410.0
 20
27.0
 30
0.0
 11
328.0
 21
27.0
 31
0.0
  0
LINE
  5
107
330
1F
100
AcDbEntity
  8
0
  6
Continuous
 62
     7
370
    25
100
AcDbLine
 10
405.0
 20
148.5
 30
0.0
 11
420.0
 21
148.5
 31
0.0
  0
LINE
  5
108
330
1F
100
AcDbEntity
  8
0
  6
Continuous
 62
     7
370
    25
100
AcDbLine
 10
306.0
 20
39.0
 30
0.0
 11
306.0
 21
24.0
 31
0.0
  0
LINE
  5
109
330
1F
100
AcDbEntity
  8
0
  6
Continuous
 62
     7
370
    25
100
AcDbLine
 10
209.309165
 20
8.612772
 30
0.0
 11
209.887228
 21
9.190835
 31
0.0
  0
LINE
  5
10A
330
1F
100
AcDbEntity
  8
0
  6
Continuous
 62
     7
370
    25
100
AcDbLine
 10
209.607054
 20
7.920712
 30
0.0
 11
210.579288
 21
8.892946
 31
0.0
  0
LINE
  5
10B
330
1F
100
AcDbEntity
  8
0
  6
Continuous
 62
     7
370
    25
100
AcDbLine
 10
209.459151
 20
8.055651
 30
0.0
 11
210.444349
 21
9.040849
 31
0.0
  0
LINE
  5
10C
330
1F
100
AcDbEntity
  8
0
  6
Continuous
 62
     7
370
    25
100
AcDbLine
 10
240.0
 20
50.0
 30
0.0
 11
240.0
 21
10.0
 31
0.0
  0
LINE
  5
10D
330
1F
100
AcDbEntity
  8
0
  6
Continuous
 62
     7
370
    25
100
AcDbLine
 10
210.233608
 20
7.840159
 30
0.0
 11
210.659841
 21
8.266392
 31
0.0
  0
LINE
  5
10E
330
1F
100
AcDbEntity
  8
0
  6
Continuous
 62
     7
370
    25
100
AcDbLine
 10
209.400579
 20
8.138501
 30
0.0
 11
210.361499
 21
9.099421
 31
0.0
  0
LINE
  5
10F
330
1F
100
AcDbEntity
  8
0
  6
Continuous
 62
     7
370
    25
100
AcDbLine
 10
398.0
 20
10.0
 30
0.0
 11
398.0
 21
18.5
 31
0.0
  0
LINE
  5
110
330
1F
100
AcDbEntity
  8
0
  6
Continuous
 62
     7
370
    25
100
AcDbLine
 10
240.0
 20
24.0
 30
0.0
 11
328.0
 21
24.0
 31
0.0
  0
LINE
  5
111
330
1F
100
AcDbEntity
  8
0
  6
Continuous
 62
     7
370
    25
100
AcDbLine
 10
272.0
 20
24.0
 30
0.0
 11
272.0
 21
39.0
 31
0.0
  0
LINE
  5
112
330
1F
100
AcDbEntity
  8
0
  6
Continuous
 62
     7
370
    25
100
AcDbLine
 10
209.915708
 20
7.805102
 30
0.0
 11
210.694898
 21
8.584292
 31
0.0
  0
LINE
  5
113
330
1F
100
AcDbEntity
  8
0
  6
Continuous
 62
     7
370
    25
100
AcDbLine
 10
210.0
 20
10.0
 30
0.0
 11
210.0
 21
0.0
 31
0.0
  0
LINE
  5
114
330
1F
100
AcDbEntity
  8
0
  6
Continuous
 62
     7
370
    25
100
AcDbLine
 10
300.0
 20
50.0
 30
0.0
 11
300.0
 21
39.0
 31
0.0
  0
LINE
  5
115
330
1F
100
AcDbEntity
  8
0
  6
Continuous
 62
     7
370
    25
100
AcDbLine
 10
209.300972
 20
8.463158
 30
0.0
 11
210.036842
 21
9.199028
 31
0.0
  0
LINE
  5
116
330
1F
100
AcDbEntity
  8
0
  6
Continuous
 62
     7
370
    25
100
AcDbLine
 10
410.0
 20
18.5
 30
0.0
 11
328.0
 21
18.5
 31
0.0
  0
LINE
  5
117
330
1F
100
AcDbEntity
  8
0
  6
Continuous
 62
     7
370
    25
100
AcDbLine
 10
209.798759
 20
7.829574
 30
0.0
 11
210.670426
 21
8.701241
 31
0.0
  0
LINE
  5
118
330
1F
100
AcDbEntity
  8
0
  6
Continuous
 62
     7
370
    25
100
AcDbLine
 10
209.380129
 20
8.825158
 30
0.0
 11
209.674842
 21
9.119871
 31
0.0
  0
LINE
  5
119
330
1F
100
AcDbEntity
  8
0
  6
Continuous
 62
     7
370
    25
100
AcDbLine
 10
209.528014
 20
7.983093
 30
0.0
 11
210.516907
 21
8.971986
 31
0.0
  0
LINE
  5
11A
330
1F
100
AcDbEntity
  8
0
  6
HIDDEN
 62
     7
370
    25
100
AcDbLine
 10
235.0
 20
282.0
 30
0.0
 11
378.0
 21
282.0
 31
0.0
  0
LINE
  5
11B
330
1F
100
AcDbEntity
  8
0
  6
HIDDEN
 62
     7
370
    25
100
AcDbLine
 10
235.0
 20
277.0
 30
0.0
 11
378.0
 21
277.0
 31
0.0
  0
CIRCLE
  5
11C
330
1F
100
AcDbEntity
  8
0
  6
Continuous
 62
     7
370
    25
100
AcDbCircle
 10
315.0
 20
8.5
 30
0.0
 40
0.6999999999999975
  0
CIRCLE
  5
11D
330
1F
100
AcDbEntity
  8
0
  6
Continuous
 62
     7
370
    25
100
AcDbCircle
 10
315.0
 20
288.5
 30
0.0
 40
0.7000000000000455
  0
CIRCLE
  5
11E
330
1F
100
AcDbEntity
  8
0
  6
Continuous
 62
     7
370
    25
100
AcDbCircle
 10
210.0
 20
288.5
 30
0.0
 40
0.6999999999999602
  0
CIRCLE
  5
11F
330
1F
100
AcDbEntity
  8
0
  6
Continuous
 62
     7
370
    25
100
AcDbCircle
 10
210.0
 20
8.5
 30
0.0
 40
0.6999999999999602
  0
INSERT
  5
120
330
1F
100
AcDbEntity
  8
0
  6
Continuous
 62
     7
100
AcDbBlockReference
  2
ﾌﾞﾛｯｸ7
 10
287.4
 20
41.9
 30
0.0
  0
INSERT
  5
121
330
1F
100
AcDbEntity
  8
LOGO
100
AcDbBlockReference
  2
ﾌﾞﾛｯｸ5
 10
250.6568067551
 20
41.4848012428
 30
0.0
  0
INSERT
  5
128
330
1F
100
AcDbEntity
  8
DEFAULT_LAYER
100
AcDbBlockReference
  2
SW_NOTE_0
 10
345.8926530197
 20
38.3727993672
 30
0.0
  0
MTEXT
  5
129
330
1F
100
AcDbEntity
  8
DEFAULT_LAYER
100
AcDbMText
 10
354.547540366
 20
16.1487169092
 30
0.0
 40
3.175
 41
0.0
 71
     1
 72
     1
  1
TBW07021
  7
SLDTEXTSTYLE0
 73
     1
 44
1.0
  0
MTEXT
  5
12A
330
1F
100
AcDbEntity
  8
DEFAULT_LAYER
100
AcDbMText
 10
250.8959365753
 20
35.8199316528
 30
0.0
 40
2.1166666667
 41
0.0
 71
     1
 72
     1
  1
岡本
  7
SLDTEXTSTYLE0
 73
     1
 44
1.0
  0
MTEXT
  5
12B
330
1F
100
AcDbEntity
  8
DEFAULT_LAYER
100
AcDbMText
 10
283.681073283
 20
35.8199316528
 30
0.0
 40
2.1166666667
 41
0.0
 71
     1
 72
     1
  1
岩男
  7
SLDTEXTSTYLE0
 73
     1
 44
1.0
  0
MTEXT
  5
12C
330
1F
100
AcDbEntity
  8
DEFAULT_LAYER
100
AcDbMText
 10
250.8959365753
 20
28.910100231
 30
0.0
 40
2.1166666667
 41
0.0
 71
     1
 72
     1
  1
小薗
  7
SLDTEXTSTYLE0
 73
     1
 44
1.0
  0
MTEXT
  5
12D
330
1F
100
AcDbEntity
  8
DEFAULT_LAYER
100
AcDbMText
 10
283.681073283
 20
28.910100231
 30
0.0
 40
2.1166666667
 41
0.0
 71
     1
 72
     1
  1
芝田
  7
SLDTEXTSTYLE0
 73
     1
 44
1.0
  0
MTEXT
  5
12E
330
1F
100
AcDbEntity
  8
0
  6
Continuous
 62
     7
370
     0
100
AcDbMText
 10
378.3689681642
 20
286.1612523228
 30
0.0
 40
2.5
 41
0.0
 71
     1
 72
     1
  1
REV.NO
  7
SLDTEXTSTYLE0
 73
     1
 44
1.0
  0
MTEXT
  5
12F
330
1F
100
AcDbEntity
  8
0
  6
Continuous
 62
     7
370
     0
100
AcDbMText
 10
378.3658588642
 20
281.2712982284
 30
0.0
 40
2.5
 41
0.0
 71
     1
 72
     1
  1
DATE
  7
SLDTEXTSTYLE0
 73
     1
 44
1.0
  0
MTEXT
  5
130
330
1F
100
AcDbEntity
  8
0
  6
Continuous
 62
     7
370
     0
100
AcDbMText
 10
378.3658588642
 20
277.0683627146
 30
0.0
 40
2.5
 41
0.0
 71
     1
 72
     1
  1
DS.BY
  7
SLDTEXTSTYLE0
 73
     1
 44
1.0
  0
MTEXT
  5
131
330
1F
100
AcDbEntity
  8
0
  6
Continuous
 62
     7
370
     0
100
AcDbMText
 10
378.3906460572
 20
269.5791272083
 30
0.0
 40
2.5
 41
0.0
 71
     1
 72
     1
  1
CH.BY
  7
SLDTEXTSTYLE0
 73
     1
 44
1.0
  0
INSERT
  5
13E
330
1F
100
AcDbEntity
  8
0
  6
Continuous
 62
     7
370
     0
100
AcDbBlockReference
  2
SW_NOTE_1
 10
231.7145551078
 20
283.9911451355
 30
0.0
  0
MTEXT
  5
13F
330
1F
100
AcDbEntity
  8
0
  6
Continuous
 62
     7
370
     0
100
AcDbMText
 10
407.2196387195
 20
9.0891905269
 30
0.0
 40
2.5
 41
0.0
 71
     1
 72
     1
  1
A3
  7
SLDTEXTSTYLE0
 73
     1
 44
1.0
  0
MTEXT
  5
140
330
1F
100
AcDbEntity
  8
0
  6
Continuous
 62
     7
370
     0
100
AcDbMText
 10
21.8497624408
 20
291.2293635269
 30
0.0
 40
3.0
 41
0.0
 71
     1
 72
     1
  1
CONFIDENTIAL
  7
SLDTEXTSTYLE0
 73
     1
 44
1.0
  0
MTEXT
  5
141
330
1F
100
AcDbEntity
  8
0
  6
Continuous
 62
     7
370
     0
100
AcDbMText
 10
398.3417137658
 20
18.5731820894
 30
0.0
 40
2.5
 41
0.0
 71
     1
 72
     1
  1
PAGE
  7
SLDTEXTSTYLE0
 73
     1
 44
1.0
  0
MTEXT
  5
142
330
1F
100
AcDbEntity
  8
0
  6
Continuous
 62
     7
370
     0
100
AcDbMText
 10
328.3644834083
 20
50.0730110094
 30
0.0
 40
2.5
 41
0.0
 71
     1
 72
     1
  1
TITLE
  7
SLDTEXTSTYLE0
 73
     1
 44
1.0
  0
MTEXT
  5
143
330
1F
100
AcDbEntity
  8
0
  6
Continuous
 62
     7
370
     0
100
AcDbMText
 10
328.3638097261
 20
18.5732069919
 30
0.0
 40
2.5
 41
0.0
 71
     1
 72
     1
  1
DRAWING NO.
  7
SLDTEXTSTYLE0
 73
     1
 44
1.0
  0
MTEXT
  5
144
330
1F
100
AcDbEntity
  8
0
  6
Continuous
 62
     7
370
     0
100
AcDbMText
 10
306.3641561632
 20
39.0707213285
 30
0.0
 40
2.5
 41
0.0
 71
     1
 72
     1
  1
DATE
  7
SLDTEXTSTYLE0
 73
     1
 44
1.0
  0
MTEXT
  5
145
330
1F
100
AcDbEntity
  8
0
  6
Continuous
 62
     7
370
     0
100
AcDbMText
 10
300.365304593
 20
50.0718888249
 30
0.0
 40
2.5
 41
0.0
 71
     1
 72
     1
  1
UNIT
  7
SLDTEXTSTYLE0
 73
     1
 44
1.0
  0
MTEXT
  5
146
330
1F
100
AcDbEntity
  8
0
  6
Continuous
 62
     7
370
     0
100
AcDbMText
 10
314.388127961
 20
50.0705338539
 30
0.0
 40
2.5
 41
0.0
 71
     1
 72
     1
  1
SCALE
  7
SLDTEXTSTYLE0
 73
     1
 44
1.0
  0
MTEXT
  5
147
330
1F
100
AcDbEntity
  8
0
  6
Continuous
 62
     7
370
     0
100
AcDbMText
 10
272.4638995124
 20
31.5690558399
 30
0.0
 40
2.5
 41
0.0
 71
     1
 72
     1
  1
AP.BY
  7
SLDTEXTSTYLE0
 73
     1
 44
1.0
  0
MTEXT
  5
148
330
1F
100
AcDbEntity
  8
0
  6
Continuous
 62
     7
370
     0
100
AcDbMText
 10
240.3869600063
 20
31.5725040447
 30
0.0
 40
2.5
 41
0.0
 71
     1
 72
     1
  1
CH.BY
  7
SLDTEXTSTYLE0
 73
     1
 44
1.0
  0
MTEXT
  5
149
330
1F
100
AcDbEntity
  8
0
  6
Continuous
 62
     7
370
     0
100
AcDbMText
 10
272.3653612469
 20
39.0704699215
 30
0.0
 40
2.5
 41
0.0
 71
     1
 72
     1
  1
DS.BY
  7
SLDTEXTSTYLE0
 73
     1
 44
1.0
  0
MTEXT
  5
14A
330
1F
100
AcDbEntity
  8
0
  6
Continuous
 62
     7
370
     0
100
AcDbMText
 10
240.3670967154
 20
39.0698671351
 30
0.0
 40
2.5
 41
0.0
 71
     1
 72
     1
  1
DR.BY
  7
SLDTEXTSTYLE0
 73
     1
 44
1.0
  0
MTEXT
  5
14B
330
1F
100
AcDbEntity
  8
0
  6
Continuous
 62
     7
370
     0
100
AcDbMText
 10
240.3906156425
 20
24.0730489075
 30
0.0
 40
2.5
 41
0.0
 71
     1
 72
     1
  1
COMMENTS
  7
SLDTEXTSTYLE0
 73
     1
 44
1.0
  0
MTEXT
  5
14C
330
1F
100
AcDbEntity
  8
0
  6
Continuous
 62
     7
370
     0
100
AcDbMText
 10
328.0371947157
 20
27.072287341
 30
0.0
 40
2.5
 41
0.0
 71
     1
 72
     1
  1
ITEM NO.
  7
SLDTEXTSTYLE0
 73
     1
 44
1.0
  0
MTEXT
  5
14D
330
1F
100
AcDbEntity
  8
0
  6
Continuous
 62
     7
370
     0
100
AcDbMText
 10
302.6517362517
 20
45.8859945588
 30
0.0
 40
3.5
 41
0.0
 71
     1
 72
     1
  1
ｍｍ
  7
SLDTEXTSTYLE0
 73
     1
 44
1.0
  0
MTEXT
  5
14E
330
1F
100
AcDbEntity
  8
0
  6
Continuous
 62
     7
370
     0
100
AcDbMText
 10
321.0903304816
 20
45.4360993895
 30
0.0
 40
3.5
 41
0.0
 71
     2
 72
     1
  1
1:1
  7
SLDTEXTSTYLE0
 73
     1
 44
1.0
  0
MTEXT
  5
14F
330
1F
100
AcDbEntity
  8
0
  6
Continuous
 62
     7
370
     0
100
AcDbMText
 10
317.2178479074
 20
32.4989359241
 30
0.0
 40
3.5
 41
0.0
 71
     2
 72
     1
  1
2021/12/21
  7
SLDTEXTSTYLE0
 73
     1
 44
1.0
  0
MTEXT
  5
150
330
1F
100
AcDbEntity
  8
0
  6
Continuous
 62
     7
370
     0
100
AcDbMText
 10
405.9431973506
 20
15.0868071218
 30
0.0
 40
3.5
 41
0.0
 71
     1
 72
     1
  1
1
  7
SLDTEXTSTYLE0
 73
     1
 44
1.0
  0
MTEXT
  5
151
330
1F
100
AcDbEntity
  8
0
  6
Continuous
 62
     7
370
     0
100
AcDbMText
 10
400.3097798698
 20
15.0868071218
 30
0.0
 40
3.5
 41
0.0
 71
     1
 72
     1
  1
1
  7
SLDTEXTSTYLE0
 73
     1
 44
1.0
  0
MTEXT
  5
152
330
1F
100
AcDbEntity
  8
0
  6
Continuous
 62
     7
370
     0
100
AcDbMText
 10
403.3709836287
 20
14.3546296644
 30
0.0
 40
2.5
 41
0.0
 71
     1
 72
     1
  1
/
  7
SLDTEXTSTYLE0
 73
     1
 44
1.0
  0
SPLINE
  5
153
330
1F
100
AcDbEntity
  8
0
  6
Continuous
 62
     7
370
    25
100
AcDbSpline
210
0.0
220
0.0
230
1.0
 70
     8
 71
     3
 72
    12
 73
     8
 74
     0
 42
0.000000001
 43
0.00000001
 40
0.0
 40
0.0
 40
0.0
 40
0.0
 40
0.074966779395672
 40
0.3162826212265339
 40
0.5484356091405269
 40
0.7943007379428039
 40
1.0
 40
1.0
 40
1.0
 40
1.0
 10
106.826238973931
 20
119.7656716177535
 30
0.0
 10
106.7995595120364
 20
119.7486390008889
 30
0.0
 10
106.6869996527366
 20
119.6767788949629
 30
0.0
 10
106.5531784518339
 20
119.4836132297161
 30
0.0
 10
106.430068206484
 20
119.2183107829779
 30
0.0
 10
106.3697300761913
 20
118.9498395032882
 30
0.0
 10
106.3699429530603
 20
118.7727864633999
 30
0.0
 10
106.3700399239813
 20
118.6921342233491
 30
0.0
  0
SPLINE
  5
154
330
1F
100
AcDbEntity
  8
0
  6
Continuous
 62
     7
370
    25
100
AcDbSpline
210
0.0
220
0.0
230
1.0
 70
     8
 71
     3
 72
    12
 73
     8
 74
     0
 42
0.000000001
 43
0.00000001
 40
0.0
 40
0.0
 40
0.0
 40
0.0
 40
0.1492339326291657
 40
0.421938785454363
 40
0.6766138108469497
 40
0.9259680114927673
 40
1.0
 40
1.0
 40
1.0
 40
1.0
 10
87.35874918003431
 20
118.6932173515034
 30
0.0
 10
87.35915253308806
 20
118.7516277665338
 30
0.0
 10
87.36029295936119
 20
118.9167753247442
 30
0.0
 10
87.30962400172527
 20
119.1831059975308
 30
0.0
 10
87.18258576702627
 20
119.4717420114259
 30
0.0
 10
87.04151246232733
 20
119.6747757508394
 30
0.0
 10
86.92742540859554
 20
119.7494054586302
 30
0.0
 10
86.90130774577013
 20
119.7664902502966
 30
0.0
  0
SPLINE
  5
155
330
1F
100
AcDbEntity
  8
0
  6
Continuous
 62
     7
370
    25
100
AcDbSpline
210
0.0
220
0.0
230
1.0
 70
     8
 71
     3
 72
    14
 73
    10
 74
     0
 42
0.000000001
 43
0.00000001
 40
0.0
 40
0.0
 40
0.0
 40
0.0
 40
0.0569215583083953
 40
0.2538346459371704
 40
0.4196401587381667
 40
0.5979012300184323
 40
0.7687731957914019
 40
0.93981217383818
 40
1.0
 40
1.0
 40
1.0
 40
1.0
 10
108.1351132010376
 20
121.5705123687458
 30
0.0
 10
108.1363599849479
 20
121.5456024791578
 30
0.0
 10
108.141919863522
 20
121.4345199088308
 30
0.0
 10
108.0839919024366
 20
121.2364682407467
 30
0.0
 10
107.9496557138998
 20
120.9566003024216
 30
0.0
 10
107.7246452494445
 20
120.6457182550341
 30
0.0
 10
107.393868266219
 20
120.2975111846453
 30
0.0
 10
107.0826583064882
 20
120.0123523630747
 30
0.0
 10
106.8550922980218
 20
119.8343015945738
 30
0.0
 10
106.7958573689019
 20
119.7879553729963
 30
0.0
  0
SPLINE
  5
156
330
1F
100
AcDbEntity
  8
0
  6
Continuous
 62
     7
370
    25
100
AcDbSpline
210
0.0
220
0.0
230
1.0
 70
     8
 71
     3
 72
    14
 73
    10
 74
     0
 42
0.000000001
 43
0.00000001
 40
0.0
 40
0.0
 40
0.0
 40
0.0
 40
0.0565881875240959
 40
0.2314001175886613
 40
0.4030378885947091
 40
0.5720535321597408
 40
0.7413804786309545
 40
0.9185726612877498
 40
0.9999999999999999
 40
0.9999999999999999
 40
0.9999999999999999
 40
0.9999999999999999
 10
86.93095453728786
 20
119.7879767934156
 30
0.0
 10
86.8751297254982
 20
119.8315523767386
 30
0.0
 10
86.64685119993148
 20
120.0097414219462
 30
0.0
 10
86.33540526454829
 20
120.2951242219158
 30
0.0
 10
86.00787658929168
 20
120.6397340855802
 30
0.0
 10
85.78302844567759
 20
120.9479620652694
 30
0.0
 10
85.65108544121289
 20
121.2160626571526
 30
0.0
 10
85.58920557855352
 20
121.4195838465244
 30
0.0
 10
85.59298792957985
 20
121.5324318005423
 30
0.0
 10
85.59417881716838
 20
121.5679624075365
 30
0.0
  0
SPLINE
  5
157
330
1F
100
AcDbEntity
  8
0
  6
Continuous
 62
     7
370
    25
100
AcDbSpline
210
0.0
220
0.0
230
1.0
 70
     8
 71
     3
 72
    11
 73
     7
 74
     0
 42
0.000000001
 43
0.00000001
 40
0.0
 40
0.0
 40
0.0
 40
0.0
 40
0.2656473766149491
 40
0.5961557252389658
 40
0.9190929798390012
 40
1.0
 40
1.0
 40
1.0
 40
1.0
 10
106.3693079044377
 20
97.9110027620864
 30
0.0
 10
106.3719366571083
 20
97.83424251330511
 30
0.0
 10
106.377836003734
 20
97.66198008645621
 30
0.0
 10
106.4679070120107
 20
97.39897074968069
 30
0.0
 10
106.5788597758567
 20
97.19247030048768
 30
0.0
 10
106.6783256881971
 20
97.11269139500402
 30
0.0
 10
106.698252900437
 20
97.09670831955195
 30
0.0
  0
SPLINE
  5
158
330
1F
100
AcDbEntity
  8
0
  6
Continuous
 62
     7
370
    25
100
AcDbSpline
210
0.0
220
0.0
230
1.0
 70
     8
 71
     3
 72
    12
 73
     8
 74
     0
 42
0.000000001
 43
0.00000001
 40
0.0
 40
0.0
 40
0.0
 40
0.0
 40
0.0365864720856102
 40
0.3279507981330743
 40
0.6063850311880711
 40
0.9001926219313657
 40
1.0
 40
1.0
 40
1.0
 40
1.0
 10
87.03150291641107
 20
97.09424869663239
 30
0.0
 10
87.04139934529577
 20
97.10174957187179
 30
0.0
 10
87.13010813754579
 20
97.1689852981179
 30
0.0
 10
87.2355177307056
 20
97.35196894679693
 30
0.0
 10
87.33446585846491
 20
97.61283901785873
 30
0.0
 10
87.3677077270777
 20
97.82634261749565
 30
0.0
 10
87.35988817453806
 20
97.94637113688161
 30
0.0
 10
87.35790540178171
 20
97.97680628991843
 30
0.0
  0
SPLINE
  5
159
330
1F
100
AcDbEntity
  8
0
  6
Continuous
 62
     7
370
    25
100
AcDbSpline
210
0.0
220
0.0
230
1.0
 70
     8
 71
     3
 72
    12
 73
     8
 74
     0
 42
0.000000001
 43
0.00000001
 40
0.0
 40
0.0
 40
0.0
 40
0.0
 40
0.1964737178061739
 40
0.4317144560105292
 40
0.6543157109441681
 40
0.8913749506214061
 40
1.0
 40
1.0
 40
1.0
 40
1.0
 10
86.42931905289045
 20
95.93737376428366
 30
0.0
 10
86.42940238385744
 20
95.99026360527758
 30
0.0
 10
86.42958548816007
 20
96.10647919476267
 30
0.0
 10
86.50267310560507
 20
96.31916014970842
 30
0.0
 10
86.65764291924468
 20
96.59244482398503
 30
0.0
 10
86.84499612706131
 20
96.84412630219465
 30
0.0
 10
87.01979743930993
 20
97.01526090324728
 30
0.0
 10
87.07472559709898
 20
97.06903686321498
 30
0.0
  0
SPLINE
  5
15A
330
1F
100
AcDbEntity
  8
0
  6
Continuous
 62
     7
370
    25
100
AcDbSpline
210
0.0
220
0.0
230
1.0
 70
     8
 71
     3
 72
    12
 73
     8
 74
     0
 42
0.000000001
 43
0.00000001
 40
0.0
 40
0.0
 40
0.0
 40
0.0
 40
0.2142479487000916
 40
0.4439542962047408
 40
0.6744541786199257
 40
0.9141893182320703
 40
1.0
 40
1.0
 40
1.0
 40
1.0
 10
106.6602232744252
 20
97.0671537289691
 30
0.0
 10
106.757695619426
 20
96.96371812893213
 30
0.0
 10
106.9596731253338
 20
96.749383852709
 30
0.0
 10
107.1515906355986
 20
96.46311287649173
 30
0.0
 10
107.265334693978
 20
96.20831986444053
 30
0.0
 10
107.3085230394435
 20
96.04503191021925
 30
0.0
 10
107.3000045909344
 20
95.95592315383584
 30
0.0
 10
107.2977592115556
 20
95.93243496067048
 30
0.0
  0
LINE
  5
15B
330
1F
100
AcDbEntity
  8
0
  6
Continuous
 62
     7
370
    25
100
AcDbLine
 10
107.3409483646
 20
86.7942019323
 30
0.0
 11
107.3409483646
 21
93.2822178075
 31
0.0
  0
LINE
  5
15C
330
1F
100
AcDbEntity
  8
0
  6
Continuous
 62
     7
370
    25
100
AcDbLine
 10
86.3859482919
 20
93.2822178075
 30
0.0
 11
86.3859482919
 21
86.7942019323
 31
0.0
  0
LINE
  5
15D
330
1F
100
AcDbEntity
  8
0
  6
Continuous
 62
     7
370
    25
100
AcDbLine
 10
86.3859482919
 20
86.7942019323
 30
0.0
 11
87.5479482924
 21
85.6322019318
 31
0.0
  0
LINE
  5
15E
330
1F
100
AcDbEntity
  8
0
  6
Continuous
 62
     7
370
    25
100
AcDbLine
 10
106.1789483642
 20
85.6322019318
 30
0.0
 11
107.3409483646
 21
86.7942019323
 31
0.0
  0
LINE
  5
15F
330
1F
100
AcDbEntity
  8
0
  6
Continuous
 62
     7
370
    25
100
AcDbLine
 10
86.3859482919
 20
96.0207140962
 30
0.0
 11
86.3859482919
 21
95.9545436273
 31
0.0
  0
SPLINE
  5
160
330
1F
100
AcDbEntity
  8
0
  6
Continuous
 62
     7
370
    25
100
AcDbSpline
210
0.0
220
0.0
230
1.0
 70
    24
 71
     3
 72
    18
 73
    14
 74
     0
 42
0.000000001
 43
0.00000001
 40
0.0
 40
0.0
 40
0.0
 40
0.0
 40
0.0767407690480926
 40
0.1534626590493077
 40
0.2520999883641384
 40
0.3507999087572506
 40
0.4295507754870412
 40
0.5085612935210521
 40
0.5873902640883301
 40
0.6902788422966418
 40
0.7930650013410186
 40
0.8965486886954276
 40
1.0
 40
1.0
 40
1.0
 40
1.0
 10
106.3634480227982
 20
97.95150970614672
 30
0.0
 10
106.3634480227982
 20
98.34712094939376
 30
0.0
 10
106.3634480227982
 20
99.13824611130664
 30
0.0
 10
106.3634480227982
 20
100.6545509346872
 30
0.0
 10
106.3634480227982
 20
102.4797806357848
 30
0.0
 10
106.3634480227982
 20
104.4673386425325
 30
0.0
 10
106.3634480227982
 20
106.3831457354614
 30
0.0
 10
106.3634480227982
 20
108.1800887667682
 30
0.0
 10
106.3634480227982
 20
110.1695609248733
 30
0.0
 10
106.3634480227982
 20
112.3318627853017
 30
0.0
 10
106.3634480227982
 20
114.6179822605413
 30
0.0
 10
106.3634480227982
 20
116.7939044930125
 30
0.0
 10
106.3634480227982
 20
118.0592303469998
 30
0.0
 10
106.3634480227982
 20
118.6917942906094
 30
0.0
  0
SPLINE
  5
161
330
1F
100
AcDbEntity
  8
0
  6
Continuous
 62
     7
370
    25
100
AcDbSpline
210
0.0
220
0.0
230
1.0
 70
    24
 71
     3
 72
    18
 73
    14
 74
     0
 42
0.000000001
 43
0.00000001
 40
0.0
 40
0.0
 40
0.0
 40
0.0
 40
0.0767407690480926
 40
0.1534626590493077
 40
0.2520999883641384
 40
0.3507999087572506
 40
0.4295507754870412
 40
0.5085612935210521
 40
0.5873902640883301
 40
0.6902788422966418
 40
0.7930650013410186
 40
0.8965486886954276
 40
1.0
 40
1.0
 40
1.0
 40
1.0
 10
87.36344863374582
 20
97.95150970614672
 30
0.0
 10
87.36344863374582
 20
98.34712094939376
 30
0.0
 10
87.36344863374582
 20
99.13824611130664
 30
0.0
 10
87.36344863374582
 20
100.6545509346872
 30
0.0
 10
87.36344863374582
 20
102.4797806357848
 30
0.0
 10
87.36344863374582
 20
104.4673386425325
 30
0.0
 10
87.36344863374582
 20
106.3831457354614
 30
0.0
 10
87.36344863374582
 20
108.1800887667682
 30
0.0
 10
87.36344863374582
 20
110.1695609248733
 30
0.0
 10
87.36344863374582
 20
112.3318627853017
 30
0.0
 10
87.36344863374582
 20
114.6179822605413
 30
0.0
 10
87.36344863374582
 20
116.7939044930125
 30
0.0
 10
87.36344863374582
 20
118.0592303469998
 30
0.0
 10
87.36344863374582
 20
118.6917942906094
 30
0.0
  0
LWPOLYLINE
  5
162
330
1F
100
AcDbEntity
  8
0
  6
Continuous
 62
     7
370
    25
100
AcDbPolyline
 90
        5
 70
   128
 43
0.0
 10
106.0194174637
 20
92.4946318338
 10
105.9051544284
 20
92.4230671445
 10
105.1208122512
 20
92.0203353236
 10
105.120771273
 20
92.0203148345
 10
105.120771273
 20
92.0203148345
  0
SPLINE
  5
163
330
1F
100
AcDbEntity
  8
0
  6
Continuous
 62
     7
370
    25
100
AcDbSpline
210
0.0
220
0.0
230
1.0
 70
     8
 71
     3
 72
     9
 73
     5
 74
     0
 42
0.000000001
 43
0.00000001
 40
0.0
 40
0.0
 40
0.0
 40
0.0
 40
0.0002815403154558
 40
1.0
 40
1.0
 40
1.0
 40
1.0
 10
106.6372587223803
 20
125.4255312452388
 30
0.0
 10
106.6372708297757
 20
125.4255244155878
 30
0.0
 10
106.6802749565692
 20
125.4012662521863
 30
0.0
 10
106.7156355796335
 20
125.3751950206181
 30
0.0
 10
106.7509862472569
 20
125.3491311291528
 30
0.0
  0
ARC
  5
164
330
1F
100
AcDbEntity
  8
0
  6
Continuous
 62
     7
370
    25
100
AcDbCircle
 10
96.8634483283
 20
109.1322011272
 30
0.0
 40
19.0
100
AcDbArc
 50
295.759585359
 51
59.0419008066
  0
LWPOLYLINE
  5
165
330
1F
100
AcDbEntity
  8
0
  6
Continuous
 62
     7
370
    25
100
AcDbPolyline
 90
        5
 70
   128
 43
0.0
 10
87.7578497743
 20
92.4630842129
 10
87.8217422282
 20
92.4230671445
 10
88.6060844054
 20
92.0203353236
 10
88.6061253836
 20
92.0203148345
 10
88.6061253836
 20
92.0203148345
  0
ARC
  5
166
330
1F
100
AcDbEntity
  8
0
  6
Continuous
 62
     7
370
    25
100
AcDbCircle
 10
96.8634483283
 20
109.1322011272
 30
0.0
 40
19.0
100
AcDbArc
 50
120.9580991934
 51
244.240414641
  0
SPLINE
  5
167
330
1F
100
AcDbEntity
  8
0
  6
Continuous
 62
     7
370
    25
100
AcDbSpline
210
0.0
220
0.0
230
1.0
 70
     8
 71
     3
 72
    12
 73
     8
 74
     0
 42
0.000000001
 43
0.00000001
 40
0.0
 40
0.0
 40
0.0
 40
0.0
 40
0.3221831302171679
 40
0.6459410213234191
 40
0.7821572172973403
 40
0.9198601488417053
 40
1.0
 40
1.0
 40
1.0
 40
1.0
 10
107.5711657171403
 20
123.1322015593123
 30
0.0
 10
107.5735789127621
 20
123.1323458567153
 30
0.0
 10
107.5784170991795
 20
123.1326351568155
 30
0.0
 10
107.5844684534229
 20
123.1353706402044
 30
0.0
 10
107.5890249573453
 20
123.1403480265569
 30
0.0
 10
107.5916899088495
 20
123.1451663054779
 30
0.0
 10
107.5928216997212
 20
123.1495831315254
 30
0.0
 10
107.5932380621587
 20
123.1512079904151
 30
0.0
  0
SPLINE
  5
168
330
1F
100
AcDbEntity
  8
0
  6
Continuous
 62
     7
370
    25
100
AcDbSpline
210
0.0
220
0.0
230
1.0
 70
     8
 71
     3
 72
    14
 73
    10
 74
     0
 42
0.000000001
 43
0.00000001
 40
0.0
 40
0.0
 40
0.0
 40
0.0
 40
0.1621843534042409
 40
0.3243690738195966
 40
0.4865518017262749
 40
0.6487387638666926
 40
0.8109343986978249
 40
0.97652467959874
 40
1.0
 40
1.0
 40
1.0
 40
1.0
 10
107.5932380621587
 20
123.1512079904151
 30
0.0
 10
107.619632037352
 20
123.2343355024569
 30
0.0
 10
107.6724200474662
 20
123.4005907146518
 30
0.0
 10
107.8499104797427
 20
123.6108824881106
 30
0.0
 10
108.0769235994725
 20
123.7613029073569
 30
0.0
 10
108.3357371917058
 20
123.834167869477
 30
0.0
 10
108.5962878306037
 20
123.8211521804516
 30
0.0
 10
108.7638649804677
 20
123.7509005207242
 30
0.0
 10
108.8400912615673
 20
123.6959199971859
 30
0.0
 10
108.8495558937346
 20
123.6890933433843
 30
0.0
  0
SPLINE
  5
169
330
1F
100
AcDbEntity
  8
0
  6
Continuous
 62
     7
370
    25
100
AcDbSpline
210
0.0
220
0.0
230
1.0
 70
     8
 71
     3
 72
    14
 73
    10
 74
     0
 42
0.000000001
 43
0.00000001
 40
0.0
 40
0.0
 40
0.0
 40
0.0
 40
0.1621843534042409
 40
0.3243690738195966
 40
0.4865518017262749
 40
0.6487387638666926
 40
0.8109343986978249
 40
0.97652467959874
 40
1.0
 40
1.0
 40
1.0
 40
1.0
 10
86.1336585943853
 20
123.1512079904151
 30
0.0
 10
86.107264619192
 20
123.2343355024569
 30
0.0
 10
86.0544766090778
 20
123.4005907146518
 30
0.0
 10
85.87698617680128
 20
123.6108824881106
 30
0.0
 10
85.64997305707158
 20
123.7613029073569
 30
0.0
 10
85.39115946483818
 20
123.834167869477
 30
0.0
 10
85.13060882594031
 20
123.8211521804516
 30
0.0
 10
84.96303167607631
 20
123.7509005207242
 30
0.0
 10
84.8868053949767
 20
123.6959199971859
 30
0.0
 10
84.87734076280942
 20
123.6890933433843
 30
0.0
  0
SPLINE
  5
16A
330
1F
100
AcDbEntity
  8
0
  6
Continuous
 62
     7
370
    25
100
AcDbSpline
210
0.0
220
0.0
230
1.0
 70
     8
 71
     3
 72
    12
 73
     8
 74
     0
 42
0.000000001
 43
0.00000001
 40
0.0
 40
0.0
 40
0.0
 40
0.0
 40
0.3221831302171679
 40
0.6459410213234191
 40
0.7821572172973403
 40
0.9198601488417053
 40
1.0
 40
1.0
 40
1.0
 40
1.0
 10
86.15573093940368
 20
123.1322015593123
 30
0.0
 10
86.15331774378195
 20
123.1323458567153
 30
0.0
 10
86.14847955736452
 20
123.1326351568155
 30
0.0
 10
86.14242820312114
 20
123.1353706402044
 30
0.0
 10
86.1378716991987
 20
123.1403480265569
 30
0.0
 10
86.13520674769457
 20
123.1451663054779
 30
0.0
 10
86.13407495682281
 20
123.1495831315254
 30
0.0
 10
86.1336585943853
 20
123.1512079904151
 30
0.0
  0
LINE
  5
16B
330
1F
100
AcDbEntity
  8
0
  6
Continuous
 62
     7
370
    25
100
AcDbLine
 10
107.5711657171
 20
123.1322015593
 30
0.0
 11
101.8883862411
 21
123.1322015593
 31
0.0
  0
LINE
  5
16C
330
1F
100
AcDbEntity
  8
0
  6
Continuous
 62
     7
370
    25
100
AcDbLine
 10
106.388682208
 20
103.132201075
 30
0.0
 11
101.559191185
 21
103.132201075
 31
0.0
  0
SPLINE
  5
16D
330
1F
100
AcDbEntity
  8
0
  6
Continuous
 62
     7
370
    25
100
AcDbSpline
210
0.0
220
0.0
230
1.0
 70
     8
 71
     3
 72
    17
 73
    13
 74
     0
 42
0.000000001
 43
0.00000001
 40
0.0
 40
0.0
 40
0.0
 40
0.0
 40
0.1013664342404493
 40
0.2026751684819153
 40
0.3047051519072076
 40
0.4066370921316875
 40
0.5000174457557771
 40
0.5874143739091319
 40
0.6748440436084051
 40
0.7618785340617769
 40
0.8489655039212357
 40
1.0
 40
1.0
 40
1.0
 40
1.0
 10
92.16770547156086
 20
103.1322010750246
 30
0.0
 10
92.41099149312865
 20
103.3792319487002
 30
0.0
 10
92.89742505252156
 20
103.8731530806566
 30
0.0
 10
93.78237875015898
 20
104.4603942417062
 30
0.0
 10
94.76878768792841
 20
104.9061828762188
 30
0.0
 10
95.81101029524012
 20
105.1743330610155
 30
0.0
 10
96.84158390563636
 20
105.2584510117094
 30
0.0
 10
97.81847293647279
 20
105.1823964923451
 30
0.0
 10
98.7431423820607
 20
104.9706298049248
 30
0.0
 10
99.6076493420516
 20
104.6253316444052
 30
0.0
 10
100.6031257463897
 20
104.0653756611671
 30
0.0
 10
101.1881346528209
 20
103.4943734869312
 30
0.0
 10
101.5591911849832
 20
103.1322010750246
 30
0.0
  0
LINE
  5
16E
330
1F
100
AcDbEntity
  8
0
  6
Continuous
 62
     7
370
    25
100
AcDbLine
 10
87.3382144486
 20
103.132201075
 30
0.0
 11
92.1677054716
 21
103.132201075
 31
0.0
  0
LINE
  5
16F
330
1F
100
AcDbEntity
  8
0
  6
Continuous
 62
     7
370
    25
100
AcDbLine
 10
86.1557309394
 20
123.1322015593
 30
0.0
 11
91.8385104155
 21
123.1322015593
 31
0.0
  0
SPLINE
  5
170
330
1F
100
AcDbEntity
  8
0
  6
Continuous
 62
     7
370
    25
100
AcDbSpline
210
0.0
220
0.0
230
1.0
 70
     8
 71
     3
 72
    35
 73
    31
 74
     0
 42
0.000000001
 43
0.00000001
 40
0.0
 40
0.0
 40
0.0
 40
0.0
 40
0.0373526770373785
 40
0.0746822670250045
 40
0.1123063976147938
 40
0.1498931026528462
 40
0.1827657441697136
 40
0.2156521578440105
 40
0.2470201268026989
 40
0.2784052667403235
 40
0.31434662729082
 40
0.350290740575978
 40
0.3902141617037544
 40
0.430109959396279
 40
0.4650569646648665
 40
0.4999927740589674
 40
0.5345896146142703
 40
0.5691971296180615
 40
0.6036773354047356
 40
0.6381737575360887
 40
0.6750145461475294
 40
0.7118567152989267
 40
0.7518553025391204
 40
0.7918100697904251
 40
0.82821475046047
 40
0.8646078083534976
 40
0.8958121302562787
 40
0.9270358502036551
 40
0.9635075875043784
 40
1.0
 40
1.0
 40
1.0
 40
1.0
 10
91.83851041545024
 20
123.1322015593123
 30
0.0
 10
91.6477889280344
 20
122.8538491373465
 30
0.0
 10
91.26646383488665
 20
122.297316338278
 30
0.0
 10
90.86491024484629
 20
121.3453063406068
 30
0.0
 10
90.61294796476523
 20
120.3235270791999
 30
0.0
 10
90.5359538851388
 20
119.2971501703051
 30
0.0
 10
90.62399076228917
 20
118.3134141618638
 30
0.0
 10
90.83864888205899
 20
117.4155588500512
 30
0.0
 10
91.17318353517292
 20
116.5826854708599
 30
0.0
 10
91.62691370367276
 20
115.7878897077524
 30
0.0
 10
92.21567950488345
 20
115.0418581620131
 30
0.0
 10
92.96851366300513
 20
114.3431389079422
 30
0.0
 10
93.8651565656878
 20
113.755733710115
 30
0.0
 10
94.85345592446579
 20
113.3294927976351
 30
0.0
 10
95.86568584552163
 20
113.0864979716203
 30
0.0
 10
96.860028621459
 20
113.0053465155552
 30
0.0
 10
97.85110310827088
 20
113.0853452887462
 30
0.0
 10
98.80776398447331
 20
113.312714768676
 30
0.0
 10
99.70554781969301
 20
113.683169464309
 30
0.0
 10
100.5463401575342
 20
114.1887078325613
 30
0.0
 10
101.3077146575226
 20
114.8296623413675
 30
0.0
 10
101.9910323450293
 20
115.6201056088998
 30
0.0
 10
102.5498997482479
 20
116.5477618325239
 30
0.0
 10
102.9452581441066
 20
117.5698600411017
 30
0.0
 10
103.1507070546908
 20
118.6256189689882
 30
0.0
 10
103.1820681344439
 20
119.6199817287725
 30
0.0
 10
103.0653842159969
 20
120.5475967040197
 30
0.0
 10
102.8251026288456
 20
121.4366787316056
 30
0.0
 10
102.448158583958
 20
122.317309682095
 30
0.0
 10
102.0750122670871
 20
122.8605196254012
 30
0.0
 10
101.8883862410938
 20
123.1322015593123
 30
0.0
  0
LINE
  5
171
330
1F
100
AcDbEntity
  8
0
  6
Continuous
 62
     7
370
    25
100
AcDbLine
 10
86.4435459365
 20
95.9418646017
 30
0.0
 11
86.4386872267
 21
95.9752180571
 31
0.0
  0
LINE
  5
172
330
1F
100
AcDbEntity
  8
0
  6
Continuous
 62
     7
370
    25
100
AcDbLine
 10
107.2824510624
 20
95.9356899331
 30
0.0
 11
107.2882094299
 21
95.9752180571
 31
0.0
  0
SPLINE
  5
173
330
1F
100
AcDbEntity
  8
0
  6
Continuous
 62
     7
370
    25
100
AcDbSpline
210
0.0
220
0.0
230
1.0
 70
     8
 71
     3
 72
    37
 73
    33
 74
     0
 42
0.000000001
 43
0.00000001
 40
0.0
 40
0.0
 40
0.0
 40
0.0
 40
0.036255872442998
 40
0.0724912356808672
 40
0.1090373968376318
 40
0.1455349233422455
 40
0.1768252949664204
 40
0.2081292143150259
 40
0.2371174038484111
 40
0.2661242619893321
 40
0.2999293509693069
 40
0.3337416041784727
 40
0.3728897134561164
 40
0.4120081076781593
 40
0.4494141224257133
 40
0.486792528099371
 40
0.4999768157041009
 40
0.5324622631728414
 40
0.5649591874120826
 40
0.5973180099038244
 40
0.6296949903429534
 40
0.6645668003617488
 40
0.699445673003257
 40
0.7386621278056641
 40
0.7778343886438169
 40
0.8074488352456375
 40
0.8370453470372733
 40
0.866695777376715
 40
0.8963608208236897
 40
0.9256136896588877
 40
0.9548847758914214
 40
0.9999999999999999
 40
0.9999999999999999
 40
0.9999999999999999
 40
0.9999999999999999
 10
101.5591911849832
 20
103.1322010750246
 30
0.0
 10
101.7746236018608
 20
102.8670887755802
 30
0.0
 10
102.2053665699063
 20
102.3370141452942
 30
0.0
 10
102.685678360624
 20
101.4107204454765
 30
0.0
 10
103.0198748586678
 20
100.4012170202888
 30
0.0
 10
103.1756885791384
 20
99.37672001296232
 30
0.0
 10
103.161687179347
 20
98.38852312398885
 30
0.0
 10
103.0186955286558
 20
97.4929262253931
 30
0.0
 10
102.7598191481549
 20
96.6625657142755
 30
0.0
 10
102.3903168891545
 20
95.86373235561938
 30
0.0
 10
101.8909511035839
 20
95.09635462834107
 30
0.0
 10
101.2224115796086
 20
94.34424273534893
 30
0.0
 10
100.3946962776296
 20
93.67635731908278
 30
0.0
 10
99.41964328223847
 20
93.13741944069507
 30
0.0
 10
98.36083971415589
 20
92.78133401816956
 30
0.0
 10
97.49569271663412
 20
92.64770994445742
 30
0.0
 10
96.67210357504473
 20
92.62209960364886
 30
0.0
 10
95.89558883843547
 20
92.68321348547423
 30
0.0
 10
94.95921283943746
 20
92.90118577963973
 30
0.0
 10
94.08097938522621
 20
93.25494451352165
 30
0.0
 10
93.2560551878179
 20
93.73717249987953
 30
0.0
 10
92.50524823488149
 20
94.34807085037814
 30
0.0
 10
91.81745023433365
 20
95.11136629977973
 30
0.0
 10
91.2413614857131
 20
96.01860624145309
 30
0.0
 10
90.84363531129077
 20
96.98326021871716
 30
0.0
 10
90.62488108886716
 20
97.92489692967584
 30
0.0
 10
90.54348187577783
 20
98.80483868736985
 30
0.0
 10
90.58953866589928
 20
99.68926516471815
 30
0.0
 10
90.7530130217737
 20
100.5481868968905
 30
0.0
 10
91.0306339035783
 20
101.3574656433834
 30
0.0
 10
91.46444762189745
 20
102.2506735701876
 30
0.0
 10
91.9022056548448
 20
102.7993993991153
 30
0.0
 10
92.16770547156086
 20
103.1322010750246
 30
0.0
  0
SPLINE
  5
174
330
1F
100
AcDbEntity
  8
0
  6
Continuous
 62
     7
370
    25
100
AcDbSpline
210
0.0
220
0.0
230
1.0
 70
     8
 71
     3
 72
    18
 73
    14
 74
     0
 42
0.000000001
 43
0.00000001
 40
0.0
 40
0.0
 40
0.0
 40
0.0
 40
0.0950446062513831
 40
0.1900451206248143
 40
0.2856897670808249
 40
0.3812323699339227
 40
0.499863727037243
 40
0.5790204631056868
 40
0.6582060973462467
 40
0.7370406264260045
 40
0.8159222516831136
 40
0.9079422138090747
 40
1.0
 40
1.0
 40
1.0
 40
1.0
 10
101.8883862410938
 20
123.1322015593123
 30
0.0
 10
101.659632790538
 20
123.4055069636193
 30
0.0
 10
101.2022320098011
 20
123.9519909838861
 30
0.0
 10
100.3432032592214
 20
124.6201540188573
 30
0.0
 10
99.36795838211549
 20
125.147987555443
 30
0.0
 10
98.20285663368792
 20
125.533247942919
 30
0.0
 10
97.02126295353415
 20
125.6691076730046
 30
0.0
 10
95.90943890741053
 20
125.5825597114153
 30
0.0
 10
94.98656126088417
 20
125.3709071007666
 30
0.0
 10
94.12112559502565
 20
125.0284392688241
 30
0.0
 10
93.28684294553194
 20
124.5478078806853
 30
0.0
 10
92.50166798875021
 20
123.9272186371671
 30
0.0
 10
92.05959321887342
 20
123.3972435514693
 30
0.0
 10
91.83851041545024
 20
123.1322015593123
 30
0.0
  0
SPLINE
  5
175
330
1F
100
AcDbEntity
  8
0
  6
Continuous
 62
     7
370
    25
100
AcDbSpline
210
0.0
220
0.0
230
1.0
 70
     8
 71
     3
 72
    17
 73
    13
 74
     0
 42
0.000000001
 43
0.00000001
 40
0.0
 40
0.0
 40
0.0
 40
0.0
 40
0.1049272456485943
 40
0.2125375692807714
 40
0.3186302165861835
 40
0.4283510337073657
 40
0.5236457383958517
 40
0.6219076790085981
 40
0.7112157963797472
 40
0.8026563697980629
 40
0.900226379692676
 40
1.0
 40
1.0
 40
1.0
 40
1.0
 10
105.1207712729727
 20
92.02031483448268
 30
0.0
 10
104.6532357936701
 20
91.80725928549859
 30
0.0
 10
103.7062095593565
 20
91.37570017782402
 30
0.0
 10
102.0349547335646
 20
90.82026149759993
 30
0.0
 10
100.1885227069441
 20
90.39135550364664
 30
0.0
 10
98.29228131507755
 20
90.15385348116577
 30
0.0
 10
96.40054019202042
 20
90.10901072123477
 30
0.0
 10
94.64893128113147
 20
90.23540069198744
 30
0.0
 10
92.98448114999672
 20
90.5090390918507
 30
0.0
 10
91.42411084942982
 20
90.90492808997011
 30
0.0
 10
89.9269061208776
 20
91.41664488320525
 30
0.0
 10
89.04965087920428
 20
91.81759911734926
 30
0.0
 10
88.6061253835713
 20
92.02031483448268
 30
0.0
  0
SPLINE
  5
176
330
1F
100
AcDbEntity
  8
0
  6
Continuous
 62
     7
370
    25
100
AcDbSpline
210
0.0
220
0.0
230
1.0
 70
     8
 71
     3
 72
    20
 73
    16
 74
     0
 42
0.000000001
 43
0.00000001
 40
0.0
 40
0.0
 40
0.0
 40
0.0
 40
0.098285184474552
 40
0.1965241884633674
 40
0.263255479875011
 40
0.330236906450977
 40
0.3968929061804534
 40
0.4824252826186385
 40
0.5679496194831648
 40
0.6435969830145952
 40
0.7192766451888076
 40
0.7985749732021661
 40
0.8779112703158127
 40
0.9389536709721878
 40
1.0
 40
1.0
 40
1.0
 40
1.0
 10
87.08963793416372
 20
125.4255312452388
 30
0.0
 10
87.56649190131603
 20
125.6963381788868
 30
0.0
 10
88.51997578000184
 20
126.2378248042613
 30
0.0
 10
90.08913334198346
 20
126.9102248831653
 30
0.0
 10
91.60910949632974
 20
127.4079380751652
 30
0.0
 10
93.01597158136917
 20
127.7561697984933
 30
0.0
 10
94.63321058877676
 20
128.0286022459614
 30
0.0
 10
96.45643077737108
 20
128.1595710463043
 30
0.0
 10
98.36152467124073
 20
128.1043190402935
 30
0.0
 10
100.1419684149378
 20
127.8713588629736
 30
0.0
 10
101.7929037585008
 20
127.5073797351063
 30
0.0
 10
103.3493502727809
 20
127.0141430777556
 30
0.0
 10
104.6710987334205
 20
126.4701251125445
 30
0.0
 10
105.7681755064828
 20
125.9296302083935
 30
0.0
 10
106.3475581029393
 20
125.5935678373788
 30
0.0
 10
106.6372587223803
 20
125.4255312452388
 30
0.0
  0
CIRCLE
  5
177
330
1F
100
AcDbEntity
  8
0
  6
Continuous
 62
     7
370
    25
100
AcDbCircle
 10
96.8634483283
 20
109.1322011272
 30
0.0
 40
27.5
  0
CIRCLE
  5
178
330
1F
100
AcDbEntity
  8
0
  6
Continuous
 62
     7
370
    25
100
AcDbCircle
 10
96.8634483283
 20
119.3322011272
 30
0.0
 40
6.200000000000006
  0
CIRCLE
  5
179
330
1F
100
AcDbEntity
  8
0
  6
Continuous
 62
     7
370
    25
100
AcDbCircle
 10
96.8634483283
 20
98.9322011272
 30
0.0
 40
6.200000000000001
  0
LINE
  5
17A
330
1F
100
AcDbEntity
  8
0
  6
Continuous
 62
     7
370
    25
100
AcDbLine
 10
106.1789483642
 20
85.6322019318
 30
0.0
 11
87.5479482924
 21
85.6322019318
 31
0.0
  0
LINE
  5
17B
330
1F
100
AcDbEntity
  8
0
  6
Continuous
 62
     7
370
    25
100
AcDbLine
 10
107.3409483646
 20
86.7942019323
 30
0.0
 11
86.3859482919
 21
86.7942019323
 31
0.0
  0
LWPOLYLINE
  5
17C
330
1F
100
AcDbEntity
  8
0
  6
Continuous
 62
     8
370
    18
100
AcDbPolyline
 90
        9
 70
   128
 43
0.0
 10
106.3634480228
 20
118.6917942906
 10
106.3928647776
 20
118.8298554117
 10
106.4789506485
 20
118.9577641854
 10
106.6153745045
 20
119.0661123911
 10
106.7921041389
 20
119.1469334955
 10
106.9961429452
 20
119.1942828665
 10
107.212485454
 20
119.2046792204
 10
107.4252218818
 20
119.1773579413
 10
107.6187078719
 20
119.1143269608
  0
SPLINE
  5
17D
330
1F
100
AcDbEntity
  8
0
  6
Continuous
 62
     8
370
    18
100
AcDbSpline
210
0.0
220
0.0
230
1.0
 70
     8
 71
     3
 72
    18
 73
    14
 74
     0
 42
0.000000001
 43
0.00000001
 40
0.0
 40
0.0
 40
0.0
 40
0.0
 40
0.1038867711931675
 40
0.2077995392259015
 40
0.3102577131948295
 40
0.4128047590171943
 40
0.4911917167586985
 40
0.5697732453949663
 40
0.6480918008885966
 40
0.7471291406485303
 40
0.8461143503626678
 40
0.9226216285904807
 40
1.0
 40
1.0
 40
1.0
 40
1.0
 10
107.6187078719293
 20
119.1143269608092
 30
0.0
 10
107.6153070385124
 20
118.4512408172499
 30
0.0
 10
107.608504520647
 20
117.1249025980892
 30
0.0
 10
107.5885887582154
 20
114.8502715539
 30
0.0
 10
107.5660724180073
 20
112.4641369890208
 30
0.0
 10
107.5523177000361
 20
110.2113607521261
 30
0.0
 10
107.5535530924585
 20
108.139424328051
 30
0.0
 10
107.563228971359
 20
106.2703250264754
 30
0.0
 10
107.5800249146676
 20
104.2722803133282
 30
0.0
 10
107.5996217276124
 20
102.1954023651919
 30
0.0
 10
107.6140037080281
 20
100.2881991689956
 30
0.0
 10
107.6209182024603
 20
98.69850103593794
 30
0.0
 10
107.6222596787916
 20
97.8695552539876
 30
0.0
 10
107.6229342137729
 20
97.4527361760211
 30
0.0
  0
LWPOLYLINE
  5
17E
330
1F
100
AcDbEntity
  8
0
  6
Continuous
 62
     8
370
    18
100
AcDbPolyline
 90
        9
 70
   128
 43
0.0
 10
106.3634480228
 20
97.9515097061
 10
106.3930380036
 20
97.7873315061
 10
106.4796174755
 20
97.6352986837
 10
106.6167835956
 20
97.5066569591
 10
106.7943877419
 20
97.4109225864
 10
106.9992926781
 20
97.3551773424
 10
107.2163411294
 20
97.3435460547
 10
107.4294770946
 20
97.3768874029
 10
107.6229342138
 20
97.452736176
  0
SPLINE
  5
17F
330
1F
100
AcDbEntity
  8
0
  6
Continuous
 62
     8
370
    18
100
AcDbSpline
210
0.0
220
0.0
230
1.0
 70
     8
 71
     3
 72
    18
 73
    14
 74
     0
 42
0.000000001
 43
0.00000001
 40
0.0
 40
0.0
 40
0.0
 40
0.0
 40
0.1038867711931675
 40
0.2077995392259015
 40
0.3102577131948295
 40
0.4128047590171943
 40
0.4911917167586985
 40
0.5697732453949663
 40
0.6480918008885966
 40
0.7471291406485303
 40
0.8461143503626678
 40
0.9226216285904807
 40
1.0
 40
1.0
 40
1.0
 40
1.0
 10
86.10818878461471
 20
119.1143269608092
 30
0.0
 10
86.11158961803162
 20
118.4512408172499
 30
0.0
 10
86.118392135897
 20
117.1249025980892
 30
0.0
 10
86.13830789832868
 20
114.8502715539
 30
0.0
 10
86.16082423853669
 20
112.4641369890208
 30
0.0
 10
86.17457895650797
 20
110.2113607521261
 30
0.0
 10
86.17334356408557
 20
108.139424328051
 30
0.0
 10
86.16366768518508
 20
106.2703250264754
 30
0.0
 10
86.1468717418764
 20
104.2722803133282
 30
0.0
 10
86.1272749289316
 20
102.1954023651919
 30
0.0
 10
86.11289294851598
 20
100.2881991689956
 30
0.0
 10
86.10597845408368
 20
98.69850103593794
 30
0.0
 10
86.10463697775239
 20
97.8695552539876
 30
0.0
 10
86.1039624427711
 20
97.4527361760211
 30
0.0
  0
LWPOLYLINE
  5
180
330
1F
100
AcDbEntity
  8
0
  6
Continuous
 62
     8
370
    18
100
AcDbPolyline
 90
        9
 70
   128
 43
0.0
 10
87.3634486337
 20
118.6917942906
 10
87.3340318789
 20
118.8298554117
 10
87.247946008
 20
118.9577641854
 10
87.111522152
 20
119.0661123911
 10
86.9347925176
 20
119.1469334955
 10
86.7307537114
 20
119.1942828665
 10
86.5144112026
 20
119.2046792204
 10
86.3016747748
 20
119.1773579413
 10
86.1081887846
 20
119.1143269608
  0
LWPOLYLINE
  5
181
330
1F
100
AcDbEntity
  8
0
  6
Continuous
 62
     8
370
    18
100
AcDbPolyline
 90
        9
 70
   128
 43
0.0
 10
87.3634486337
 20
97.9515097061
 10
87.3338586529
 20
97.7873315061
 10
87.2472791811
 20
97.6352986837
 10
87.110113061
 20
97.5066569591
 10
86.9325089147
 20
97.4109225864
 10
86.7276039784
 20
97.3551773424
 10
86.5105555271
 20
97.3435460547
 10
86.2974195619
 20
97.3768874029
 10
86.1039624428
 20
97.452736176
  0
SPLINE
  5
182
330
1F
100
AcDbEntity
  8
0
  6
Continuous
 62
     8
370
    18
100
AcDbSpline
210
0.0
220
0.0
230
1.0
 70
     8
 71
     3
 72
    13
 73
     9
 74
     0
 42
0.000000001
 43
0.00000001
 40
0.0
 40
0.0
 40
0.0
 40
0.0
 40
0.1679723800362187
 40
0.3408281832524794
 40
0.5080981666844688
 40
0.680316289779362
 40
0.8455196768472744
 40
1.0
 40
1.0
 40
1.0
 40
1.0
 10
107.718893966571
 20
97.14670730329276
 30
0.0
 10
107.9524416295172
 20
96.88246473673307
 30
0.0
 10
108.4263268340232
 20
96.34629733897938
 30
0.0
 10
108.6658513083167
 20
95.54170991610785
 30
0.0
 10
108.5496631993624
 20
94.73287276925527
 30
0.0
 10
108.0424087482511
 20
93.95016576969142
 30
0.0
 10
107.2194312785223
 20
93.20342688525784
 30
0.0
 10
106.4103760958719
 20
92.72555379517046
 30
0.0
 10
106.0194174637353
 20
92.49463183379889
 30
0.0
  0
SPLINE
  5
183
330
1F
100
AcDbEntity
  8
0
  6
Continuous
 62
     8
370
    18
100
AcDbSpline
210
0.0
220
0.0
230
1.0
 70
     8
 71
     3
 72
     9
 73
     5
 74
     0
 42
0.000000001
 43
0.00000001
 40
0.0
 40
0.0
 40
0.0
 40
0.0
 40
0.2958356170339062
 40
1.0
 40
1.0
 40
1.0
 40
1.0
 10
107.6229342137729
 20
97.4527361760211
 30
0.0
 10
107.6239099729178
 20
97.41608913421503
 30
0.0
 10
107.6272082882278
 20
97.2922127660701
 30
0.0
 10
107.6810092473722
 20
97.2068304730051
 30
0.0
 10
107.718893966571
 20
97.14670730329276
 30
0.0
  0
SPLINE
  5
184
330
1F
100
AcDbEntity
  8
0
  6
Continuous
 62
     8
370
    18
100
AcDbSpline
210
0.0
220
0.0
230
1.0
 70
     8
 71
     3
 72
     9
 73
     5
 74
     0
 42
0.000000001
 43
0.00000001
 40
0.0
 40
0.0
 40
0.0
 40
0.0
 40
0.3075637596055003
 40
1.0
 40
1.0
 40
1.0
 40
1.0
 10
107.7809368138467
 20
119.5922807747793
 30
0.0
 10
107.74793899771
 20
119.5574539928385
 30
0.0
 10
107.6406512724621
 20
119.4442196443396
 30
0.0
 10
107.6276857024695
 20
119.2492978649209
 30
0.0
 10
107.6187078719293
 20
119.1143269608092
 30
0.0
  0
SPLINE
  5
185
330
1F
100
AcDbEntity
  8
0
  6
Continuous
 62
     8
370
    18
100
AcDbSpline
210
0.0
220
0.0
230
1.0
 70
     8
 71
     3
 72
    12
 73
     8
 74
     0
 42
0.000000001
 43
0.00000001
 40
0.0
 40
0.0
 40
0.0
 40
0.0
 40
0.1414922430125117
 40
0.3524244234417282
 40
0.5695250688998413
 40
0.7816713288901189
 40
1.0
 40
1.0
 40
1.0
 40
1.0
 10
108.8495558937346
 20
123.6890933433843
 30
0.0
 10
108.989738788098
 20
123.4996226631559
 30
0.0
 10
109.3389019271545
 20
123.0276950590914
 30
0.0
 10
109.5439504204292
 20
122.2529007524155
 30
0.0
 10
109.3803204367593
 20
121.3746368734483
 30
0.0
 10
108.8239411961793
 20
120.4917615116603
 30
0.0
 10
108.1319178502971
 20
119.894964719972
 30
0.0
 10
107.7809368138467
 20
119.5922807747793
 30
0.0
  0
SPLINE
  5
186
330
1F
100
AcDbEntity
  8
0
  6
Continuous
 62
     8
370
    18
100
AcDbSpline
210
0.0
220
0.0
230
1.0
 70
     8
 71
     3
 72
    10
 73
     6
 74
     0
 42
0.000000001
 43
0.00000001
 40
0.0
 40
0.0
 40
0.0
 40
0.0
 40
0.4681798325723979
 40
0.7340859156536556
 40
0.9999999999999999
 40
0.9999999999999999
 40
0.9999999999999999
 40
0.9999999999999999
 10
106.7509862472569
 20
125.3491311291528
 30
0.0
 10
107.165714368219
 20
125.0848125334485
 30
0.0
 10
107.8159902905095
 20
124.6703723016134
 30
0.0
 10
108.4611094804006
 20
124.1238115172411
 30
0.0
 10
108.7200724572523
 20
123.8340008547426
 30
0.0
 10
108.8495558937346
 20
123.6890933433843
 30
0.0
  0
SPLINE
  5
187
330
1F
100
AcDbEntity
  8
0
  6
Continuous
 62
     8
370
    18
100
AcDbSpline
210
0.0
220
0.0
230
1.0
 70
     8
 71
     3
 72
    11
 73
     7
 74
     0
 42
0.000000001
 43
0.00000001
 40
0.0
 40
0.0
 40
0.0
 40
0.0
 40
0.0000122313122985
 40
0.4912843692843312
 40
0.7456383578141659
 40
1.0
 40
1.0
 40
1.0
 40
1.0
 10
87.08963793416372
 20
125.4255312452388
 30
0.0
 10
87.08962582695881
 20
125.4255244155458
 30
0.0
 10
86.6033263703401
 20
125.1512021401281
 30
0.0
 10
85.9492410933283
 20
124.6916942910215
 30
0.0
 10
85.26415839536232
 20
124.1244408849502
 30
0.0
 10
85.00628126691915
 20
123.8342106460831
 30
0.0
 10
84.87734076280942
 20
123.6890933433843
 30
0.0
  0
SPLINE
  5
188
330
1F
100
AcDbEntity
  8
0
  6
Continuous
 62
     8
370
    18
100
AcDbSpline
210
0.0
220
0.0
230
1.0
 70
     8
 71
     3
 72
    12
 73
     8
 74
     0
 42
0.000000001
 43
0.00000001
 40
0.0
 40
0.0
 40
0.0
 40
0.0
 40
0.1414922430125117
 40
0.3524244234417282
 40
0.5695250688998413
 40
0.7816713288901189
 40
1.0
 40
1.0
 40
1.0
 40
1.0
 10
84.87734076280942
 20
123.6890933433843
 30
0.0
 10
84.73715786844608
 20
123.4996226631559
 30
0.0
 10
84.38799472938956
 20
123.0276950590914
 30
0.0
 10
84.18294623611483
 20
122.2529007524155
 30
0.0
 10
84.34657621978475
 20
121.3746368734483
 30
0.0
 10
84.90295546036477
 20
120.4917615116603
 30
0.0
 10
85.59497880624687
 20
119.894964719972
 30
0.0
 10
85.94595984269729
 20
119.5922807747793
 30
0.0
  0
SPLINE
  5
189
330
1F
100
AcDbEntity
  8
0
  6
Continuous
 62
     8
370
    18
100
AcDbSpline
210
0.0
220
0.0
230
1.0
 70
     8
 71
     3
 72
     9
 73
     5
 74
     0
 42
0.000000001
 43
0.00000001
 40
0.0
 40
0.0
 40
0.0
 40
0.0
 40
0.3075637596055003
 40
1.0
 40
1.0
 40
1.0
 40
1.0
 10
85.94595984269729
 20
119.5922807747793
 30
0.0
 10
85.97895765883405
 20
119.5574539928385
 30
0.0
 10
86.08624538408195
 20
119.4442196443396
 30
0.0
 10
86.0992109540745
 20
119.2492978649209
 30
0.0
 10
86.10818878461471
 20
119.1143269608092
 30
0.0
  0
SPLINE
  5
18A
330
1F
100
AcDbEntity
  8
0
  6
Continuous
 62
     8
370
    18
100
AcDbSpline
210
0.0
220
0.0
230
1.0
 70
     8
 71
     3
 72
     9
 73
     5
 74
     0
 42
0.000000001
 43
0.00000001
 40
0.0
 40
0.0
 40
0.0
 40
0.0
 40
0.2958356170339062
 40
1.0
 40
1.0
 40
1.0
 40
1.0
 10
86.1039624427711
 20
97.4527361760211
 30
0.0
 10
86.1029866836262
 20
97.41608913421503
 30
0.0
 10
86.0996883683162
 20
97.2922127660701
 30
0.0
 10
86.04588740917187
 20
97.2068304730051
 30
0.0
 10
86.00800268997303
 20
97.14670730329276
 30
0.0
  0
SPLINE
  5
18B
330
1F
100
AcDbEntity
  8
0
  6
Continuous
 62
     8
370
    18
100
AcDbSpline
210
0.0
220
0.0
230
1.0
 70
     8
 71
     3
 72
    13
 73
     9
 74
     0
 42
0.000000001
 43
0.00000001
 40
0.0
 40
0.0
 40
0.0
 40
0.0
 40
0.166801877014483
 40
0.3384531474382361
 40
0.5045575224469204
 40
0.675575556375745
 40
0.8396277359432203
 40
0.9999999999999999
 40
0.9999999999999999
 40
0.9999999999999999
 40
0.9999999999999999
 10
86.00800268997303
 20
97.14670730329276
 30
0.0
 10
85.77445778691862
 20
96.88246481136123
 30
0.0
 10
85.30057818243397
 20
96.34629756503352
 30
0.0
 10
85.06101123814769
 20
95.54170899376277
 30
0.0
 10
85.17735818244083
 20
94.7328761418574
 30
0.0
 10
85.68401470917634
 20
93.95015297426913
 30
0.0
 10
86.52087451203309
 20
93.19281925473393
 30
0.0
 10
87.34865449664458
 20
92.7044828424046
 30
0.0
 10
87.75784977425685
 20
92.46308421290637
 30
0.0
  0
ARC
  5
18C
330
1F
100
AcDbEntity
  8
0
  6
Continuous
 62
     8
370
    18
100
AcDbCircle
 10
107.2007102471
 20
119.1574499683
 30
0.0
 40
0.7250797880723561
100
AcDbArc
 50
36.848459936
 51
121.7150781975
  0
ARC
  5
18D
330
1F
100
AcDbEntity
  8
0
  6
Continuous
 62
     8
370
    18
100
AcDbCircle
 10
86.5261810097
 20
119.1574588523
 30
0.0
 40
0.7250701392844622
100
AcDbArc
 50
58.2811805395
 51
143.1518459516
  0
SPLINE
  5
18E
330
1F
100
AcDbEntity
  8
0
  6
Continuous
 62
     8
370
    18
100
AcDbSpline
210
0.0
220
0.0
230
1.0
 70
     8
 71
     3
 72
    10
 73
     6
 74
     0
 42
0.000000001
 43
0.00000001
 40
0.0
 40
0.0
 40
0.0
 40
0.0
 40
0.0877281777283589
 40
0.630652971702644
 40
1.0
 40
1.0
 40
1.0
 40
1.0
 10
108.1187945668851
 20
121.5770316267681
 30
0.0
 10
108.128457841284
 20
121.6231532059446
 30
0.0
 10
108.19792437842
 20
121.9547081489566
 30
0.0
 10
108.0139101932912
 20
122.4760905227857
 30
0.0
 10
107.6987593121384
 20
122.9431183061543
 30
0.0
 10
107.5711657171403
 20
123.1322015593123
 30
0.0
  0
SPLINE
  5
18F
330
1F
100
AcDbEntity
  8
0
  6
Continuous
 62
     8
370
    18
100
AcDbSpline
210
0.0
220
0.0
230
1.0
 70
     8
 71
     3
 72
    10
 73
     6
 74
     0
 42
0.000000001
 43
0.00000001
 40
0.0
 40
0.0
 40
0.0
 40
0.0
 40
0.0898329414941863
 40
0.6315051171084295
 40
1.0
 40
1.0
 40
1.0
 40
1.0
 10
85.60877171059003
 20
121.5733864302111
 30
0.0
 10
85.598826589017
 20
121.6207239236423
 30
0.0
 10
85.52891464959723
 20
121.95349572022
 30
0.0
 10
85.71289478399804
 20
122.4760922000028
 30
0.0
 10
86.0281109235549
 20
122.943118789508
 30
0.0
 10
86.15573093940368
 20
123.1322015593123
 30
0.0
  0
ARC
  5
190
330
1F
100
AcDbEntity
  8
0
  6
Continuous
 62
     8
370
    18
100
AcDbCircle
 10
107.1765926003
 20
97.645426817
 30
0.0
 40
0.7367577113119502
100
AcDbArc
 50
228.932001699
 51
317.3972611747
  0
ARC
  5
191
330
1F
100
AcDbEntity
  8
0
  6
Continuous
 62
     8
370
    18
100
AcDbCircle
 10
86.5502631081
 20
97.6453272257
 30
0.0
 40
0.7366601578258627
100
AcDbArc
 50
222.5991931424
 51
311.1371899807
  0
SPLINE
  5
192
330
1F
100
AcDbEntity
  8
0
  6
Continuous
 62
     8
370
    18
100
AcDbSpline
210
0.0
220
0.0
230
1.0
 70
     8
 71
     3
 72
    12
 73
     8
 74
     0
 42
0.000000001
 43
0.00000001
 40
0.0
 40
0.0
 40
0.0
 40
0.0
 40
0.1256109890052683
 40
0.3530679112511634
 40
0.5871722736921812
 40
0.815853447799353
 40
1.0
 40
1.0
 40
1.0
 40
1.0
 10
89.51626595754972
 20
92.7408157805276
 30
0.0
 10
89.2784880559382
 20
92.8690849219647
 30
0.0
 10
88.61014090153323
 20
93.22962437956964
 30
0.0
 10
87.70135913716103
 20
93.84273385014049
 30
0.0
 10
86.93298308936265
 20
94.57496169500364
 30
0.0
 10
86.48435509707873
 20
95.27877948247824
 30
0.0
 10
86.45613419449694
 20
95.73732507143842
 30
0.0
 10
86.44354593654027
 20
95.94186460173846
 30
0.0
  0
LWPOLYLINE
  5
193
330
1F
100
AcDbEntity
  8
0
  6
Continuous
 62
     8
370
    18
100
AcDbPolyline
 90
        9
 70
   128
 43
0.0
 10
89.5162659575
 20
92.7408157805
 10
89.4577621361
 20
92.5645052413
 10
89.3715165434
 20
92.3978990833
 10
89.2622761307
 20
92.2501708338
 10
89.1360549134
 20
92.1294509391
 10
88.9998010238
 20
92.0423853169
 10
88.8610153337
 20
91.9937684158
 10
88.7273370167
 20
91.9862731317
 10
88.6061253836
 20
92.0203148345
  0
SPLINE
  5
194
330
1F
100
AcDbEntity
  8
0
  6
Continuous
 62
     8
370
    18
100
AcDbSpline
210
0.0
220
0.0
230
1.0
 70
     8
 71
     3
 72
    12
 73
     8
 74
     0
 42
0.000000001
 43
0.00000001
 40
0.0
 40
0.0
 40
0.0
 40
0.0
 40
0.1258449006644505
 40
0.3537253911546239
 40
0.5882657006435394
 40
0.8173727227858453
 40
1.0
 40
1.0
 40
1.0
 40
1.0
 10
104.2106306989943
 20
92.7408157805276
 30
0.0
 10
104.4484076839537
 20
92.86908495552748
 30
0.0
 10
105.1167522618291
 20
93.22962450747085
 30
0.0
 10
106.0255658734754
 20
93.8427328119688
 30
0.0
 10
106.7938069774132
 20
94.57496559773767
 30
0.0
 10
107.241606269681
 20
95.27674436192123
 30
0.0
 10
107.2699008344276
 20
95.73321817137555
 30
0.0
 10
107.2824510623967
 20
95.93568993306876
 30
0.0
  0
LWPOLYLINE
  5
195
330
1F
100
AcDbEntity
  8
0
  6
Continuous
 62
     8
370
    18
100
AcDbPolyline
 90
        9
 70
   128
 43
0.0
 10
104.210630699
 20
92.7408157805
 10
104.2691345205
 20
92.5645052413
 10
104.3553801132
 20
92.3978990833
 10
104.4646205259
 20
92.2501708338
 10
104.5908417431
 20
92.1294509391
 10
104.7270956327
 20
92.0423853169
 10
104.8658813228
 20
91.9937684158
 10
104.9995596399
 20
91.9862731317
 10
105.120771273
 20
92.0203148345
  0
SPLINE
  5
196
330
1F
100
AcDbEntity
  8
0
  6
Continuous
 62
     8
370
    18
100
AcDbSpline
210
0.0
220
0.0
230
1.0
 70
     8
 71
     3
 72
    17
 73
    13
 74
     0
 42
0.000000001
 43
0.00000001
 40
0.0
 40
0.0
 40
0.0
 40
0.0
 40
0.0996270358731435
 40
0.1992031542060846
 40
0.2892948659453398
 40
0.3793339585227832
 40
0.4751197252686734
 40
0.5708935414059998
 40
0.6781855367683252
 40
0.7855765609981751
 40
0.8927529118372708
 40
0.9999999999999999
 40
0.9999999999999999
 40
0.9999999999999999
 40
0.9999999999999999
 10
89.51626595754972
 20
92.7408157805276
 30
0.0
 10
89.90461615169599
 20
92.54981010318292
 30
0.0
 10
90.68111806136828
 20
92.16789636797174
 30
0.0
 10
92.00584659199278
 20
91.67747747547949
 30
0.0
 10
93.40198752979435
 20
91.29669584298513
 30
0.0
 10
94.87476543410239
 20
91.0325597364381
 30
0.0
 10
96.44232310666197
 20
90.91243221606265
 30
0.0
 10
98.12052736243727
 20
90.95054558586223
 30
0.0
 10
99.81758156485613
 20
91.18216278581112
 30
0.0
 10
101.4591562302733
 20
91.58839617660264
 30
0.0
 10
102.9522495547297
 20
92.1247210224113
 30
0.0
 10
103.7910780756599
 20
92.53540570014901
 30
0.0
 10
104.2106306989943
 20
92.7408157805276
 30
0.0
  0
LWPOLYLINE
  5
197
330
1F
100
AcDbEntity
  8
0
  6
Continuous
 62
     8
370
    18
100
AcDbPolyline
 90
        9
 70
   128
 43
0.0
 10
87.0896379342
 20
125.4255312452
 10
87.2182591697
 20
125.4770594606
 10
87.3624232476
 20
125.4880658308
 10
87.5142111321
 20
125.4579431335
 10
87.665280967
 20
125.3883491228
 10
87.8073355993
 20
125.2831040839
 10
87.9325677519
 20
125.1479952554
 10
88.0340986763
 20
124.9904415528
 10
88.106348819
 20
124.8191005508
  0
SPLINE
  5
198
330
1F
100
AcDbEntity
  8
0
  6
Continuous
 62
     8
370
    18
100
AcDbSpline
210
0.0
220
0.0
230
1.0
 70
     8
 71
     3
 72
    10
 73
     6
 74
     0
 42
0.000000001
 43
0.00000001
 40
0.0
 40
0.0
 40
0.0
 40
0.0
 40
0.0395236386457858
 40
0.5130125677235281
 40
1.0
 40
1.0
 40
1.0
 40
1.0
 10
86.1336585943853
 20
123.1512079904151
 30
0.0
 10
86.1502935175963
 20
123.1730015784648
 30
0.0
 10
86.36621302710412
 20
123.4558800013118
 30
0.0
 10
86.91285391227409
 20
124.0048209451112
 30
0.0
 10
87.70480715516874
 20
124.5451427937248
 30
0.0
 10
88.10634881903282
 20
124.8191005507779
 30
0.0
  0
SPLINE
  5
199
330
1F
100
AcDbEntity
  8
0
  6
Continuous
 62
     8
370
    18
100
AcDbSpline
210
0.0
220
0.0
230
1.0
 70
     8
 71
     3
 72
    10
 73
     6
 74
     0
 42
0.000000001
 43
0.00000001
 40
0.0
 40
0.0
 40
0.0
 40
0.0
 40
0.0395236386457858
 40
0.5130125677235281
 40
1.0
 40
1.0
 40
1.0
 40
1.0
 10
107.5932380621587
 20
123.1512079904151
 30
0.0
 10
107.5766031389477
 20
123.1730015784648
 30
0.0
 10
107.3606836294399
 20
123.4558800013118
 30
0.0
 10
106.8140427442699
 20
124.0048209451112
 30
0.0
 10
106.0220895013753
 20
124.5451427937248
 30
0.0
 10
105.6205478375112
 20
124.8191005507779
 30
0.0
  0
LWPOLYLINE
  5
19A
330
1F
100
AcDbEntity
  8
0
  6
Continuous
 62
     8
370
    18
100
AcDbPolyline
 90
        9
 70
   128
 43
0.0
 10
106.6372587224
 20
125.4255312452
 10
106.5086374869
 20
125.4770594606
 10
106.364473409
 20
125.4880658308
 10
106.2126855244
 20
125.4579431335
 10
106.0616156896
 20
125.3883491228
 10
105.9195610573
 20
125.2831040839
 10
105.7943289046
 20
125.1479952554
 10
105.6927979802
 20
124.9904415528
 10
105.6205478375
 20
124.8191005508
  0
SPLINE
  5
19B
330
1F
100
AcDbEntity
  8
0
  6
Continuous
 62
     8
370
    18
100
AcDbSpline
210
0.0
220
0.0
230
1.0
 70
     8
 71
     3
 72
    20
 73
    16
 74
     0
 42
0.000000001
 43
0.00000001
 40
0.0
 40
0.0
 40
0.0
 40
0.0
 40
0.0618684247093284
 40
0.1237301874499528
 40
0.2033155096813394
 40
0.2828500473624528
 40
0.3579285265594122
 40
0.4329630073330785
 40
0.517432242503141
 40
0.6019125819124816
 40
0.6935723745106234
 40
0.7853375898495326
 40
0.8013607851204835
 40
0.9006469614964144
 40
1.0
 40
1.0
 40
1.0
 40
1.0
 10
105.6205478375112
 20
124.8191005507779
 30
0.0
 10
105.362512419307
 20
124.9796171636005
 30
0.0
 10
104.8464693680555
 20
125.3006331048773
 30
0.0
 10
103.8674908085949
 20
125.8174314645755
 30
0.0
 10
102.6852746323432
 20
126.3386748596028
 30
0.0
 10
101.2918553655632
 20
126.8114150749249
 30
0.0
 10
99.80917175868167
 20
127.1610431647511
 30
0.0
 10
98.21070791711736
 20
127.3850326742932
 30
0.0
 10
96.49732734591854
 20
127.4378192225419
 30
0.0
 10
94.68156849759455
 20
127.2984605433759
 30
0.0
 10
92.9047425305973
 20
126.9465186560477
 30
0.0
 10
91.68946935474398
 20
126.5649124940383
 30
0.0
 10
90.5154700855551
 20
126.1152486257531
 30
0.0
 10
89.37680183809758
 20
125.5936631872237
 30
0.0
 10
88.52992817818435
 20
125.0773460271907
 30
0.0
 10
88.10634881903282
 20
124.8191005507779
 30
0.0
  0
SPLINE
  5
19C
330
1F
100
AcDbEntity
  8
0
  6
Continuous
 62
     8
370
    18
100
AcDbSpline
210
0.0
220
0.0
230
1.0
 70
     8
 71
     3
 72
    11
 73
     7
 74
     0
 42
0.000000001
 43
0.00000001
 40
0.0
 40
0.0
 40
0.0
 40
0.0
 40
0.2500000684645362
 40
0.5000000937704641
 40
0.7500001246383762
 40
1.0
 40
1.0
 40
1.0
 40
1.0
 10
110.5047880550181
 20
93.16617874003173
 30
0.0
 10
110.3345481325182
 20
93.36543039623258
 30
0.0
 10
109.9940683169076
 20
93.76393367423663
 30
0.0
 10
109.5646316739103
 20
94.26655114445455
 30
0.0
 10
109.2641994479506
 20
94.61818323109695
 30
0.0
 10
109.2251415594034
 20
94.66389630370257
 30
0.0
 10
109.2056126212036
 20
94.68675283289672
 30
0.0
  0
SPLINE
  5
19D
330
1F
100
AcDbEntity
  8
0
  6
Continuous
 62
     8
370
    18
100
AcDbSpline
210
0.0
220
0.0
230
1.0
 70
     8
 71
     3
 72
     9
 73
     5
 74
     0
 42
0.000000001
 43
0.00000001
 40
0.0
 40
0.0
 40
0.0
 40
0.0
 40
0.6427047894381874
 40
0.9999999999999999
 40
0.9999999999999999
 40
0.9999999999999999
 40
0.9999999999999999
 10
110.5047880550181
 20
93.16617874003173
 30
0.0
 10
109.8639086694427
 20
92.64079672412916
 30
0.0
 10
108.8667488596712
 20
91.82334207848722
 30
0.0
 10
107.7426010079973
 20
91.19573692081417
 30
0.0
 10
107.3409483646308
 20
90.97149660385371
 30
0.0
  0
SPLINE
  5
19E
330
1F
100
AcDbEntity
  8
0
  6
Continuous
 62
     8
370
    18
100
AcDbSpline
210
0.0
220
0.0
230
1.0
 70
     8
 71
     3
 72
     9
 73
     5
 74
     0
 42
0.000000001
 43
0.00000001
 40
0.0
 40
0.0
 40
0.0
 40
0.0
 40
0.3570893468853344
 40
1.0
 40
1.0
 40
1.0
 40
1.0
 10
86.38594829191318
 20
90.97132151520968
 30
0.0
 10
85.98451864938126
 20
91.19544168700938
 30
0.0
 10
84.86034721712393
 20
91.82307220512638
 30
0.0
 10
83.86319097342182
 20
92.64058868562338
 30
0.0
 10
83.22210860152593
 20
93.16617874003173
 30
0.0
  0
SPLINE
  5
19F
330
1F
100
AcDbEntity
  8
0
  6
Continuous
 62
     8
370
    18
100
AcDbSpline
210
0.0
220
0.0
230
1.0
 70
     8
 71
     3
 72
    11
 73
     7
 74
     0
 42
0.000000001
 43
0.00000001
 40
0.0
 40
0.0
 40
0.0
 40
0.0
 40
0.2499998753616239
 40
0.4999999062295359
 40
0.7499999315354638
 40
1.0
 40
1.0
 40
1.0
 40
1.0
 10
84.52128403534046
 20
94.68675283289672
 30
0.0
 10
84.50175509714062
 20
94.66389630370257
 30
0.0
 10
84.46269720859343
 20
94.61818323109695
 30
0.0
 10
84.16226498263374
 20
94.26655114445454
 30
0.0
 10
83.73282833963647
 20
93.76393367423663
 30
0.0
 10
83.39234852402585
 20
93.36543039623258
 30
0.0
 10
83.22210860152593
 20
93.16617874003173
 30
0.0
  0
ARC
  5
1A0
330
1F
100
AcDbEntity
  8
0
  6
Continuous
 62
     8
370
    18
100
AcDbCircle
 10
96.8634483283
 20
109.1322011272
 30
0.0
 40
21.00000000000001
100
AcDbArc
 50
310.5105165011
 51
229.4894834989
  0
CIRCLE
  5
1A1
330
1F
100
AcDbEntity
  8
0
  6
Continuous
 62
     8
370
    18
100
AcDbCircle
 10
96.8634483283
 20
109.1322011272
 30
0.0
 40
26.7
  0
DIMENSION
  5
1A2
330
1F
100
AcDbEntity
  8
DEFAULT_LAYER
100
AcDbDimension
  2
_D
 10
115.2160390278
 20
114.0497629841
 30
0.0
 11
128.1560015857
 21
117.5170228221
 31
0.0
 70
   163
  1
<>
 71
     1
 42
-1.0
  3
SLDDIMSTYLE0
100
AcDbDiametricDimension
 15
78.5108576288
 25
104.2146392702
 35
0.0
 40
0.0
  0
DIMENSION
  5
1B5
330
1F
100
AcDbEntity
  8
DEFAULT_LAYER
100
AcDbDimension
  2
_D_1
 10
120.1407713649
 20
123.7751595799
 30
0.0
 11
125.5230700545
 21
127.1609811502
 31
0.0
 70
   163
  1
<>
 71
     1
 42
-1.0
  3
SLDDIMSTYLE0
100
AcDbDiametricDimension
 15
73.5861252917
 25
94.4892426744
 35
0.0
 40
0.0
  0
INSERT
  5
1CB
330
1F
100
AcDbEntity
  8
DEFAULT_LAYER
100
AcDbBlockReference
  2
SW_CENTERMARKSYMBOL_0
 10
96.8634483283
 20
109.1322011272
 30
0.0
  0
LINE
  5
1CC
330
1F
100
AcDbEntity
  8
0
  6
Continuous
 62
     7
370
    25
100
AcDbLine
 10
230.5839754438
 20
135.5322009841
 30
0.0
 11
230.0839744305
 21
135.5322009841
 31
0.0
  0
LINE
  5
1CD
330
1F
100
AcDbEntity
  8
0
  6
Continuous
 62
     7
370
    25
100
AcDbLine
 10
230.0839744305
 20
82.7322012702
 30
0.0
 11
230.5839754438
 21
82.7322012702
 31
0.0
  0
LINE
  5
1CE
330
1F
100
AcDbEntity
  8
0
  6
Continuous
 62
     7
370
    25
100
AcDbLine
 10
229.7839749401
 20
136.6322009782
 30
0.0
 11
224.8839739507
 21
136.6322009782
 31
0.0
  0
LINE
  5
1CF
330
1F
100
AcDbEntity
  8
0
  6
Continuous
 62
     7
370
    25
100
AcDbLine
 10
224.8839739507
 20
81.6322012762
 30
0.0
 11
229.7839749401
 21
81.6322012762
 31
0.0
  0
ARC
  5
1D0
330
1F
100
AcDbEntity
  8
0
  6
Continuous
 62
     7
370
    25
100
AcDbCircle
 10
229.7839747559
 20
81.9322011272
 30
0.0
 40
0.3000000000000114
100
AcDbArc
 50
270.0
 51
0.0
  0
ARC
  5
1D1
330
1F
100
AcDbEntity
  8
0
  6
Continuous
 62
     7
370
    25
100
AcDbCircle
 10
229.7839747559
 20
136.3322011272
 30
0.0
 40
0.3000000000000114
100
AcDbArc
 50
0.0
 51
90.0
  0
ARC
  5
1D2
330
1F
100
AcDbEntity
  8
0
  6
Continuous
 62
     7
370
    25
100
AcDbCircle
 10
224.8839747559
 20
82.4322011272
 30
0.0
 40
0.7999999999999972
100
AcDbArc
 50
180.0
 51
270.0
  0
ARC
  5
1D3
330
1F
100
AcDbEntity
  8
0
  6
Continuous
 62
     7
370
    25
100
AcDbCircle
 10
224.8839747559
 20
135.8322011272
 30
0.0
 40
0.799999999999983
100
AcDbArc
 50
90.0
 51
180.0
  0
ARC
  5
1D4
330
1F
100
AcDbEntity
  8
0
  6
Continuous
 62
     7
370
    25
100
AcDbCircle
 10
222.0839747559
 20
130.1322011272
 30
0.0
 40
2.000000000000028
100
AcDbArc
 50
270.0
 51
0.0
  0
LINE
  5
1D5
330
1F
100
AcDbEntity
  8
0
  6
Continuous
 62
     7
370
    25
100
AcDbLine
 10
222.0839749818
 20
128.1322005162
 30
0.0
 11
178.6311179196
 21
128.1322005162
 31
0.0
  0
LINE
  5
1D6
330
1F
100
AcDbEntity
  8
0
  6
Continuous
 62
     7
370
    25
100
AcDbLine
 10
177.3098934238
 20
90.1322017381
 30
0.0
 11
189.8147728091
 21
90.1322017381
 31
0.0
  0
SPLINE
  5
1D7
330
1F
100
AcDbEntity
  8
0
  6
Continuous
 62
     7
370
    25
100
AcDbSpline
210
0.0
220
0.0
230
1.0
 70
     8
 71
     3
 72
    27
 73
    23
 74
     0
 42
0.000000001
 43
0.00000001
 40
0.0
 40
0.0
 40
0.0
 40
0.0
 40
0.0084087518935865
 40
0.0398180965199837
 40
0.0880307984925008
 40
0.137810563246041
 40
0.1887494535528884
 40
0.2407841462445746
 40
0.2937623598779767
 40
0.3474310546831363
 40
0.4014692574396567
 40
0.45843459695449
 40
0.5163106555878004
 40
0.5749481072085362
 40
0.6340339693456178
 40
0.6930664192259902
 40
0.7506632554624265
 40
0.805434014714347
 40
0.8581824422894329
 40
0.9086069536982723
 40
0.956756193644595
 40
1.0
 40
1.0
 40
1.0
 40
1.0
 10
189.9631306325715
 20
90.19156982696772
 30
0.0
 10
189.9634701990394
 20
90.19182001963823
 30
0.0
 10
189.965078153533
 20
90.19300476096831
 30
0.0
 10
189.9973585927969
 20
90.21658819466838
 30
0.0
 10
190.1001346834654
 20
90.29072797851984
 30
0.0
 10
190.3012281452442
 20
90.43358166420916
 30
0.0
 10
190.5879538974936
 20
90.63393146964584
 30
0.0
 10
190.9606730449603
 20
90.88985026385262
 30
0.0
 10
191.4177198901107
 20
91.19777363498423
 30
0.0
 10
191.9577692871036
 20
91.55419712313702
 30
0.0
 10
192.580866055595
 20
91.95642085066844
 30
0.0
 10
193.2889893427735
 20
92.39672637885033
 30
0.0
 10
194.0867468683531
 20
92.86747265013726
 30
0.0
 10
194.9627533664266
 20
93.35113878753965
 30
0.0
 10
195.9111648543337
 20
93.83265161547634
 30
0.0
 10
196.9152805572411
 20
94.29560490446687
 30
0.0
 10
197.956902905653
 20
94.71031376746589
 30
0.0
 10
199.0140720349293
 20
95.06128627173457
 30
0.0
 10
200.0695571142777
 20
95.34039041672905
 30
0.0
 10
201.1156069649085
 20
95.5400235330962
 30
0.0
 10
202.1193878400336
 20
95.663601200108
 30
0.0
 10
202.7742154850674
 20
95.67759860717739
 30
0.0
 10
203.0840556865256
 20
95.68422166205168
 30
0.0
  0
SPLINE
  5
1D8
330
1F
100
AcDbEntity
  8
0
  6
Continuous
 62
     7
370
    25
100
AcDbSpline
210
0.0
220
0.0
230
1.0
 70
     8
 71
     3
 72
    21
 73
    17
 74
     0
 42
0.000000001
 43
0.00000001
 40
0.0
 40
0.0
 40
0.0
 40
0.0
 40
0.0080479938833603
 40
0.0210486164768095
 40
0.0308362062294435
 40
0.0370983810630924
 40
0.0390109772061788
 40
0.0403206411671005
 40
0.0417997482172548
 40
0.0442639203863532
 40
0.0499790910927834
 40
0.0702444665828192
 40
0.1767124301848691
 40
0.4647154209795299
 40
0.7468178544188105
 40
0.9999999999999999
 40
0.9999999999999999
 40
0.9999999999999999
 40
0.9999999999999999
 10
189.8168422078412
 20
90.13552842236281
 30
0.0
 10
189.826906127084
 20
90.13633390708671
 30
0.0
 10
189.8532271680126
 20
90.13844056115195
 30
0.0
 10
189.8903114702489
 20
90.15083483935979
 30
0.0
 10
189.9231468606491
 20
90.16579503653462
 30
0.0
 10
189.9428880599941
 20
90.17760153989862
 30
0.0
 10
189.951714311745
 20
90.18346467355853
 30
0.0
 10
189.9546844085994
 20
90.18550177087677
 30
0.0
 10
189.9567144150055
 20
90.18692167025965
 30
0.0
 10
189.95863289736
 20
90.18828113896743
 30
0.0
 10
189.9602427432251
 20
90.18944929297135
 30
0.0
 10
189.9621510617112
 20
90.19081787632307
 30
0.0
 10
189.9744916768284
 20
90.19984859689558
 30
0.0
 10
190.0455641762394
 20
90.25126750219403
 30
0.0
 10
190.2055450385007
 20
90.36580219350407
 30
0.0
 10
190.3725584348201
 20
90.48274619484802
 30
0.0
 10
190.4515534436028
 20
90.53805907762766
 30
0.0
  0
SPLINE
  5
1D9
330
1F
100
AcDbEntity
  8
0
  6
Continuous
 62
     7
370
    25
100
AcDbSpline
210
0.0
220
0.0
230
1.0
 70
     8
 71
     3
 72
     9
 73
     5
 74
     0
 42
0.000000001
 43
0.00000001
 40
0.0
 40
0.0
 40
0.0
 40
0.0
 40
0.5094659871279394
 40
1.0
 40
1.0
 40
1.0
 40
1.0
 10
224.0837927704375
 20
88.06823445058585
 30
0.0
 10
224.0849870692231
 20
88.26104957414799
 30
0.0
 10
224.08733128614
 20
88.63951472870936
 30
0.0
 10
224.0725632700448
 20
89.01769646516756
 30
0.0
 10
224.0653190558475
 20
89.20320746994734
 30
0.0
  0
SPLINE
  5
1DA
330
1F
100
AcDbEntity
  8
0
  6
Continuous
 62
     7
370
    25
100
AcDbSpline
210
0.0
220
0.0
230
1.0
 70
     8
 71
     3
 72
    10
 73
     6
 74
     0
 42
0.000000001
 43
0.00000001
 40
0.0
 40
0.0
 40
0.0
 40
0.0
 40
0.0945227740023076
 40
0.4888666469245814
 40
1.0
 40
1.0
 40
1.0
 40
1.0
 10
223.8129967620295
 20
90.27907875872374
 30
0.0
 10
223.832926090327
 20
90.24998748007724
 30
0.0
 10
223.9359994925111
 20
90.0995289689218
 30
0.0
 10
224.0161902898872
 20
89.72487919281193
 30
0.0
 10
224.0475926945957
 20
89.39143408695233
 30
0.0
 10
224.0653190558475
 20
89.20320746994734
 30
0.0
  0
SPLINE
  5
1DB
330
1F
100
AcDbEntity
  8
0
  6
Continuous
 62
     7
370
    25
100
AcDbSpline
210
0.0
220
0.0
230
1.0
 70
     8
 71
     3
 72
    22
 73
    18
 74
     0
 42
0.000000001
 43
0.00000001
 40
0.0
 40
0.0
 40
0.0
 40
0.0
 40
0.1600675199489416
 40
0.3005972606095142
 40
0.4214875167908179
 40
0.5226531808942433
 40
0.6040804814482174
 40
0.6657471114677348
 40
0.6992273029533919
 40
0.7234271928803401
 40
0.746169901045754
 40
0.769977212586961
 40
0.7836356882902341
 40
0.8114337759184977
 40
0.8500602706738298
 40
0.9198273369949623
 40
1.0
 40
1.0
 40
1.0
 40
1.0
 10
224.0653209184926
 20
89.20320374465705
 30
0.0
 10
224.0594985858572
 20
89.30751437994633
 30
0.0
 10
224.0485645922456
 20
89.5034035349129
 30
0.0
 10
224.0543306682873
 20
89.82438395285509
 30
0.0
 10
224.0658002675118
 20
90.12628979583702
 30
0.0
 10
224.0749336833896
 20
90.39960289303147
 30
0.0
 10
224.0835369497972
 20
90.64539726382768
 30
0.0
 10
224.080228350689
 20
90.83937555685638
 30
0.0
 10
224.0799342274744
 20
91.00263952268126
 30
0.0
 10
224.0799350442888
 20
91.14875088749591
 30
0.0
 10
224.0766621469084
 20
91.37762892411826
 30
0.0
 10
224.0653965368521
 20
91.6352786285752
 30
0.0
 10
224.046466410631
 20
91.90309924867442
 30
0.0
 10
224.034726575075
 20
92.1282808139516
 30
0.0
 10
224.0318789836997
 20
92.4385028371932
 30
0.0
 10
224.0626504520822
 20
92.80226665770796
 30
0.0
 10
224.0740186926109
 20
93.01904798894118
 30
0.0
 10
224.0800972824615
 20
93.13496080733061
 30
0.0
  0
SPLINE
  5
1DC
330
1F
100
AcDbEntity
  8
0
  6
Continuous
 62
     7
370
    25
100
AcDbSpline
210
0.0
220
0.0
230
1.0
 70
     8
 71
     3
 72
    11
 73
     7
 74
     0
 42
0.000000001
 43
0.00000001
 40
0.0
 40
0.0
 40
0.0
 40
0.0
 40
0.0802432307711792
 40
0.4991673473435538
 40
0.909663575609128
 40
1.0
 40
1.0
 40
1.0
 40
1.0
 10
223.5189717059653
 20
93.02837652660132
 30
0.0
 10
223.5352186619024
 20
93.00338289456394
 30
0.0
 10
223.6362857527909
 20
92.84790554295842
 30
0.0
 10
223.7255568532515
 20
92.59492025234819
 30
0.0
 10
223.7909406552511
 20
92.35275807433777
 30
0.0
 10
223.7793568943785
 20
92.25227308613555
 30
0.0
 10
223.7772675027769
 20
92.23414836025954
 30
0.0
  0
SPLINE
  5
1DD
330
1F
100
AcDbEntity
  8
0
  6
Continuous
 62
     7
370
    25
100
AcDbSpline
210
0.0
220
0.0
230
1.0
 70
     8
 71
     3
 72
    17
 73
    13
 74
     0
 42
0.000000001
 43
0.00000001
 40
0.0
 40
0.0
 40
0.0
 40
0.0
 40
0.0713274245083374
 40
0.1572739131620038
 40
0.2467889510646503
 40
0.3397848804068317
 40
0.43959399485842
 40
0.5464988753787288
 40
0.6604582492826908
 40
0.7795162428086494
 40
0.901552933382474
 40
0.9999999999999999
 40
0.9999999999999999
 40
0.9999999999999999
 40
0.9999999999999999
 10
218.7836937403005
 20
95.68149009294034
 30
0.0
 10
218.9490158680478
 20
95.67855216253707
 30
0.0
 10
219.3135440722035
 20
95.67207415194994
 30
0.0
 10
219.8720082829827
 20
95.57679535417498
 30
0.0
 10
220.4485712368837
 20
95.41658232184255
 30
0.0
 10
221.0112398762316
 20
95.19041219736467
 30
0.0
 10
221.5556328225271
 20
94.90601172849392
 30
0.0
 10
222.0753901352581
 20
94.56670296969938
 30
0.0
 10
222.5566088175673
 20
94.18261991958437
 30
0.0
 10
222.9781110333455
 20
93.7713811830084
 30
0.0
 10
223.3107371395605
 20
93.37710022241826
 30
0.0
 10
223.4546941865142
 20
93.1360200102358
 30
0.0
 10
223.5189717059653
 20
93.02837652660132
 30
0.0
  0
LINE
  5
1DE
330
1F
100
AcDbEntity
  8
0
  6
Continuous
 62
     7
370
    25
100
AcDbLine
 10
203.0839746615
 20
95.6868600989
 30
0.0
 11
218.7839749997
 21
95.6868600989
 31
0.0
  0
SPLINE
  5
1DF
330
1F
100
AcDbEntity
  8
0
  6
Continuous
 62
     7
370
    25
100
AcDbSpline
210
0.0
220
0.0
230
1.0
 70
     8
 71
     3
 72
    17
 73
    13
 74
     0
 42
0.000000001
 43
0.00000001
 40
0.0
 40
0.0
 40
0.0
 40
0.0
 40
0.0986550424005051
 40
0.208468175987028
 40
0.3188575545906904
 40
0.4296428281618864
 40
0.5404922184692991
 40
0.6489176930616324
 40
0.7581825631378862
 40
0.8701223446945577
 40
0.984264720147775
 40
1.0
 40
1.0
 40
1.0
 40
1.0
 10
169.7688832675736
 20
123.8149839410853
 30
0.0
 10
169.4471472041514
 20
123.6880289457465
 30
0.0
 10
168.7672860570791
 20
123.4197600801442
 30
0.0
 10
167.6959254374009
 20
123.0071947358635
 30
0.0
 10
166.5727889908707
 20
122.5767078873116
 30
0.0
 10
165.4411616540714
 20
122.1428130200813
 30
0.0
 10
164.3228282214137
 20
121.7066935262606
 30
0.0
 10
163.2229233876579
 20
121.2786306069872
 30
0.0
 10
162.1409327620939
 20
120.8526108487393
 30
0.0
 10
161.0799067109543
 20
120.4131950609908
 30
0.0
 10
160.3315407325356
 20
120.0941440594332
 30
0.0
 10
159.9589612313582
 20
119.9124585343831
 30
0.0
 10
159.9138214980882
 20
119.8904464910102
 30
0.0
  0
SPLINE
  5
1E0
330
1F
100
AcDbEntity
  8
0
  6
Continuous
 62
     7
370
    25
100
AcDbSpline
210
0.0
220
0.0
230
1.0
 70
     8
 71
     3
 72
    20
 73
    16
 74
     0
 42
0.000000001
 43
0.00000001
 40
0.0
 40
0.0
 40
0.0
 40
0.0
 40
0.0841399247468899
 40
0.1689056070786098
 40
0.2530685184714653
 40
0.3362430498625293
 40
0.4181201562245023
 40
0.4984898177943799
 40
0.5776358916802922
 40
0.6581666721769548
 40
0.7395432561716555
 40
0.8213704683108896
 40
0.9031185858409786
 40
0.9842671377158966
 40
1.0
 40
1.0
 40
1.0
 40
1.0
 10
161.4675357734483
 20
96.8901018569541
 30
0.0
 10
161.8145913085339
 20
96.74801072739471
 30
0.0
 10
162.5112834676958
 20
96.46277172140661
 30
0.0
 10
163.5981759249921
 20
96.04242923791017
 30
0.0
 10
164.6998825771648
 20
95.62622155466158
 30
0.0
 10
165.8012713985714
 20
95.21614379999554
 30
0.0
 10
166.8863874304504
 20
94.81184476585051
 30
0.0
 10
167.9434398116966
 20
94.41312653066329
 30
0.0
 10
168.9726111904931
 20
94.01302738167269
 30
0.0
 10
169.9765775920641
 20
93.61072936019842
 30
0.0
 10
170.953085997531
 20
93.20723650795506
 30
0.0
 10
171.8898900257476
 20
92.8079553530399
 30
0.0
 10
172.7649611969182
 20
92.42107202954934
 30
0.0
 10
173.3758925568975
 20
92.1442245156647
 30
0.0
 10
173.6690231914313
 20
92.00397805360706
 30
0.0
 10
173.7166255509179
 20
91.98120301163912
 30
0.0
  0
SPLINE
  5
1E1
330
1F
100
AcDbEntity
  8
0
  6
Continuous
 62
     7
370
    25
100
AcDbSpline
210
0.0
220
0.0
230
1.0
 70
     8
 71
     3
 72
    12
 73
     8
 74
     0
 42
0.000000001
 43
0.00000001
 40
0.0
 40
0.0
 40
0.0
 40
0.0
 40
0.1775848141838745
 40
0.4216776086414779
 40
0.668404908793426
 40
0.9170093129633005
 40
1.0
 40
1.0
 40
1.0
 40
1.0
 10
173.7327821349423
 20
125.4735353360248
 30
0.0
 10
173.5231665447378
 20
125.3766063245634
 30
0.0
 10
173.0254314134001
 20
125.1464470401176
 30
0.0
 10
172.1660754339696
 20
124.7799731290877
 30
0.0
 10
171.1708081352319
 20
124.3738671756396
 30
0.0
 10
170.3634846585411
 20
124.0557670573938
 30
0.0
 10
169.8822090846091
 20
123.8730396924833
 30
0.0
 10
169.7617567872327
 20
123.8273072013927
 30
0.0
  0
SPLINE
  5
1E2
330
1F
100
AcDbEntity
  8
0
  6
Continuous
 62
     7
370
    25
100
AcDbSpline
210
0.0
220
0.0
230
1.0
 70
     8
 71
     3
 72
    27
 73
    23
 74
     0
 42
0.000000001
 43
0.00000001
 40
0.0
 40
0.0
 40
0.0
 40
0.0
 40
0.0083521947046185
 40
0.059354952436113
 40
0.1097243226441346
 40
0.1594432859048705
 40
0.2085985420350948
 40
0.2595288361208399
 40
0.3120771928780181
 40
0.366298980941425
 40
0.4221323468920798
 40
0.4793839408457919
 40
0.5379772405209822
 40
0.5953863974100184
 40
0.6510816550145124
 40
0.705456353732375
 40
0.7584108380306234
 40
0.8099718539086722
 40
0.8602767605342022
 40
0.9091281927805831
 40
0.9582250390615058
 40
1.0
 40
1.0
 40
1.0
 40
1.0
 10
159.1002739762586
 20
119.1956053445411
 30
0.0
 10
159.0553223012175
 20
119.1456963181945
 30
0.0
 10
158.7358727878444
 20
118.7910173398301
 30
0.0
 10
158.2231944454189
 20
118.0693795784662
 30
0.0
 10
157.5780066265191
 20
117.0394853082641
 30
0.0
 10
157.0430289579472
 20
115.9629509886341
 30
0.0
 10
156.5983160621887
 20
114.8422627081678
 30
0.0
 10
156.238866564847
 20
113.6673735776911
 30
0.0
 10
155.9633716421691
 20
112.428362976956
 30
0.0
 10
155.7768883006175
 20
111.133043789894
 30
0.0
 10
155.6836181095446
 20
109.7897915538028
 30
0.0
 10
155.6878886818947
 20
108.4082470874292
 30
0.0
 10
155.7905861938867
 20
107.0175920819673
 30
0.0
 10
156.0028664255778
 20
105.6518686803066
 30
0.0
 10
156.3168618984671
 20
104.3407992742722
 30
0.0
 10
156.727149536808
 20
103.0941931973025
 30
0.0
 10
157.2291458677746
 20
101.9175876250636
 30
0.0
 10
157.8171313181428
 20
100.8185297142619
 30
0.0
 10
158.4833842622389
 20
99.80395998053119
 30
0.0
 10
159.2285155547643
 20
98.87206972501146
 30
0.0
 10
159.9949188475643
 20
98.04776011873913
 30
0.0
 10
160.5463997664662
 20
97.56784198515601
 30
0.0
 10
160.7999227737706
 20
97.34721732831717
 30
0.0
  0
SPLINE
  5
1E3
330
1F
100
AcDbEntity
  8
0
  6
Continuous
 62
     7
370
    25
100
AcDbSpline
210
0.0
220
0.0
230
1.0
 70
     8
 71
     3
 72
    11
 73
     7
 74
     0
 42
0.000000001
 43
0.00000001
 40
0.0
 40
0.0
 40
0.0
 40
0.0
 40
0.1476405636597561
 40
0.4860147426476178
 40
0.8583343350984676
 40
1.0
 40
1.0
 40
1.0
 40
1.0
 10
159.9156394397538
 20
119.8653054381085
 30
0.0
 10
159.8683500376477
 20
119.8454963762905
 30
0.0
 10
159.7126790890626
 20
119.7802873589114
 30
0.0
 10
159.4674448238385
 20
119.5943724328498
 30
0.0
 10
159.2414766036816
 20
119.3865111761944
 30
0.0
 10
159.1234007499928
 20
119.2433672845778
 30
0.0
 10
159.0908564423841
 20
119.2039136732292
 30
0.0
  0
SPLINE
  5
1E4
330
1F
100
AcDbEntity
  8
0
  6
Continuous
 62
     7
370
    25
100
AcDbSpline
210
0.0
220
0.0
230
1.0
 70
     8
 71
     3
 72
    10
 73
     6
 74
     0
 42
0.000000001
 43
0.00000001
 40
0.0
 40
0.0
 40
0.0
 40
0.0
 40
0.0567625865636756
 40
0.6011215437216713
 40
1.0
 40
1.0
 40
1.0
 40
1.0
 10
160.7973821257871
 20
97.34445036894799
 30
0.0
 10
160.8083252812364
 20
97.33392324895479
 30
0.0
 10
160.9242144063646
 20
97.22243998146573
 30
0.0
 10
161.1492565907007
 20
97.06847036683608
 30
0.0
 10
161.3750477923433
 20
96.96818309263733
 30
0.0
 10
161.4705309068482
 20
96.92577337420703
 30
0.0
  0
SPLINE
  5
1E5
330
1F
100
AcDbEntity
  8
0
  6
Continuous
 62
     7
370
    25
100
AcDbSpline
210
0.0
220
0.0
230
1.0
 70
     8
 71
     3
 72
    18
 73
    14
 74
     0
 42
0.000000001
 43
0.00000001
 40
0.0
 40
0.0
 40
0.0
 40
0.0
 40
0.0314529249513067
 40
0.1053380403138501
 40
0.1966085796654752
 40
0.2913345027082465
 40
0.3887647332671487
 40
0.4885193256614428
 40
0.5899887723282756
 40
0.692330910559199
 40
0.7942286567542692
 40
0.9045151512313925
 40
0.9999999999999999
 40
0.9999999999999999
 40
0.9999999999999999
 40
0.9999999999999999
 10
178.2074276154559
 20
127.9932658145499
 30
0.0
 10
178.2055967832963
 20
127.9920297290168
 30
0.0
 10
178.1994651986463
 20
127.9878899923178
 30
0.0
 10
178.1416869286031
 20
127.9493136059319
 30
0.0
 10
177.9983040996594
 20
127.8553881564173
 30
0.0
 10
177.7577557938447
 20
127.7010541369297
 30
0.0
 10
177.4281332152746
 20
127.4943414940658
 30
0.0
 10
177.0096660960982
 20
127.2383454083451
 30
0.0
 10
176.5052770515057
 20
126.9381503977954
 30
0.0
 10
175.9193441567664
 20
126.5996471091191
 30
0.0
 10
175.2437609470658
 20
126.2228268493056
 30
0.0
 10
174.5254264533293
 20
125.8382659337712
 30
0.0
 10
173.9892849604823
 20
125.5788142905117
 30
0.0
 10
173.7404972111505
 20
125.4584199706388
 30
0.0
  0
SPLINE
  5
1E6
330
1F
100
AcDbEntity
  8
0
  6
Continuous
 62
     7
370
    25
100
AcDbSpline
210
0.0
220
0.0
230
1.0
 70
     8
 71
     3
 72
    21
 73
    17
 74
     0
 42
0.000000001
 43
0.00000001
 40
0.0
 40
0.0
 40
0.0
 40
0.0
 40
0.0213950013993808
 40
0.0562355171447314
 40
0.0831647106490625
 40
0.1015594058007015
 40
0.1087079759856576
 40
0.1120967243195296
 40
0.1146209993661621
 40
0.1179728838195803
 40
0.1245748254444184
 40
0.1428560068842959
 40
0.2163115594085693
 40
0.4678000212824543
 40
0.7323481863158057
 40
1.0
 40
1.0
 40
1.0
 40
1.0
 10
178.6307882314246
 20
128.1275830189061
 30
0.0
 10
178.6032403413315
 20
128.1274661681815
 30
0.0
 10
178.5308323140209
 20
128.1271590328463
 30
0.0
 10
178.4263004382476
 20
128.1004081939434
 30
0.0
 10
178.3298568154509
 20
128.0636624732489
 30
0.0
 10
178.2703431581713
 20
128.032648451199
 30
0.0
 10
178.2383399341703
 20
128.0133969203093
 30
0.0
 10
178.2270417403148
 20
128.0062324544339
 30
0.0
 10
178.2220328675611
 20
128.0030002097371
 30
0.0
 10
178.2181944139097
 20
128.0004876452475
 30
0.0
 10
178.2143487674725
 20
127.9979458861026
 30
0.0
 10
178.210807591282
 20
127.9955713861313
 30
0.0
 10
178.201557392316
 20
127.9893826885603
 30
0.0
 10
178.1430572865626
 20
127.9504070224664
 30
0.0
 10
177.9876998157498
 20
127.8484505728859
 30
0.0
 10
177.8125523714435
 20
127.7369100434218
 30
0.0
 10
177.7244679426473
 20
127.680814541347
 30
0.0
  0
LINE
  5
1E7
330
1F
100
AcDbEntity
  8
0
  6
Continuous
 62
     7
370
    25
100
AcDbLine
 10
173.9711560106
 20
125.5717134992
 30
0.0
 11
173.7390182709
 21
125.4584572235
 31
0.0
  0
ARC
  5
1E8
330
1F
100
AcDbEntity
  8
0
  6
Continuous
 62
     7
370
    25
100
AcDbCircle
 10
224.0839747559
 20
90.4322011272
 30
0.0
 40
0.3000000000000129
100
AcDbArc
 50
180.0
 51
209.591845794
  0
SPLINE
  5
1E9
330
1F
100
AcDbEntity
  8
0
  6
Continuous
 62
     7
370
    25
100
AcDbSpline
210
0.0
220
0.0
230
1.0
 70
     8
 71
     3
 72
    27
 73
    23
 74
     0
 42
0.000000001
 43
0.00000001
 40
0.0
 40
0.0
 40
0.0
 40
0.0
 40
0.0741233508683063
 40
0.1966978636610241
 40
0.3067246336851874
 40
0.4238912302060143
 40
0.5387742030663375
 40
0.6528409497529306
 40
0.7650748683476017
 40
0.8748600330140731
 40
0.9284713824939359
 40
0.9417917741007632
 40
0.9494553276788378
 40
0.9527703996024085
 40
0.9542125798579064
 40
0.9548231991652408
 40
0.955539206994218
 40
0.9573588126079734
 40
0.9623678339983489
 40
0.9733971910605328
 40
0.9886952612871377
 40
1.0
 40
1.0
 40
1.0
 40
1.0
 10
173.7264603173059
 20
92.02523594296694
 30
0.0
 10
173.8789159953103
 20
91.95084201040116
 30
0.0
 10
174.2834808971286
 20
91.75342611603566
 30
0.0
 10
174.8329203594548
 20
91.45915917483053
 30
0.0
 10
175.4013133261249
 20
91.1465234690427
 30
0.0
 10
175.8748326758069
 20
90.8770420637761
 30
0.0
 10
176.269688093702
 20
90.64593794867189
 30
0.0
 10
176.5719470701164
 20
90.46421481845604
 30
0.0
 10
176.7804430947539
 20
90.33575917045897
 30
0.0
 10
176.875331981774
 20
90.27590317685689
 30
0.0
 10
176.8980609021095
 20
90.26137415678667
 30
0.0
 10
176.9014096364594
 20
90.25922916656438
 30
0.0
 10
176.9022848984848
 20
90.25866960374786
 30
0.0
 10
176.9035716112154
 20
90.25784661750994
 30
0.0
 10
176.9062103889052
 20
90.25616455346128
 30
0.0
 10
176.9102143774145
 20
90.25364703643704
 30
0.0
 10
176.9174096426011
 20
90.24918304481513
 30
0.0
 10
176.9377996959088
 20
90.2369140932603
 30
0.0
 10
176.9864024925237
 20
90.21023801557044
 30
0.0
 10
177.0766720332712
 20
90.17198889014033
 30
0.0
 10
177.190728638104
 20
90.13867912337531
 30
0.0
 10
177.2740569172535
 20
90.13851374063857
 30
0.0
 10
177.3094668781083
 20
90.13844346202136
 30
0.0
  0
SPLINE
  5
1EA
330
1F
100
AcDbEntity
  8
0
  6
Continuous
 62
     7
370
    25
100
AcDbSpline
210
0.0
220
0.0
230
1.0
 70
     8
 71
     3
 72
     9
 73
     5
 74
     0
 42
0.000000001
 43
0.00000001
 40
0.0
 40
0.0
 40
0.0
 40
0.0
 40
0.2203285933006566
 40
1.0
 40
1.0
 40
1.0
 40
1.0
 10
176.8915414606851
 20
90.26552056468249
 30
0.0
 10
176.8933235738208
 20
90.26439454798766
 30
0.0
 10
176.9014120071425
 20
90.25928392354284
 30
0.0
 10
176.9005106456444
 20
90.25983577776152
 30
0.0
 10
176.8998078798573
 20
90.26026604271651
 30
0.0
  0
LINE
  5
1EB
330
1F
100
AcDbEntity
  8
0
  6
Continuous
 62
     7
370
    25
100
AcDbLine
 10
218.6785753613
 20
86.7942019323
 30
0.0
 11
218.6785753613
 21
95.632200777
 31
0.0
  0
LINE
  5
1EC
330
1F
100
AcDbEntity
  8
0
  6
Continuous
 62
     7
370
    25
100
AcDbLine
 10
197.7235752886
 20
94.6054791058
 30
0.0
 11
197.7235752886
 21
86.7942019323
 31
0.0
  0
LINE
  5
1ED
330
1F
100
AcDbEntity
  8
0
  6
Continuous
 62
     7
370
    25
100
AcDbLine
 10
197.7235752886
 20
86.7942019323
 30
0.0
 11
198.8855752891
 21
85.6322019318
 31
0.0
  0
LINE
  5
1EE
330
1F
100
AcDbEntity
  8
0
  6
Continuous
 62
     7
370
    25
100
AcDbLine
 10
217.5165753608
 20
85.6322019318
 30
0.0
 11
218.6785753613
 21
86.7942019323
 31
0.0
  0
LINE
  5
1EF
330
1F
100
AcDbEntity
  8
0
  6
Continuous
 62
     7
370
    25
100
AcDbLine
 10
218.6785753613
 20
95.632200777
 30
0.0
 11
218.6785753613
 21
95.6868600989
 31
0.0
  0
LINE
  5
1F0
330
1F
100
AcDbEntity
  8
0
  6
Continuous
 62
     7
370
    25
100
AcDbLine
 10
240.4390744662
 20
98.6547010908
 30
0.0
 11
241.6010744666
 21
99.8167010913
 31
0.0
  0
LINE
  5
1F1
330
1F
100
AcDbEntity
  8
0
  6
Continuous
 62
     7
370
    25
100
AcDbLine
 10
241.6010744666
 20
118.4477011631
 30
0.0
 11
240.4390744662
 21
119.6097011635
 31
0.0
  0
LINE
  5
1F2
330
1F
100
AcDbEntity
  8
0
  6
Continuous
 62
     7
370
    25
100
AcDbLine
 10
240.4390744662
 20
119.6097011635
 30
0.0
 11
230.5839754438
 21
119.6097011635
 31
0.0
  0
LINE
  5
1F3
330
1F
100
AcDbEntity
  8
0
  6
Continuous
 62
     7
370
    25
100
AcDbLine
 10
230.5839754438
 20
98.6547010908
 30
0.0
 11
240.4390744662
 21
98.6547010908
 31
0.0
  0
LINE
  5
1F4
330
1F
100
AcDbEntity
  8
0
  6
Continuous
 62
     7
370
    25
100
AcDbLine
 10
230.5839754438
 20
82.7322012702
 30
0.0
 11
230.5839754438
 21
135.5322009841
 31
0.0
  0
LINE
  5
1F5
330
1F
100
AcDbEntity
  8
0
  6
Continuous
 62
     7
370
    25
100
AcDbLine
 10
230.0839744305
 20
109.1322011272
 30
0.0
 11
230.0839744305
 21
81.9322007666
 31
0.0
  0
LINE
  5
1F6
330
1F
100
AcDbEntity
  8
0
  6
Continuous
 62
     7
370
    25
100
AcDbLine
 10
230.0839744305
 20
136.3322014878
 30
0.0
 11
230.0839744305
 21
109.1322011272
 31
0.0
  0
LINE
  5
1F7
330
1F
100
AcDbEntity
  8
0
  6
Continuous
 62
     7
370
    25
100
AcDbLine
 10
224.0839753097
 20
109.1322011272
 30
0.0
 11
224.0839753097
 21
135.8322004745
 31
0.0
  0
LINE
  5
1F8
330
1F
100
AcDbEntity
  8
0
  6
Continuous
 62
     7
370
    25
100
AcDbLine
 10
224.0839753097
 20
82.4322017798
 30
0.0
 11
224.0839753097
 21
109.1322011272
 31
0.0
  0
SPLINE
  5
1F9
330
1F
100
AcDbEntity
  8
0
  6
Continuous
 62
     7
370
    25
100
AcDbSpline
210
0.0
220
0.0
230
1.0
 70
     8
 71
     3
 72
    11
 73
     7
 74
     0
 42
0.000000001
 43
0.00000001
 40
0.0
 40
0.0
 40
0.0
 40
0.0
 40
0.2265981101286026
 40
0.4684433358249466
 40
0.7251539570913069
 40
1.0
 40
1.0
 40
1.0
 40
1.0
 10
223.8231053372543
 20
92.09593077696086
 30
0.0
 10
223.8017824650138
 20
92.27478511720318
 30
0.0
 10
223.7577019676255
 20
92.64452837641367
 30
0.0
 10
223.4105831282856
 20
93.2640517373014
 30
0.0
 10
222.8800120553107
 20
93.93808235637097
 30
0.0
 10
222.3552881083068
 20
94.43158365240153
 30
0.0
 10
222.0839749818366
 20
94.68675283289672
 30
0.0
  0
SPLINE
  5
1FA
330
1F
100
AcDbEntity
  8
0
  6
Continuous
 62
     7
370
    25
100
AcDbSpline
210
0.0
220
0.0
230
1.0
 70
     8
 71
     3
 72
    11
 73
     7
 74
     0
 42
0.000000001
 43
0.00000001
 40
0.0
 40
0.0
 40
0.0
 40
0.0
 40
0.0038471977436091
 40
0.4638229067895928
 40
0.933425599536674
 40
1.0
 40
1.0
 40
1.0
 40
1.0
 10
169.7669647430699
 20
123.8192708188963
 30
0.0
 10
169.767110904556
 20
123.819471008971
 30
0.0
 10
169.7847323136609
 20
123.8436061713767
 30
0.0
 10
169.8523650349633
 20
123.8143361141575
 30
0.0
 10
169.9295445407491
 20
123.7510833634632
 30
0.0
 10
169.97497984536
 20
123.6959401923175
 30
0.0
 10
169.9806213175576
 20
123.6890933433843
 30
0.0
  0
LINE
  5
1FB
330
1F
100
AcDbEntity
  8
0
  6
Continuous
 62
     7
370
    25
100
AcDbLine
 10
159.9212161993
 20
119.8770391712
 30
0.0
 11
159.9118247425
 21
119.8729385579
 31
0.0
  0
LINE
  5
1FC
330
1F
100
AcDbEntity
  8
0
  6
Continuous
 62
     7
370
    25
100
AcDbLine
 10
161.4788047766
 20
96.91569367
 30
0.0
 11
161.4681578969
 21
96.9195605213
 31
0.0
  0
LINE
  5
1FD
330
1F
100
AcDbEntity
  8
0
  6
Continuous
 62
     7
370
    25
100
AcDbLine
 10
223.783974888
 20
90.4322012285
 30
0.0
 11
223.783974888
 21
92.2298344741
 31
0.0
  0
LINE
  5
1FE
330
1F
100
AcDbEntity
  8
0
  6
Continuous
 62
     7
370
    25
100
AcDbLine
 10
241.6010744666
 20
118.4477011631
 30
0.0
 11
241.6010744666
 21
99.8167010913
 31
0.0
  0
LINE
  5
1FF
330
1F
100
AcDbEntity
  8
0
  6
Continuous
 62
     7
370
    25
100
AcDbLine
 10
217.5165753608
 20
85.6322019318
 30
0.0
 11
198.8855752891
 21
85.6322019318
 31
0.0
  0
LINE
  5
200
330
1F
100
AcDbEntity
  8
0
  6
Continuous
 62
     7
370
    25
100
AcDbLine
 10
218.6785753613
 20
86.7942019323
 30
0.0
 11
197.7235752886
 21
86.7942019323
 31
0.0
  0
LINE
  5
201
330
1F
100
AcDbEntity
  8
0
  6
Continuous
 62
     7
370
    25
100
AcDbLine
 10
218.6785753613
 20
95.632200777
 30
0.0
 11
202.0131045749
 21
95.632200777
 31
0.0
  0
LINE
  5
202
330
1F
100
AcDbEntity
  8
0
  6
Continuous
 62
     7
370
    25
100
AcDbLine
 10
241.6010744666
 20
109.1322011272
 30
0.0
 11
241.6010744666
 21
118.4477011631
 31
0.0
  0
LINE
  5
203
330
1F
100
AcDbEntity
  8
0
  6
Continuous
 62
     7
370
    25
100
AcDbLine
 10
241.6010744666
 20
99.8167010913
 30
0.0
 11
241.6010744666
 21
109.1322011272
 31
0.0
  0
LINE
  5
204
330
1F
100
AcDbEntity
  8
0
  6
Continuous
 62
     7
370
    25
100
AcDbLine
 10
240.4390744662
 20
109.1322011272
 30
0.0
 11
240.4390744662
 21
119.6097011635
 31
0.0
  0
LINE
  5
205
330
1F
100
AcDbEntity
  8
0
  6
Continuous
 62
     7
370
    25
100
AcDbLine
 10
240.4390744662
 20
98.6547010908
 30
0.0
 11
240.4390744662
 21
109.1322011272
 31
0.0
  0
LINE
  5
206
330
1F
100
AcDbEntity
  8
0
  6
Continuous
 62
     8
370
    18
100
AcDbLine
 10
229.7839749401
 20
109.1322011272
 30
0.0
 11
229.7839749401
 21
136.6322009782
 31
0.0
  0
LINE
  5
207
330
1F
100
AcDbEntity
  8
0
  6
Continuous
 62
     8
370
    18
100
AcDbLine
 10
229.7839749401
 20
81.6322012762
 30
0.0
 11
229.7839749401
 21
109.1322011272
 31
0.0
  0
LINE
  5
208
330
1F
100
AcDbEntity
  8
0
  6
Continuous
 62
     8
370
    18
100
AcDbLine
 10
224.8839739507
 20
109.1322011272
 30
0.0
 11
224.8839739507
 21
81.6322012762
 31
0.0
  0
LINE
  5
209
330
1F
100
AcDbEntity
  8
0
  6
Continuous
 62
     8
370
    18
100
AcDbLine
 10
224.8839739507
 20
136.6322009782
 30
0.0
 11
224.8839739507
 21
109.1322011272
 31
0.0
  0
LINE
  5
20A
330
1F
100
AcDbEntity
  8
0
  6
Continuous
 62
     8
370
    18
100
AcDbLine
 10
222.0839749818
 20
94.6867528329
 30
0.0
 11
222.0839749818
 21
128.1322005162
 31
0.0
  0
SPLINE
  5
20B
330
1F
100
AcDbEntity
  8
0
  6
Continuous
 62
     8
370
    18
100
AcDbSpline
210
0.0
220
0.0
230
1.0
 70
     8
 71
     3
 72
    11
 73
     7
 74
     0
 42
0.000000001
 43
0.00000001
 40
0.0
 40
0.0
 40
0.0
 40
0.0
 40
0.2500000684645362
 40
0.5000000937704641
 40
0.7500001246383762
 40
1.0
 40
1.0
 40
1.0
 40
1.0
 10
224.0839753096622
 20
93.16617874003173
 30
0.0
 10
224.0539119617838
 20
93.36543039623258
 30
0.0
 10
223.993785271217
 20
93.76393367423663
 30
0.0
 10
223.5312869395646
 20
94.26655114445455
 30
0.0
 10
222.8701969733878
 20
94.61818323109695
 30
0.0
 10
222.3460489246814
 20
94.66389630370257
 30
0.0
 10
222.0839749818366
 20
94.68675283289672
 30
0.0
  0
LINE
  5
20C
330
1F
100
AcDbEntity
  8
0
  6
Continuous
 62
     8
370
    18
100
AcDbLine
 10
203.0839746615
 20
95.7759718368
 30
0.0
 11
218.7839749997
 21
95.7759718368
 31
0.0
  0
SPLINE
  5
20D
330
1F
100
AcDbEntity
  8
0
  6
Continuous
 62
     8
370
    18
100
AcDbSpline
210
0.0
220
0.0
230
1.0
 70
     8
 71
     3
 72
    19
 73
    15
 74
     0
 42
0.000000001
 43
0.00000001
 40
0.0
 40
0.0
 40
0.0
 40
0.0
 40
0.0537068988558246
 40
0.142684023381193
 40
0.2270321390118303
 40
0.3133494387483741
 40
0.4070073726179742
 40
0.502611886227659
 40
0.6127749342926011
 40
0.7257437257826788
 40
0.8104912158192021
 40
0.8973574818289443
 40
0.9483187250457081
 40
1.0
 40
1.0
 40
1.0
 40
1.0
 10
189.8147728090804
 20
90.1544417212081
 30
0.0
 10
189.8125155336361
 20
90.15282017055065
 30
0.0
 10
189.8065185919184
 20
90.14851216958893
 30
0.0
 10
190.0956857396208
 20
90.35698708950973
 30
0.0
 10
190.6298107858554
 20
90.73546654216219
 30
0.0
 10
191.4068374732658
 20
91.27154809693825
 30
0.0
 10
192.4298366633547
 20
91.94802699247285
 30
0.0
 10
193.758497767967
 20
92.77120633999593
 30
0.0
 10
195.3978879937076
 20
93.68821348694857
 30
0.0
 10
197.2023565505201
 20
94.53376453496394
 30
0.0
 10
199.0413012473254
 20
95.19291883635363
 30
0.0
 10
200.5884648128552
 20
95.56296773985964
 30
0.0
 10
201.9545009923327
 20
95.7471030783814
 30
0.0
 10
202.7057268354736
 20
95.76630401947952
 30
0.0
 10
203.0839746614616
 20
95.7759718368125
 30
0.0
  0
SPLINE
  5
20E
330
1F
100
AcDbEntity
  8
0
  6
Continuous
 62
     8
370
    18
100
AcDbSpline
210
0.0
220
0.0
230
1.0
 70
     8
 71
     3
 72
    12
 73
     8
 74
     0
 42
0.000000001
 43
0.00000001
 40
0.0
 40
0.0
 40
0.0
 40
0.0
 40
0.1899619263956025
 40
0.3871130058066394
 40
0.5775270032291294
 40
0.7724250804349047
 40
1.0
 40
1.0
 40
1.0
 40
1.0
 10
218.783974999718
 20
95.7759718368125
 30
0.0
 10
219.0229063314981
 20
95.76623384043215
 30
0.0
 10
219.5098114065402
 20
95.74638931094742
 30
0.0
 10
220.20905873109
 20
95.59255678171309
 30
0.0
 10
220.8653880535366
 20
95.3652118817387
 30
0.0
 10
221.5018375526932
 20
95.06413119865256
 30
0.0
 10
221.8801748075974
 20
94.81886901860278
 30
0.0
 10
222.0839749818366
 20
94.68675283289672
 30
0.0
  0
LINE
  5
20F
330
1F
100
AcDbEntity
  8
0
  6
Continuous
 62
     8
370
    18
100
AcDbLine
 10
174.0839764272
 20
125.4255312452
 30
0.0
 11
174.0839764272
 21
92.0203148345
 31
0.0
  0
SPLINE
  5
210
330
1F
100
AcDbEntity
  8
0
  6
Continuous
 62
     8
370
    18
100
AcDbSpline
210
0.0
220
0.0
230
1.0
 70
     8
 71
     3
 72
    14
 73
    10
 74
     0
 42
0.000000001
 43
0.00000001
 40
0.0
 40
0.0
 40
0.0
 40
0.0
 40
0.135937573430869
 40
0.2854000616700429
 40
0.4385844628678084
 40
0.5955655882853378
 40
0.7558388945420857
 40
0.877312851060331
 40
1.0
 40
1.0
 40
1.0
 40
1.0
 10
178.631117919616
 20
128.1141216824126
 30
0.0
 10
178.6236222659123
 20
128.1090257475798
 30
0.0
 10
178.6078851891402
 20
128.0983268651527
 30
0.0
 10
178.2681561305883
 20
127.8705443105891
 30
0.0
 10
177.7197489845177
 20
127.5109840383959
 30
0.0
 10
176.939795417915
 20
127.0165390019904
 30
0.0
 10
176.0330348061964
 20
126.4728945513554
 30
0.0
 10
175.0736027636905
 20
125.9306108129565
 30
0.0
 10
174.4149427935278
 20
125.5944478787736
 30
0.0
 10
174.0839764272492
 20
125.4255312452388
 30
0.0
  0
SPLINE
  5
211
330
1F
100
AcDbEntity
  8
0
  6
Continuous
 62
     8
370
    18
100
AcDbSpline
210
0.0
220
0.0
230
1.0
 70
     8
 71
     3
 72
    12
 73
     8
 74
     0
 42
0.000000001
 43
0.00000001
 40
0.0
 40
0.0
 40
0.0
 40
0.0
 40
0.2098888225720957
 40
0.4251446789909513
 40
0.6373646861858878
 40
0.8568422201177212
 40
1.0
 40
1.0
 40
1.0
 40
1.0
 10
174.0839764272492
 20
92.02031483448268
 30
0.0
 10
174.487334116509
 20
91.80734689795422
 30
0.0
 10
175.3043636906301
 20
91.37596525551517
 30
0.0
 10
176.2400409003324
 20
90.81917591195581
 30
0.0
 10
176.9247660974432
 20
90.3954167921894
 30
0.0
 10
177.2931461549836
 20
90.15854154008788
 30
0.0
 10
177.3051533396915
 20
90.15077981203238
 30
0.0
 10
177.3098934238475
 20
90.14771570957423
 30
0.0
  0
LINE
  5
212
330
1F
100
AcDbEntity
  8
0
  6
Continuous
 62
     8
370
    18
100
AcDbLine
 10
218.7825286558
 20
128.0276576946
 30
0.0
 11
218.7825286558
 21
128.0544723342
 31
0.0
  0
SPLINE
  5
213
330
1F
100
AcDbEntity
  8
0
  6
Continuous
 62
     8
370
    18
100
AcDbSpline
210
0.0
220
0.0
230
1.0
 70
     8
 71
     3
 72
    12
 73
     8
 74
     0
 42
0.000000001
 43
0.00000001
 40
0.0
 40
0.0
 40
0.0
 40
0.0
 40
0.2919102931143973
 40
0.5012340223698454
 40
0.7113654718151556
 40
0.9071963785314562
 40
1.0
 40
1.0
 40
1.0
 40
1.0
 10
218.2767879014533
 20
127.9797020325732
 30
0.0
 10
218.3479087938315
 20
127.9803531917995
 30
0.0
 10
218.470029225355
 20
127.9814712858368
 30
0.0
 10
218.6260960224201
 20
127.9916957814978
 30
0.0
 10
218.7271143963448
 20
128.0050719584924
 30
0.0
 10
218.7757317505133
 20
128.0179027485803
 30
0.0
 10
218.7808749737086
 20
128.0252843233918
 30
0.0
 10
218.7825286557596
 20
128.0276576945853
 30
0.0
  0
LINE
  5
214
330
1F
100
AcDbEntity
  8
0
  6
Continuous
 62
     8
370
    18
100
AcDbLine
 10
218.177569451
 20
127.9797020326
 30
0.0
 11
218.2767879015
 21
127.9797020326
 31
0.0
  0
LINE
  5
215
330
1F
100
AcDbEntity
  8
0
  6
Continuous
 62
     8
370
    18
100
AcDbLine
 10
218.177569451
 20
127.9358888934
 30
0.0
 11
218.177569451
 21
127.9797020326
 31
0.0
  0
LINE
  5
216
330
1F
100
AcDbEntity
  8
0
  6
Continuous
 62
     8
370
    18
100
AcDbLine
 10
219.0839744901
 20
127.9358888934
 30
0.0
 11
218.177569451
 21
127.9358888934
 31
0.0
  0
LINE
  5
217
330
1F
100
AcDbEntity
  8
0
  6
Continuous
 62
     8
370
    18
100
AcDbLine
 10
219.0839744901
 20
128.131934158
 30
0.0
 11
219.0839744901
 21
127.9358888934
 31
0.0
  0
LINE
  5
218
330
1F
100
AcDbEntity
  8
0
  6
Continuous
 62
     8
370
    18
100
AcDbLine
 10
218.177569451
 20
128.131934158
 30
0.0
 11
219.0839744901
 21
128.131934158
 31
0.0
  0
LINE
  5
219
330
1F
100
AcDbEntity
  8
0
  6
Continuous
 62
     8
370
    18
100
AcDbLine
 10
218.177569451
 20
128.1275103757
 30
0.0
 11
218.177569451
 21
128.131934158
 31
0.0
  0
LINE
  5
21A
330
1F
100
AcDbEntity
  8
0
  6
Continuous
 62
     8
370
    18
100
AcDbLine
 10
218.2767879015
 20
128.1275103757
 30
0.0
 11
218.177569451
 21
128.1275103757
 31
0.0
  0
SPLINE
  5
21B
330
1F
100
AcDbEntity
  8
0
  6
Continuous
 62
     8
370
    18
100
AcDbSpline
210
0.0
220
0.0
230
1.0
 70
     8
 71
     3
 72
    12
 73
     8
 74
     0
 42
0.000000001
 43
0.00000001
 40
0.0
 40
0.0
 40
0.0
 40
0.0
 40
0.1759288238165616
 40
0.3504885549686524
 40
0.5462005291372847
 40
0.7437555593385792
 40
1.0
 40
1.0
 40
1.0
 40
1.0
 10
218.7825286557596
 20
128.1138478735757
 30
0.0
 10
218.7770781327247
 20
128.1156289447008
 30
0.0
 10
218.7662195030762
 20
128.1191772265082
 30
0.0
 10
218.6976633752913
 20
128.1230753347555
 30
0.0
 10
218.595147204904
 20
128.1257280463683
 30
0.0
 10
218.4489667099315
 20
128.1272780512766
 30
0.0
 10
218.338924709834
 20
128.1274265332497
 30
0.0
 10
218.2767879014533
 20
128.1275103757453
 30
0.0
  0
LINE
  5
21C
330
1F
100
AcDbEntity
  8
0
  6
Continuous
 62
     8
370
    18
100
AcDbLine
 10
218.7825286558
 20
128.0997588257
 30
0.0
 11
218.7825286558
 21
128.1138478736
 31
0.0
  0
LINE
  5
21D
330
1F
100
AcDbEntity
  8
0
  6
Continuous
 62
     8
370
    18
100
AcDbLine
 10
217.1278478374
 20
128.0997588257
 30
0.0
 11
218.7825286558
 21
128.0997588257
 31
0.0
  0
SPLINE
  5
21E
330
1F
100
AcDbEntity
  8
0
  6
Continuous
 62
     8
370
    18
100
AcDbSpline
210
0.0
220
0.0
230
1.0
 70
     8
 71
     3
 72
    12
 73
     8
 74
     0
 42
0.000000001
 43
0.00000001
 40
0.0
 40
0.0
 40
0.0
 40
0.0
 40
0.2156837227909611
 40
0.4315086189346163
 40
0.6453606851413947
 40
0.8601041875461974
 40
1.0
 40
1.0
 40
1.0
 40
1.0
 10
216.9662736152928
 20
128.1085411975455
 30
0.0
 10
216.9680254123644
 20
128.1076125015104
 30
0.0
 10
216.9715301531266
 20
128.1057545015726
 30
0.0
 10
216.9995188402033
 20
128.1031069278977
 30
0.0
 10
217.0406391654901
 20
128.1010372717365
 30
0.0
 10
217.0860377290529
 20
128.0999170747482
 30
0.0
 10
217.1160204489322
 20
128.099803591716
 30
0.0
 10
217.1278478374403
 20
128.0997588256669
 30
0.0
  0
LINE
  5
21F
330
1F
100
AcDbEntity
  8
0
  6
Continuous
 62
     8
370
    18
100
AcDbLine
 10
216.9662736153
 20
128.1225184867
 30
0.0
 11
216.9662736153
 21
128.1085411975
 31
0.0
  0
LINE
  5
220
330
1F
100
AcDbEntity
  8
0
  6
Continuous
 62
     8
370
    18
100
AcDbLine
 10
216.6644822603
 20
128.1225184867
 30
0.0
 11
216.9662736153
 21
128.1225184867
 31
0.0
  0
LINE
  5
221
330
1F
100
AcDbEntity
  8
0
  6
Continuous
 62
     8
370
    18
100
AcDbLine
 10
216.6644822603
 20
128.0020779888
 30
0.0
 11
216.6644822603
 21
128.1225184867
 31
0.0
  0
LINE
  5
222
330
1F
100
AcDbEntity
  8
0
  6
Continuous
 62
     8
370
    18
100
AcDbLine
 10
216.9662736153
 20
128.0020779888
 30
0.0
 11
216.6644822603
 21
128.0020779888
 31
0.0
  0
LINE
  5
223
330
1F
100
AcDbEntity
  8
0
  6
Continuous
 62
     8
370
    18
100
AcDbLine
 10
216.9662736153
 20
128.0392880509
 30
0.0
 11
216.9662736153
 21
128.0020779888
 31
0.0
  0
SPLINE
  5
224
330
1F
100
AcDbEntity
  8
0
  6
Continuous
 62
     8
370
    18
100
AcDbSpline
210
0.0
220
0.0
230
1.0
 70
     8
 71
     3
 72
    12
 73
     8
 74
     0
 42
0.000000001
 43
0.00000001
 40
0.0
 40
0.0
 40
0.0
 40
0.0
 40
0.2155905955257152
 40
0.4312133412980057
 40
0.6471394675580133
 40
0.863543703207273
 40
1.0
 40
1.0
 40
1.0
 40
1.0
 10
217.1278478374403
 20
128.0544723341536
 30
0.0
 10
217.1096640689958
 20
128.0543131360638
 30
0.0
 10
217.0732938204272
 20
128.0539947161435
 30
0.0
 10
217.0248287373003
 20
128.0514525302256
 30
0.0
 10
216.9881018564724
 20
128.0476368423777
 30
0.0
 10
216.968883877967
 20
128.0433272129775
 30
0.0
 10
216.9670015419794
 20
128.040414456258
 30
0.0
 10
216.9662736152928
 20
128.0392880508971
 30
0.0
  0
LINE
  5
225
330
1F
100
AcDbEntity
  8
0
  6
Continuous
 62
     8
370
    18
100
AcDbLine
 10
218.7825286558
 20
128.0544723342
 30
0.0
 11
217.1278478374
 21
128.0544723342
 31
0.0
  0
SPLINE
  5
226
330
1F
100
AcDbEntity
  8
0
  6
Continuous
 62
     8
370
    18
100
AcDbSpline
210
0.0
220
0.0
230
1.0
 70
     8
 71
     3
 72
    10
 73
     6
 74
     0
 42
0.000000001
 43
0.00000001
 40
0.0
 40
0.0
 40
0.0
 40
0.0
 40
0.2676971310680363
 40
0.7303146752533185
 40
1.0
 40
1.0
 40
1.0
 40
1.0
 10
218.8641777058762
 20
127.8343225786758
 30
0.0
 10
218.9199464425258
 20
127.8201699729288
 30
0.0
 10
219.0720912437535
 20
127.7815597135329
 30
0.0
 10
219.1703711926224
 20
127.7104945157619
 30
0.0
 10
219.1815048659418
 20
127.651707110561
 30
0.0
 10
219.1856050660532
 20
127.6300574610305
 30
0.0
  0
SPLINE
  5
227
330
1F
100
AcDbEntity
  8
0
  6
Continuous
 62
     8
370
    18
100
AcDbSpline
210
0.0
220
0.0
230
1.0
 70
     8
 71
     3
 72
    10
 73
     6
 74
     0
 42
0.000000001
 43
0.00000001
 40
0.0
 40
0.0
 40
0.0
 40
0.0
 40
0.2730228673182411
 40
0.6571091704517973
 40
1.0
 40
1.0
 40
1.0
 40
1.0
 10
217.9453702440184
 20
127.9053172985387
 30
0.0
 10
218.0403119173639
 20
127.9042582760206
 30
0.0
 10
218.2688167485753
 20
127.9017094294159
 30
0.0
 10
218.5998394893766
 20
127.8798290439771
 30
0.0
 10
218.7794577651576
 20
127.8489073220159
 30
0.0
 10
218.8641777058762
 20
127.8343225786758
 30
0.0
  0
LINE
  5
228
330
1F
100
AcDbEntity
  8
0
  6
Continuous
 62
     8
370
    18
100
AcDbLine
 10
217.876468206
 20
127.9053172985
 30
0.0
 11
217.945370244
 21
127.9053172985
 31
0.0
  0
LINE
  5
229
330
1F
100
AcDbEntity
  8
0
  6
Continuous
 62
     8
370
    18
100
AcDbLine
 10
217.8041212057
 20
127.9053172985
 30
0.0
 11
217.876468206
 21
127.9053172985
 31
0.0
  0
SPLINE
  5
22A
330
1F
100
AcDbEntity
  8
0
  6
Continuous
 62
     8
370
    18
100
AcDbSpline
210
0.0
220
0.0
230
1.0
 70
     8
 71
     3
 72
    10
 73
     6
 74
     0
 42
0.000000001
 43
0.00000001
 40
0.0
 40
0.0
 40
0.0
 40
0.0
 40
0.2721420577258283
 40
0.6594988762199329
 40
1.0
 40
1.0
 40
1.0
 40
1.0
 10
216.8853137438815
 20
127.8343225786758
 30
0.0
 10
216.9512597490977
 20
127.8461092546503
 30
0.0
 10
217.1110708297323
 20
127.8746726440232
 30
0.0
 10
217.4321206990198
 20
127.9002065488367
 30
0.0
 10
217.6855593901387
 20
127.9036884304248
 30
0.0
 10
217.8041212057393
 20
127.9053172985387
 30
0.0
  0
SPLINE
  5
22B
330
1F
100
AcDbEntity
  8
0
  6
Continuous
 62
     8
370
    18
100
AcDbSpline
210
0.0
220
0.0
230
1.0
 70
     8
 71
     3
 72
    10
 73
     6
 74
     0
 42
0.000000001
 43
0.00000001
 40
0.0
 40
0.0
 40
0.0
 40
0.0
 40
0.2667788788061441
 40
0.5317280256519179
 40
1.0
 40
1.0
 40
1.0
 40
1.0
 10
216.5656083991449
 20
127.6300574610305
 30
0.0
 10
216.5696079861868
 20
127.6514707795416
 30
0.0
 10
216.5775797286677
 20
127.6941505509894
 30
0.0
 10
216.6528245027799
 20
127.7672699308868
 30
0.0
 10
216.7947029893551
 20
127.8081893650252
 30
0.0
 10
216.8853137438815
 20
127.8343225786758
 30
0.0
  0
SPLINE
  5
22C
330
1F
100
AcDbEntity
  8
0
  6
Continuous
 62
     8
370
    18
100
AcDbSpline
210
0.0
220
0.0
230
1.0
 70
     8
 71
     3
 72
    10
 73
     6
 74
     0
 42
0.000000001
 43
0.00000001
 40
0.0
 40
0.0
 40
0.0
 40
0.0
 40
0.2647661224236926
 40
0.742062058419744
 40
1.0
 40
1.0
 40
1.0
 40
1.0
 10
216.8853137438815
 20
127.3698608348441
 30
0.0
 10
216.8306866269797
 20
127.3918541947595
 30
0.0
 10
216.6775827840762
 20
127.4534951546414
 30
0.0
 10
216.5804965552551
 20
127.5463462422445
 30
0.0
 10
216.5694750214825
 20
127.6083167118023
 30
0.0
 10
216.5656083991449
 20
127.6300574610305
 30
0.0
  0
SPLINE
  5
22D
330
1F
100
AcDbEntity
  8
0
  6
Continuous
 62
     8
370
    18
100
AcDbSpline
210
0.0
220
0.0
230
1.0
 70
     8
 71
     3
 72
    10
 73
     6
 74
     0
 42
0.000000001
 43
0.00000001
 40
0.0
 40
0.0
 40
0.0
 40
0.0
 40
0.2705931250676273
 40
0.6476225648502407
 40
1.0
 40
1.0
 40
1.0
 40
1.0
 10
217.8041212057393
 20
127.2409043232274
 30
0.0
 10
217.7094490775817
 20
127.2430461946048
 30
0.0
 10
217.4828660613209
 20
127.2481724306637
 30
0.0
 10
217.1517558494773
 20
127.2924851261937
 30
0.0
 10
216.9721038599062
 20
127.3446566850862
 30
0.0
 10
216.8853137438815
 20
127.3698608348441
 30
0.0
  0
LINE
  5
22E
330
1F
100
AcDbEntity
  8
0
  6
Continuous
 62
     8
370
    18
100
AcDbLine
 10
217.876468206
 20
127.2409043232
 30
0.0
 11
217.8041212057
 21
127.2409043232
 31
0.0
  0
LINE
  5
22F
330
1F
100
AcDbEntity
  8
0
  6
Continuous
 62
     8
370
    18
100
AcDbLine
 10
217.945370244
 20
127.2409043232
 30
0.0
 11
217.876468206
 21
127.2409043232
 31
0.0
  0
SPLINE
  5
230
330
1F
100
AcDbEntity
  8
0
  6
Continuous
 62
     8
370
    18
100
AcDbSpline
210
0.0
220
0.0
230
1.0
 70
     8
 71
     3
 72
    10
 73
     6
 74
     0
 42
0.000000001
 43
0.00000001
 40
0.0
 40
0.0
 40
0.0
 40
0.0
 40
0.2713856206463103
 40
0.6561798109622111
 40
1.0
 40
1.0
 40
1.0
 40
1.0
 10
218.8641777058762
 20
127.3698608348441
 30
0.0
 10
218.7989496390572
 20
127.3502014887161
 30
0.0
 10
218.6412355330084
 20
127.3026674078934
 30
0.0
 10
218.3212380626964
 20
127.2515447015114
 30
0.0
 10
218.0658726488084
 20
127.2443156053521
 30
0.0
 10
217.9453702440184
 20
127.2409043232274
 30
0.0
  0
SPLINE
  5
231
330
1F
100
AcDbEntity
  8
0
  6
Continuous
 62
     8
370
    18
100
AcDbSpline
210
0.0
220
0.0
230
1.0
 70
     8
 71
     3
 72
    10
 73
     6
 74
     0
 42
0.000000001
 43
0.00000001
 40
0.0
 40
0.0
 40
0.0
 40
0.0
 40
0.2635551629979245
 40
0.5273012115208348
 40
1.0
 40
1.0
 40
1.0
 40
1.0
 10
219.1856050660532
 20
127.6300574610305
 30
0.0
 10
219.1816179476968
 20
127.6078150739579
 30
0.0
 10
219.1736408232274
 20
127.5633141902831
 30
0.0
 10
219.0984916838568
 20
127.4731920574721
 30
0.0
 10
218.9557796720785
 20
127.4102568165281
 30
0.0
 10
218.8641777058762
 20
127.3698608348441
 30
0.0
  0
SPLINE
  5
232
330
1F
100
AcDbEntity
  8
0
  6
Continuous
 62
     8
370
    18
100
AcDbSpline
210
0.0
220
0.0
230
1.0
 70
     8
 71
     3
 72
    15
 73
    11
 74
     0
 42
0.000000001
 43
0.00000001
 40
0.0
 40
0.0
 40
0.0
 40
0.0
 40
0.153971284445016
 40
0.3079357545102633
 40
0.4613092728663462
 40
0.6146630626439598
 40
0.7662899069714838
 40
0.9178745962601838
 40
0.9999958174524153
 40
1.0
 40
1.0
 40
1.0
 40
1.0
 10
161.3706595992368
 20
97.14670730329276
 30
0.0
 10
162.036928036538
 20
96.87828041082469
 30
0.0
 10
163.369435423784
 20
96.34143850578415
 30
0.0
 10
165.483904011008
 20
95.5340060738274
 30
0.0
 10
167.5976171075532
 20
94.72954788280863
 30
0.0
 10
169.6533712651293
 20
93.94209148679484
 30
0.0
 10
171.5737972407565
 20
93.17573838557605
 30
0.0
 10
173.0465082591678
 20
92.53537482975845
 30
0.0
 10
173.8157569951954
 20
92.15442457238821
 30
0.0
 10
174.0839627678533
 20
92.02032166418175
 30
0.0
 10
174.0839764272492
 20
92.02031483448268
 30
0.0
  0
SPLINE
  5
233
330
1F
100
AcDbEntity
  8
0
  6
Continuous
 62
     8
370
    18
100
AcDbSpline
210
0.0
220
0.0
230
1.0
 70
     8
 71
     3
 72
     9
 73
     5
 74
     0
 42
0.000000001
 43
0.00000001
 40
0.0
 40
0.0
 40
0.0
 40
0.0
 40
0.2958356170339062
 40
1.0
 40
1.0
 40
1.0
 40
1.0
 10
160.8896389400285
 20
97.4527361760211
 30
0.0
 10
160.9340287257829
 20
97.41608913421503
 30
0.0
 10
161.0840775474882
 20
97.2922127660701
 30
0.0
 10
161.2522432799804
 20
97.2068304730051
 30
0.0
 10
161.3706595992368
 20
97.14670730329276
 30
0.0
  0
SPLINE
  5
234
330
1F
100
AcDbEntity
  8
0
  6
Continuous
 62
     8
370
    18
100
AcDbSpline
210
0.0
220
0.0
230
1.0
 70
     8
 71
     3
 72
    18
 73
    14
 74
     0
 42
0.000000001
 43
0.00000001
 40
0.0
 40
0.0
 40
0.0
 40
0.0
 40
0.1038867711931675
 40
0.2077995392259015
 40
0.3102577131948295
 40
0.4128047590171943
 40
0.4911917167586985
 40
0.5697732453949663
 40
0.6480918008885966
 40
0.7471291406485303
 40
0.8461143503626678
 40
0.9226216285904807
 40
1.0
 40
1.0
 40
1.0
 40
1.0
 10
159.1977424716275
 20
119.1143269608092
 30
0.0
 10
158.6979302887146
 20
118.4512408172499
 30
0.0
 10
157.6981808488588
 20
117.1249025980892
 30
0.0
 10
156.6773633218222
 20
114.8502715539
 30
0.0
 10
156.038353907763
 20
112.4641369890208
 30
0.0
 10
155.7819423873069
 20
110.2113607521261
 30
0.0
 10
155.7861290896244
 20
108.139424328051
 30
0.0
 10
155.982308935618
 20
106.2703250264754
 30
0.0
 10
156.4157368989806
 20
104.2722803133282
 30
0.0
 10
157.180800494351
 20
102.1954023651919
 30
0.0
 10
158.2736449931912
 20
100.2881991689956
 30
0.0
 10
159.5270617988376
 20
98.69850103593794
 30
0.0
 10
160.4337357708804
 20
97.8695552539876
 30
0.0
 10
160.8896389400285
 20
97.4527361760211
 30
0.0
  0
SPLINE
  5
235
330
1F
100
AcDbEntity
  8
0
  6
Continuous
 62
     8
370
    18
100
AcDbSpline
210
0.0
220
0.0
230
1.0
 70
     8
 71
     3
 72
     9
 73
     5
 74
     0
 42
0.000000001
 43
0.00000001
 40
0.0
 40
0.0
 40
0.0
 40
0.0
 40
0.3075637596055003
 40
1.0
 40
1.0
 40
1.0
 40
1.0
 10
159.7729794477742
 20
119.5922807747793
 30
0.0
 10
159.7087579918637
 20
119.5574539928385
 30
0.0
 10
159.499951024512
 20
119.4442196443396
 30
0.0
 10
159.3213868070417
 20
119.2492978649209
 30
0.0
 10
159.1977424716275
 20
119.1143269608092
 30
0.0
  0
SPLINE
  5
236
330
1F
100
AcDbEntity
  8
0
  6
Continuous
 62
     8
370
    18
100
AcDbSpline
210
0.0
220
0.0
230
1.0
 70
     8
 71
     3
 72
    12
 73
     8
 74
     0
 42
0.000000001
 43
0.00000001
 40
0.0
 40
0.0
 40
0.0
 40
0.0
 40
0.1414922430125117
 40
0.3524244234417282
 40
0.5695250688998413
 40
0.7816713288901189
 40
1.0
 40
1.0
 40
1.0
 40
1.0
 10
169.9806213175576
 20
123.6890933433843
 30
0.0
 10
169.500513649092
 20
123.4996226631559
 30
0.0
 10
168.3046765866039
 20
123.0276950590914
 30
0.0
 10
166.2928422871826
 20
122.2529007524155
 30
0.0
 10
164.0383174930935
 20
121.3746368734483
 30
0.0
 10
161.8066211009508
 20
120.4917615116603
 30
0.0
 10
160.457319482477
 20
119.894964719972
 30
0.0
 10
159.7729794477742
 20
119.5922807747793
 30
0.0
  0
SPLINE
  5
237
330
1F
100
AcDbEntity
  8
0
  6
Continuous
 62
     8
370
    18
100
AcDbSpline
210
0.0
220
0.0
230
1.0
 70
     8
 71
     3
 72
    11
 73
     7
 74
     0
 42
0.000000001
 43
0.00000001
 40
0.0
 40
0.0
 40
0.0
 40
0.0
 40
0.0000122313122985
 40
0.4912843692843312
 40
0.7456383578141659
 40
1.0
 40
1.0
 40
1.0
 40
1.0
 10
174.0839764272492
 20
125.4255312452388
 30
0.0
 10
174.0839615260952
 20
125.4255244155458
 30
0.0
 10
173.4854399719436
 20
125.1512021401281
 30
0.0
 10
172.5242392863713
 20
124.6916942910215
 30
0.0
 10
171.1117686986109
 20
124.1244408849502
 30
0.0
 10
170.3576742263737
 20
123.8342106460831
 30
0.0
 10
169.9806213175576
 20
123.6890933433843
 30
0.0
  0
LINE
  5
238
330
1F
100
AcDbEntity
  8
0
  6
Continuous
 62
     8
370
    18
100
AcDbLine
 10
203.0839746615
 20
95.7759718368
 30
0.0
 11
203.0839746615
 21
95.6868740687
 31
0.0
  0
SPLINE
  5
239
330
1F
100
AcDbEntity
  8
0
  6
Continuous
 62
     8
370
    18
100
AcDbSpline
210
0.0
220
0.0
230
1.0
 70
     8
 71
     3
 72
    12
 73
     8
 74
     0
 42
0.000000001
 43
0.00000001
 40
0.0
 40
0.0
 40
0.0
 40
0.0
 40
0.0000034070306257
 40
0.2500025362859035
 40
0.5000016947898278
 40
0.7500008363935314
 40
1.0
 40
1.0
 40
1.0
 40
1.0
 10
223.8231053372543
 20
90.28405760920764
 30
0.0
 10
223.8231053372543
 20
90.28405698831868
 30
0.0
 10
223.8231053373805
 20
90.23849713533674
 30
0.0
 10
223.8231053371958
 20
90.38128833874599
 30
0.0
 10
223.82310533727
 20
90.70199823087344
 30
0.0
 10
223.8231053372504
 20
91.2663290734228
 30
0.0
 10
223.823105337253
 20
91.81939686766879
 30
0.0
 10
223.8231053372543
 20
92.09593077696086
 30
0.0
  0
LINE
  5
23A
330
1F
100
AcDbEntity
  8
0
  6
Continuous
 62
     8
370
    18
100
AcDbLine
 10
218.7839749997
 20
95.7759718368
 30
0.0
 11
218.7839749997
 21
95.6868926952
 31
0.0
  0
ARC
  5
23B
330
1F
100
AcDbEntity
  8
0
  6
Continuous
 62
     8
370
    18
100
AcDbCircle
 10
160.0625904545
 20
119.6236794336
 30
0.0
 40
0.2913081031951861
100
AcDbArc
 50
121.1678702059
 51
186.1876491564
  0
LWPOLYLINE
  5
23C
330
1F
100
AcDbEntity
  8
0
  6
Continuous
 62
     8
370
    18
100
AcDbPolyline
 90
        4
 70
   128
 43
0.0
 10
161.4681578969
 20
96.9195605213
 10
161.4508203959
 20
96.9290050635
 10
161.3939575648
 20
97.0091444398
 10
161.3706595992
 20
97.1467073033
  0
ARC
  5
23D
330
1F
100
AcDbEntity
  8
0
  6
Continuous
 62
     8
370
    18
100
AcDbCircle
 10
173.9103478656
 20
92.4132416628
 30
0.0
 40
0.4295792940042473
100
AcDbArc
 50
245.3613020545
 51
293.8399272814
  0
ARC
  5
23E
330
1F
100
AcDbEntity
  8
0
  6
Continuous
 62
     8
370
    18
100
AcDbCircle
 10
173.8776912999
 20
125.116283137
 30
0.0
 40
0.3717363934457066
100
AcDbArc
 50
56.294578863
 51
112.1306054563
  0
LWPOLYLINE
  5
23F
330
1F
100
AcDbEntity
  8
0
  6
Continuous
 62
     8
370
    18
100
AcDbPolyline
 90
        4
 70
   128
 43
0.0
 10
159.0887777304
 20
119.2056431393
 10
159.0899288451
 20
119.2046792204
 10
159.1225288605
 20
119.1773579413
 10
159.1977424716
 20
119.1143269608
  0
LWPOLYLINE
  5
240
330
1F
100
AcDbEntity
  8
0
  6
Continuous
 62
     8
370
    18
100
AcDbPolyline
 90
        4
 70
   128
 43
0.0
 10
160.7955977117
 20
97.3422133321
 10
160.7967339253
 20
97.3435460547
 10
160.8251020109
 20
97.3768874029
 10
160.88963894
 20
97.452736176
  0
SPLINE
  5
241
330
1F
100
AcDbEntity
  8
0
  6
Continuous
 62
     8
370
    18
100
AcDbSpline
210
0.0
220
0.0
230
1.0
 70
     8
 71
     3
 72
    10
 73
     6
 74
     0
 42
0.000000001
 43
0.00000001
 40
0.0
 40
0.0
 40
0.0
 40
0.0
 40
0.3481959369634358
 40
0.8652660429322686
 40
1.0
 40
1.0
 40
1.0
 40
1.0
 10
217.1278478374403
 20
127.7447051326108
 30
0.0
 10
217.2018903270697
 20
127.7543935193495
 30
0.0
 10
217.3858857308333
 20
127.7784691364543
 30
0.0
 10
217.6454799887754
 20
127.7845692526362
 30
0.0
 10
217.8097777864574
 20
127.7851266581034
 30
0.0
 10
217.8437396680634
 20
127.7852418789935
 30
0.0
  0
SPLINE
  5
242
330
1F
100
AcDbEntity
  8
0
  6
Continuous
 62
     8
370
    18
100
AcDbSpline
210
0.0
220
0.0
230
1.0
 70
     8
 71
     3
 72
    10
 73
     6
 74
     0
 42
0.000000001
 43
0.00000001
 40
0.0
 40
0.0
 40
0.0
 40
0.0
 40
0.2852993423238014
 40
0.6721392621319281
 40
1.0
 40
1.0
 40
1.0
 40
1.0
 10
216.887035759322
 20
127.6297352234197
 30
0.0
 10
216.8908042921404
 20
127.6427069602995
 30
0.0
 10
216.8996826121787
 20
127.6732671907717
 30
0.0
 10
216.9791281766362
 20
127.7143130826534
 30
0.0
 10
217.0810790447964
 20
127.7351475564652
 30
0.0
 10
217.1278478374403
 20
127.7447051326108
 30
0.0
  0
SPLINE
  5
243
330
1F
100
AcDbEntity
  8
0
  6
Continuous
 62
     8
370
    18
100
AcDbSpline
210
0.0
220
0.0
230
1.0
 70
     8
 71
     3
 72
    10
 73
     6
 74
     0
 42
0.000000001
 43
0.00000001
 40
0.0
 40
0.0
 40
0.0
 40
0.0
 40
0.3835540514763111
 40
0.7672438489012057
 40
1.0
 40
1.0
 40
1.0
 40
1.0
 10
217.1278478374403
 20
127.4989793965888
 30
0.0
 10
217.0739686507097
 20
127.5134031113701
 30
0.0
 10
216.9661912085378
 20
127.5422556457174
 30
0.0
 10
216.896146226881
 20
127.5901094532216
 30
0.0
 10
216.889532829648
 20
127.6188742731703
 30
0.0
 10
216.887035759322
 20
127.6297352234197
 30
0.0
  0
SPLINE
  5
244
330
1F
100
AcDbEntity
  8
0
  6
Continuous
 62
     8
370
    18
100
AcDbSpline
210
0.0
220
0.0
230
1.0
 70
     8
 71
     3
 72
    11
 73
     7
 74
     0
 42
0.000000001
 43
0.00000001
 40
0.0
 40
0.0
 40
0.0
 40
0.0
 40
0.3458741071588615
 40
0.5875727174434177
 40
0.9336174401726842
 40
1.0
 40
1.0
 40
1.0
 40
1.0
 10
217.8437396680634
 20
127.4443200746846
 30
0.0
 10
217.7559299155662
 20
127.4451460446363
 30
0.0
 10
217.6067582550548
 20
127.4465492066511
 30
0.0
 10
217.375819260389
 20
127.4607167868796
 30
0.0
 10
217.2216727423501
 20
127.4792384844754
 30
0.0
 10
217.1408557934432
 20
127.4962425015557
 30
0.0
 10
217.1278478374403
 20
127.4989793965888
 30
0.0
  0
LINE
  5
245
330
1F
100
AcDbEntity
  8
0
  6
Continuous
 62
     8
370
    18
100
AcDbLine
 10
217.9064400291
 20
127.4443200747
 30
0.0
 11
217.8437396681
 21
127.4443200747
 31
0.0
  0
SPLINE
  5
246
330
1F
100
AcDbEntity
  8
0
  6
Continuous
 62
     8
370
    18
100
AcDbSpline
210
0.0
220
0.0
230
1.0
 70
     8
 71
     3
 72
    10
 73
     6
 74
     0
 42
0.000000001
 43
0.00000001
 40
0.0
 40
0.0
 40
0.0
 40
0.0
 40
0.3544967544459543
 40
0.8773334701468178
 40
1.0
 40
1.0
 40
1.0
 40
1.0
 10
218.6237092857879
 20
127.4989793965888
 30
0.0
 10
218.5480332736021
 20
127.486113358174
 30
0.0
 10
218.3607449626512
 20
127.4542715825077
 30
0.0
 10
218.1005380569256
 20
127.4451583839953
 30
0.0
 10
217.9374349110545
 20
127.4444539415684
 30
0.0
 10
217.9064400290769
 20
127.4443200746846
 30
0.0
  0
SPLINE
  5
247
330
1F
100
AcDbEntity
  8
0
  6
Continuous
 62
     8
370
    18
100
AcDbSpline
210
0.0
220
0.0
230
1.0
 70
     8
 71
     3
 72
    10
 73
     6
 74
     0
 42
0.000000001
 43
0.00000001
 40
0.0
 40
0.0
 40
0.0
 40
0.0
 40
0.288223292542976
 40
0.6791660966876453
 40
1.0
 40
1.0
 40
1.0
 40
1.0
 10
218.8631439378183
 20
127.6297352234197
 30
0.0
 10
218.8593439612748
 20
127.6162563267315
 30
0.0
 10
218.8503897396581
 20
127.5844948074922
 30
0.0
 10
218.7699167010666
 20
127.5372615721914
 30
0.0
 10
218.6691361826722
 20
127.5108737347815
 30
0.0
 10
218.6237092857879
 20
127.4989793965888
 30
0.0
  0
SPLINE
  5
248
330
1F
100
AcDbEntity
  8
0
  6
Continuous
 62
     8
370
    18
100
AcDbSpline
210
0.0
220
0.0
230
1.0
 70
     8
 71
     3
 72
    10
 73
     6
 74
     0
 42
0.000000001
 43
0.00000001
 40
0.0
 40
0.0
 40
0.0
 40
0.0
 40
0.3772890737036858
 40
0.7544646046335576
 40
1.0
 40
1.0
 40
1.0
 40
1.0
 10
218.6237092857879
 20
127.7447051326108
 30
0.0
 10
218.6766425660965
 20
127.7334956459788
 30
0.0
 10
218.782493196776
 20
127.7110800461393
 30
0.0
 10
218.8530735110301
 20
127.6691784902566
 30
0.0
 10
218.860296075223
 20
127.6408895673837
 30
0.0
 10
218.8631439378183
 20
127.6297352234197
 30
0.0
  0
SPLINE
  5
249
330
1F
100
AcDbEntity
  8
0
  6
Continuous
 62
     8
370
    18
100
AcDbSpline
210
0.0
220
0.0
230
1.0
 70
     8
 71
     3
 72
    11
 73
     7
 74
     0
 42
0.000000001
 43
0.00000001
 40
0.0
 40
0.0
 40
0.0
 40
0.0
 40
0.3444673143547086
 40
0.5888098365681563
 40
0.9295570560097687
 40
0.9999999999999999
 40
0.9999999999999999
 40
0.9999999999999999
 40
0.9999999999999999
 10
217.9064400290769
 20
127.7852418789935
 30
0.0
 10
217.993978225997
 20
127.7846759908706
 30
0.0
 10
218.1436102789498
 20
127.783708698825
 30
0.0
 10
218.3739657829574
 20
127.773687984931
 30
0.0
 10
218.5291155135132
 20
127.7601956065207
 30
0.0
 10
218.6098741409453
 20
127.7469707463512
 30
0.0
 10
218.6237092857879
 20
127.7447051326108
 30
0.0
  0
LINE
  5
24A
330
1F
100
AcDbEntity
  8
0
  6
Continuous
 62
     8
370
    18
100
AcDbLine
 10
217.8437396681
 20
127.785241879
 30
0.0
 11
217.9064400291
 21
127.785241879
 31
0.0
  0
LINE
  5
24B
330
1F
100
AcDbEntity
  8
DEFAULT_LAYER
  6
PHANTOM
370
    18
100
AcDbLine
 10
230.0839747559
 20
136.3322011272
 30
0.0
 11
230.0839747559
 21
150.980499864
 31
0.0
  0
LINE
  5
24C
330
1F
100
AcDbEntity
  8
DEFAULT_LAYER
  6
PHANTOM
370
    18
100
AcDbLine
 10
230.0839747559
 20
81.9322011272
 30
0.0
 11
230.0839747559
 21
68.3043587503
 31
0.0
  0
POINT
  5
24D
330
1F
100
AcDbEntity
  8
DEFAULT_LAYER
370
    18
100
AcDbPoint
 10
155.6911606973
 20
109.1322011272
 30
0.0
  0
DIMENSION
  5
24E
330
1F
100
AcDbEntity
  8
DEFAULT_LAYER
100
AcDbDimension
  2
_D_2
 10
230.0839747559
 20
157.2298422391
 30
0.0
 11
198.8079015763
 21
157.2298422391
 31
0.0
 70
   160
  1
<>
 71
     2
 42
-1.0
  3
SLDDIMSTYLE1
100
AcDbAlignedDimension
 13
155.6911606973
 23
109.1322011272
 33
0.0
 14
230.0839747559
 24
150.980499864
 34
0.0
100
AcDbRotatedDimension
  0
DIMENSION
  5
259
330
1F
100
AcDbEntity
  8
DEFAULT_LAYER
100
AcDbDimension
  2
_D_3
 10
230.0839747559
 20
76.2249459827
 30
0.0
 11
218.8272392153
 21
76.2249459827
 31
0.0
 70
   160
  1
<>
 71
     2
 42
-1.0
  3
SLDDIMSTYLE2
100
AcDbAlignedDimension
 13
208.2010753249
 23
83.6322011272
 33
0.0
 14
230.0839747559
 24
81.9322011272
 34
0.0
100
AcDbRotatedDimension
  0
DIMENSION
  5
264
330
1F
100
AcDbEntity
  8
DEFAULT_LAYER
100
AcDbDimension
  2
_D_4
 10
241.6010753249
 20
157.2298422391
 30
0.0
 11
248.4642548048
 21
157.2298422391
 31
0.0
 70
   160
  1
<>
 71
     2
 42
-1.0
  3
SLDDIMSTYLE3
100
AcDbAlignedDimension
 13
230.0839747559
 23
150.980499864
 33
0.0
 14
241.6010753249
 24
118.4477011272
 34
0.0
100
AcDbRotatedDimension
  0
DIMENSION
  5
271
330
1F
100
AcDbEntity
  8
DEFAULT_LAYER
100
AcDbDimension
  2
_D_5
 10
203.3402628837
 20
85.6322011272
 30
0.0
 11
203.3402628837
 21
100.6858587552
 31
0.0
 70
   160
  1
<>
 71
     2
 42
-1.0
  3
SLDDIMSTYLE1
100
AcDbAlignedDimension
 13
243.6010753249
 23
109.1322011272
 33
0.0
 14
198.8855753249
 24
85.6322011272
 34
0.0
 50
90.0
100
AcDbRotatedDimension
  0
INSERT
  5
27E
330
1F
100
AcDbEntity
  8
DEFAULT_LAYER
100
AcDbBlockReference
  2
SW_NOTE_2
 10
241.8762376238
 20
91.4253026333
 30
0.0
  0
LEADER
  5
280
330
1F
100
AcDbEntity
  8
DEFAULT_LAYER
100
AcDbLeader
  3
SLDDIMSTYLE4
 76
     2
 10
235.8928450429
 20
98.6547011272
 30
0.0
 10
241.8762376238
 20
91.4253026333
 30
0.0
  0
MTEXT
  5
281
330
1F
100
AcDbEntity
  8
DEFAULT_LAYER
100
AcDbMText
 10
222.8344204039
 20
71.4828575119
 30
0.0
 40
2.1166666667
 41
0.0
 71
     1
 72
     1
  1
W.L.
  7
SLDTEXTSTYLE0
 73
     1
 44
1.0
  0
MTEXT
  5
282
330
1F
100
AcDbEntity
  8
DEFAULT_LAYER
100
AcDbMText
 10
230.4114060382
 20
71.5281756232
 30
0.0
 40
2.1166666667
 41
0.0
 71
     1
 72
     1
  1
△
  7
SLDTEXTSTYLE0
 11
-3.491481338843133E-15
 21
-1.0
 31
0.0
 73
     1
 44
1.0
  0
INSERT
  5
288
330
1F
100
AcDbEntity
  8
DEFAULT_LAYER
100
AcDbBlockReference
  2
SW_NOTE_3
 10
186.9365235842
 20
75.9797580788
 30
0.0
  0
LEADER
  5
289
330
1F
100
AcDbEntity
  8
DEFAULT_LAYER
100
AcDbLeader
  3
SLDDIMSTYLE4
 76
     2
 10
197.7235753249
 20
88.2261829405
 30
0.0
 10
186.9365235842
 20
75.9797580788
 30
0.0
  0
MTEXT
  5
28A
330
1F
100
AcDbEntity
  8
DEFAULT_LAYER
100
AcDbMText
 10
176.2789798338
 20
75.2052413265
 30
0.0
 40
2.1166666667
 41
0.0
 71
     1
 72
     1
  1
（シャワーエルボ接続）
  7
SLDTEXTSTYLE0
 73
     1
 44
1.0
  0
LINE
  5
28B
330
1F
100
AcDbEntity
  8
DEFAULT_LAYER
  6
CENTERX2
370
    18
100
AcDbLine
 10
208.2010753249
 20
83.6322011272
 30
0.0
 11
208.2010753249
 21
97.6322011272
 31
0.0
  0
LINE
  5
28C
330
1F
100
AcDbEntity
  8
DEFAULT_LAYER
  6
CENTERX2
370
    18
100
AcDbLine
 10
243.6010753249
 20
109.1322011272
 30
0.0
 11
151.7867985279
 21
109.1322011272
 31
0.0
  0
LINE
  5
28D
330
1F
100
AcDbEntity
  8
0
  6
Continuous
 62
     7
370
    25
100
AcDbLine
 10
69.3634484773
 20
248.7621744469
 30
0.0
 11
69.3634484773
 21
243.8621734575
 31
0.0
  0
LINE
  5
28E
330
1F
100
AcDbEntity
  8
0
  6
Continuous
 62
     7
370
    25
100
AcDbLine
 10
124.3634481793
 20
243.8621734575
 30
0.0
 11
124.3634481793
 21
248.7621744469
 31
0.0
  0
ARC
  5
28F
330
1F
100
AcDbEntity
  8
0
  6
Continuous
 62
     7
370
    25
100
AcDbCircle
 10
124.0634483283
 20
248.7621742628
 30
0.0
 40
0.2999999999999972
100
AcDbArc
 50
0.0
 51
90.0
  0
ARC
  5
290
330
1F
100
AcDbEntity
  8
0
  6
Continuous
 62
     7
370
    25
100
AcDbCircle
 10
69.6634483283
 20
248.7621742628
 30
0.0
 40
0.2999999999999972
100
AcDbArc
 50
90.0
 51
180.0
  0
ARC
  5
291
330
1F
100
AcDbEntity
  8
0
  6
Continuous
 62
     7
370
    25
100
AcDbCircle
 10
123.5634483283
 20
243.8621742628
 30
0.0
 40
0.7999999999999972
100
AcDbArc
 50
270.0
 51
0.0
  0
ARC
  5
292
330
1F
100
AcDbEntity
  8
0
  6
Continuous
 62
     7
370
    25
100
AcDbCircle
 10
70.1634483283
 20
243.8621742628
 30
0.0
 40
0.7999999999999972
100
AcDbArc
 50
180.0
 51
270.0
  0
ARC
  5
293
330
1F
100
AcDbEntity
  8
0
  6
Continuous
 62
     7
370
    25
100
AcDbCircle
 10
117.8634483283
 20
241.0621742628
 30
0.0
 40
2.0
100
AcDbArc
 50
90.0
 51
180.0
  0
ARC
  5
294
330
1F
100
AcDbEntity
  8
0
  6
Continuous
 62
     7
370
    25
100
AcDbCircle
 10
75.8634483283
 20
241.0621742628
 30
0.0
 40
2.000000000000014
100
AcDbArc
 50
0.0
 51
90.0
  0
LINE
  5
295
330
1F
100
AcDbEntity
  8
0
  6
Continuous
 62
     7
370
    25
100
AcDbLine
 10
77.8634489392
 20
241.0621744887
 30
0.0
 11
77.8634489392
 21
193.0621759341
 31
0.0
  0
LINE
  5
296
330
1F
100
AcDbEntity
  8
0
  6
Continuous
 62
     7
370
    25
100
AcDbLine
 10
115.8634477173
 20
193.0621759341
 30
0.0
 11
115.8634477173
 21
241.0621744887
 31
0.0
  0
SPLINE
  5
297
330
1F
100
AcDbEntity
  8
0
  6
Continuous
 62
     7
370
    25
100
AcDbSpline
210
0.0
220
0.0
230
1.0
 70
     8
 71
     3
 72
    17
 73
    13
 74
     0
 42
0.000000001
 43
0.00000001
 40
0.0
 40
0.0
 40
0.0
 40
0.0
 40
0.0154223970826373
 40
0.1038913110839898
 40
0.1942884025324766
 40
0.2864531090435458
 40
0.3797340250357578
 40
0.5128787790994713
 40
0.6430873932317622
 40
0.7678311104357273
 40
0.8862604662508395
 40
1.0
 40
1.0
 40
1.0
 40
1.0
 10
107.5606417720472
 20
174.8050199196334
 30
0.0
 10
107.6591428085514
 20
174.8503446840353
 30
0.0
 10
108.3226843949027
 20
175.1556700606971
 30
0.0
 10
109.4120666483958
 20
176.0047662787276
 30
0.0
 10
110.8200572774997
 20
177.284603664382
 30
0.0
 10
112.0555668684537
 20
178.7877519154773
 30
0.0
 10
113.2761341979662
 20
180.6678643712291
 30
0.0
 10
114.3601671597948
 20
182.9376444388266
 30
0.0
 10
115.1918738558739
 20
185.5421837623387
 30
0.0
 10
115.6724267618747
 20
188.1273796208847
 30
0.0
 10
115.8610335622762
 20
190.6315759141334
 30
0.0
 10
115.8626539093363
 20
192.2629606089594
 30
0.0
 10
115.8634477173244
 20
193.0621759340759
 30
0.0
  0
SPLINE
  5
298
330
1F
100
AcDbEntity
  8
0
  6
Continuous
 62
     7
370
    25
100
AcDbSpline
210
0.0
220
0.0
230
1.0
 70
     8
 71
     3
 72
    16
 73
    12
 74
     0
 42
0.000000001
 43
0.00000001
 40
0.0
 40
0.0
 40
0.0
 40
0.0
 40
0.1032815506186664
 40
0.210238945750988
 40
0.3223782625375993
 40
0.4394207142394878
 40
0.5597791901859472
 40
0.6811357933674426
 40
0.8011618865637614
 40
0.9086690404053113
 40
1.0
 40
1.0
 40
1.0
 40
1.0
 10
77.86344893921962
 20
193.0621759340759
 30
0.0
 10
77.86397457504933
 20
192.3366770001326
 30
0.0
 10
77.86504455436341
 20
190.8598582449721
 30
0.0
 10
78.00785638117691
 20
188.5975659066348
 30
0.0
 10
78.37856904823288
 20
186.2616141841219
 30
0.0
 10
79.02997155384664
 20
183.8886656635663
 30
0.0
 10
79.98742264059702
 20
181.5511016500747
 30
0.0
 10
81.25203728926643
 20
179.3366053377271
 30
0.0
 10
82.77672475672952
 20
177.4098055264294
 30
0.0
 10
84.41278668010607
 20
175.8564236321947
 30
0.0
 10
85.61165294920058
 20
175.1338211265556
 30
0.0
 10
86.16232004661909
 20
174.8019130275245
 30
0.0
  0
ARC
  5
299
330
1F
100
AcDbEntity
  8
0
  6
Continuous
 62
     7
370
    25
100
AcDbCircle
 10
86.5634479663
 20
175.469397032
 30
0.0
 40
0.800000160625492
100
AcDbArc
 50
238.8460029219
 51
359.8945127306
  0
ARC
  5
29A
330
1F
100
AcDbEntity
  8
0
  6
Continuous
 62
     7
370
    25
100
AcDbCircle
 10
107.1634473843
 20
175.4693949169
 30
0.0
 40
0.7999988507865766
100
AcDbArc
 50
180.1053359617
 51
300.9907811697
  0
ARC
  5
29B
330
1F
100
AcDbEntity
  8
0
  6
Continuous
 62
     7
370
    25
100
AcDbCircle
 10
96.8634483283
 20
205.5600552151
 30
0.0
 40
10.20238095238094
100
AcDbArc
 50
249.9866555686
 51
290.2893275366
  0
ARC
  5
29C
330
1F
100
AcDbEntity
  8
0
  6
Continuous
 62
     7
370
    25
100
AcDbCircle
 10
96.8634483283
 20
204.8690552151
 30
0.0
 40
10.20238095238095
100
AcDbArc
 50
252.8576645351
 51
286.802938473
  0
LINE
  5
29D
330
1F
100
AcDbEntity
  8
0
  6
Continuous
 62
     7
370
    25
100
AcDbLine
 10
70.4634484713
 20
249.5621749506
 30
0.0
 11
70.4634484713
 21
249.0621739373
 31
0.0
  0
LINE
  5
29E
330
1F
100
AcDbEntity
  8
0
  6
Continuous
 62
     7
370
    25
100
AcDbLine
 10
123.2634481852
 20
249.0621739373
 30
0.0
 11
123.2634481852
 21
249.5621749506
 31
0.0
  0
LINE
  5
29F
330
1F
100
AcDbEntity
  8
0
  6
Continuous
 62
     7
370
    25
100
AcDbLine
 10
107.3409483646
 20
259.417273973
 30
0.0
 11
106.1789483642
 21
260.5792739735
 31
0.0
  0
LINE
  5
2A0
330
1F
100
AcDbEntity
  8
0
  6
Continuous
 62
     7
370
    25
100
AcDbLine
 10
87.5479482924
 20
260.5792739735
 30
0.0
 11
86.3859482919
 21
259.417273973
 31
0.0
  0
LINE
  5
2A1
330
1F
100
AcDbEntity
  8
0
  6
Continuous
 62
     7
370
    25
100
AcDbLine
 10
86.3859482919
 20
259.417273973
 30
0.0
 11
86.3859482919
 21
249.5621749506
 31
0.0
  0
LINE
  5
2A2
330
1F
100
AcDbEntity
  8
0
  6
Continuous
 62
     7
370
    25
100
AcDbLine
 10
107.3409483646
 20
249.5621749506
 30
0.0
 11
107.3409483646
 21
259.417273973
 31
0.0
  0
LINE
  5
2A3
330
1F
100
AcDbEntity
  8
0
  6
Continuous
 62
     7
370
    25
100
AcDbLine
 10
69.6634479677
 20
249.0621739373
 30
0.0
 11
124.0634486889
 21
249.0621739373
 31
0.0
  0
LINE
  5
2A4
330
1F
100
AcDbEntity
  8
0
  6
Continuous
 62
     7
370
    25
100
AcDbLine
 10
123.5634476756
 20
243.0621748165
 30
0.0
 11
70.1634489809
 21
243.0621748165
 31
0.0
  0
ARC
  5
2A5
330
1F
100
AcDbEntity
  8
0
  6
Continuous
 62
     7
370
    25
100
AcDbCircle
 10
96.8634483283
 20
185.0621742628
 30
0.0
 40
11.35
100
AcDbArc
 50
116.2779275506
 51
160.6325547938
  0
SPLINE
  5
2A6
330
1F
100
AcDbEntity
  8
0
  6
Continuous
 62
     7
370
    25
100
AcDbSpline
210
0.0
220
0.0
230
1.0
 70
     8
 71
     3
 72
    12
 73
     8
 74
     0
 42
0.000000001
 43
0.00000001
 40
0.0
 40
0.0
 40
0.0
 40
0.0
 40
0.3221831302171679
 40
0.6459410213234191
 40
0.7821572172973403
 40
0.9198601488417053
 40
1.0
 40
1.0
 40
1.0
 40
1.0
 10
86.15573093940368
 20
188.8261185333724
 30
0.0
 10
86.15331774378195
 20
188.8192862523225
 30
0.0
 10
86.14847955736452
 20
188.8055882955224
 30
0.0
 10
86.14242820312114
 20
188.789039414331
 30
0.0
 10
86.1378716991987
 20
188.7774148268682
 30
0.0
 10
86.13520674769457
 20
188.7711913176313
 30
0.0
 10
86.13407495682281
 20
188.7692642689918
 30
0.0
 10
86.1336585943853
 20
188.7685553476806
 30
0.0
  0
SPLINE
  5
2A7
330
1F
100
AcDbEntity
  8
0
  6
Continuous
 62
     7
370
    25
100
AcDbSpline
210
0.0
220
0.0
230
1.0
 70
     8
 71
     3
 72
    12
 73
     8
 74
     0
 42
0.000000001
 43
0.00000001
 40
0.0
 40
0.0
 40
0.0
 40
0.0
 40
0.3221831302171679
 40
0.6459410213234191
 40
0.7821572172973403
 40
0.9198601488417053
 40
1.0
 40
1.0
 40
1.0
 40
1.0
 10
107.5711657171403
 20
188.8261185333724
 30
0.0
 10
107.5735789127621
 20
188.8192862523225
 30
0.0
 10
107.5784170991795
 20
188.8055882955224
 30
0.0
 10
107.5844684534229
 20
188.789039414331
 30
0.0
 10
107.5890249573453
 20
188.7774148268682
 30
0.0
 10
107.5916899088495
 20
188.7711913176313
 30
0.0
 10
107.5928216997212
 20
188.7692642689918
 30
0.0
 10
107.5932380621587
 20
188.7685553476806
 30
0.0
  0
ARC
  5
2A8
330
1F
100
AcDbEntity
  8
0
  6
Continuous
 62
     7
370
    25
100
AcDbCircle
 10
96.8634483283
 20
185.0621742628
 30
0.0
 40
11.35
100
AcDbArc
 50
19.3674452062
 51
63.7220724494
  0
SPLINE
  5
2A9
330
1F
100
AcDbEntity
  8
0
  6
Continuous
 62
     7
370
    25
100
AcDbSpline
210
0.0
220
0.0
230
1.0
 70
     8
 71
     3
 72
    18
 73
    14
 74
     0
 42
0.000000001
 43
0.00000001
 40
0.0
 40
0.0
 40
0.0
 40
0.0
 40
0.0950446062513831
 40
0.1900451206248143
 40
0.2856897670808249
 40
0.3812323699339227
 40
0.499863727037243
 40
0.5790204631056868
 40
0.6582060973462467
 40
0.7370406264260045
 40
0.8159222516831136
 40
0.9079422138090747
 40
1.0
 40
1.0
 40
1.0
 40
1.0
 10
101.8883862410938
 20
195.2392318592067
 30
0.0
 10
101.659632790538
 20
195.3769795848546
 30
0.0
 10
101.2022320098011
 20
195.6524111339874
 30
0.0
 10
100.3432032592214
 20
196.0364545715298
 30
0.0
 10
99.36795838211549
 20
196.3546879327166
 30
0.0
 10
98.20285663368792
 20
196.59825144307
 30
0.0
 10
97.02126295353415
 20
196.6860828133015
 30
0.0
 10
95.90943890741053
 20
196.6299374961309
 30
0.0
 10
94.98656126088417
 20
196.4953761111751
 30
0.0
 10
94.12112559502565
 20
196.2818010140585
 30
0.0
 10
93.28684294553194
 20
195.9945998532286
 30
0.0
 10
92.50166798875021
 20
195.6394450418317
 30
0.0
 10
92.05959321887342
 20
195.3726545266753
 30
0.0
 10
91.83851041545024
 20
195.2392318592067
 30
0.0
  0
SPLINE
  5
2AA
330
1F
100
AcDbEntity
  8
0
  6
Continuous
 62
     7
370
    25
100
AcDbSpline
210
0.0
220
0.0
230
1.0
 70
     8
 71
     3
 72
    14
 73
    10
 74
     0
 42
0.000000001
 43
0.00000001
 40
0.0
 40
0.0
 40
0.0
 40
0.0
 40
0.1621843534042409
 40
0.3243690738195966
 40
0.4865518017262749
 40
0.6487387638666926
 40
0.8109343986978249
 40
0.97652467959874
 40
1.0
 40
1.0
 40
1.0
 40
1.0
 10
86.1336585943853
 20
188.7685553476806
 30
0.0
 10
86.107264619192
 20
188.7448279964385
 30
0.0
 10
86.0544766090778
 20
188.6973732402611
 30
0.0
 10
85.87698617680128
 20
188.6724099456411
 30
0.0
 10
85.64997305707158
 20
188.6862458441949
 30
0.0
 10
85.39115946483818
 20
188.7400896110608
 30
0.0
 10
85.13060882594031
 20
188.8276344989203
 30
0.0
 10
84.96303167607631
 20
188.9078226467327
 30
0.0
 10
84.8868053949767
 20
188.9531880335285
 30
0.0
 10
84.87734076280942
 20
188.9588208243842
 30
0.0
  0
SPLINE
  5
2AB
330
1F
100
AcDbEntity
  8
0
  6
Continuous
 62
     7
370
    25
100
AcDbSpline
210
0.0
220
0.0
230
1.0
 70
     8
 71
     3
 72
    14
 73
    10
 74
     0
 42
0.000000001
 43
0.00000001
 40
0.0
 40
0.0
 40
0.0
 40
0.0
 40
0.1621843534042409
 40
0.3243690738195966
 40
0.4865518017262749
 40
0.6487387638666926
 40
0.8109343986978249
 40
0.97652467959874
 40
1.0
 40
1.0
 40
1.0
 40
1.0
 10
107.5932380621587
 20
188.7685553476806
 30
0.0
 10
107.619632037352
 20
188.7448279964385
 30
0.0
 10
107.6724200474662
 20
188.6973732402611
 30
0.0
 10
107.8499104797427
 20
188.6724099456411
 30
0.0
 10
108.0769235994725
 20
188.6862458441949
 30
0.0
 10
108.3357371917058
 20
188.7400896110608
 30
0.0
 10
108.5962878306037
 20
188.8276344989203
 30
0.0
 10
108.7638649804677
 20
188.9078226467327
 30
0.0
 10
108.8400912615673
 20
188.9531880335285
 30
0.0
 10
108.8495558937346
 20
188.9588208243842
 30
0.0
  0
SPLINE
  5
2AC
330
1F
100
AcDbEntity
  8
0
  6
Continuous
 62
     7
370
    25
100
AcDbSpline
210
0.0
220
0.0
230
1.0
 70
     8
 71
     3
 72
    19
 73
    15
 74
     0
 42
0.000000001
 43
0.00000001
 40
0.0
 40
0.0
 40
0.0
 40
0.0
 40
0.089608125832786
 40
0.1814988100510534
 40
0.2712192449229888
 40
0.3642990771422082
 40
0.4429440322717416
 40
0.5241234979564998
 40
0.5995347647302685
 40
0.6766319224460609
 40
0.7629690589841521
 40
0.8513332483368944
 40
0.9467782441049896
 40
1.0
 40
1.0
 40
1.0
 40
1.0
 10
91.83851041545024
 20
195.2392318592067
 30
0.0
 10
91.64993961960079
 20
195.1278434379604
 30
0.0
 10
91.26799462589649
 20
194.902229234764
 30
0.0
 10
90.86907936402517
 20
194.6080866561289
 30
0.0
 10
90.61232461105236
 20
194.3853306446038
 30
0.0
 10
90.53646563513075
 20
194.2769822036502
 30
0.0
 10
90.62190096432987
 20
194.2818036587116
 30
0.0
 10
90.83654332552187
 20
194.3768813202819
 30
0.0
 10
91.1712352039092
 20
194.5427120867133
 30
0.0
 10
91.6234793033923
 20
194.7617333732426
 30
0.0
 10
92.21195018915904
 20
195.0245108180024
 30
0.0
 10
92.96377017064145
 20
195.3085258263663
 30
0.0
 10
93.70653589885352
 20
195.5481503578054
 30
0.0
 10
94.23885655059578
 20
195.6547449670637
 30
0.0
 10
94.42942397382906
 20
195.692905162334
 30
0.0
  0
SPLINE
  5
2AD
330
1F
100
AcDbEntity
  8
0
  6
Continuous
 62
     7
370
    25
100
AcDbSpline
210
0.0
220
0.0
230
1.0
 70
     8
 71
     3
 72
    19
 73
    15
 74
     0
 42
0.000000001
 43
0.00000001
 40
0.0
 40
0.0
 40
0.0
 40
0.0
 40
0.0391717761479521
 40
0.1237501937196233
 40
0.2118824832850091
 40
0.3021843103994399
 40
0.397363130748297
 40
0.4958107561818435
 40
0.5822588887825467
 40
0.6721230634990074
 40
0.746740827669432
 40
0.8233063281271047
 40
0.9105437165038894
 40
1.0
 40
1.0
 40
1.0
 40
1.0
 10
99.26291572575322
 20
195.7034663603301
 30
0.0
 10
99.40430586614785
 20
195.6759894046211
 30
0.0
 10
99.85098097216789
 20
195.5891851050413
 30
0.0
 10
100.5371504542615
 20
195.383355248721
 30
0.0
 10
101.3059119628888
 20
195.1101244805468
 30
0.0
 10
101.984115950472
 20
194.8185053718034
 30
0.0
 10
102.548257410814
 20
194.547038495628
 30
0.0
 10
102.9407400539714
 20
194.3513829843158
 30
0.0
 10
103.1518780603851
 20
194.2660234081194
 30
0.0
 10
103.1821430925543
 20
194.2992575341914
 30
0.0
 10
103.0669108188524
 20
194.4285461635698
 30
0.0
 10
102.827276254292
 20
194.6307596962297
 30
0.0
 10
102.4505577667193
 20
194.9071975875185
 30
0.0
 10
102.0773390263763
 20
195.1276310441798
 30
0.0
 10
101.8883862410938
 20
195.2392318592067
 30
0.0
  0
ARC
  5
2AE
330
1F
100
AcDbEntity
  8
0
  6
Continuous
 62
     7
370
    25
100
AcDbCircle
 10
96.8634483283
 20
185.0621742628
 30
0.0
 40
10.45000000000001
100
AcDbArc
 50
337.494802656
 51
63.2977953703
  0
SPLINE
  5
2AF
330
1F
100
AcDbEntity
  8
0
  6
Continuous
 62
     7
370
    25
100
AcDbSpline
210
0.0
220
0.0
230
1.0
 70
     8
 71
     3
 72
    11
 73
     7
 74
     0
 42
0.000000001
 43
0.00000001
 40
0.0
 40
0.0
 40
0.0
 40
0.0
 40
0.2717275781456009
 40
0.5433004829903187
 40
0.8168068019422717
 40
1.0
 40
1.0
 40
1.0
 40
1.0
 10
92.16770547156086
 20
194.3977260336871
 30
0.0
 10
92.41087210194007
 20
194.5260484108663
 30
0.0
 10
92.8970669469159
 20
194.7826201213115
 30
0.0
 10
93.78381446742242
 20
195.1235558885688
 30
0.0
 10
94.6555710271966
 20
195.3772320765877
 30
0.0
 10
95.2563545222907
 20
195.463025405606
 30
0.0
 10
95.49734328121743
 20
195.4974391803737
 30
0.0
  0
SPLINE
  5
2B0
330
1F
100
AcDbEntity
  8
0
  6
Continuous
 62
     7
370
    25
100
AcDbSpline
210
0.0
220
0.0
230
1.0
 70
     8
 71
     3
 72
    11
 73
     7
 74
     0
 42
0.000000001
 43
0.00000001
 40
0.0
 40
0.0
 40
0.0
 40
0.0
 40
0.095892940600777
 40
0.337895264972596
 40
0.58004351009593
 40
1.0
 40
1.0
 40
1.0
 40
1.0
 10
98.3712906594654
 20
195.479032521009
 30
0.0
 10
98.4932680907434
 20
195.462773428176
 30
0.0
 10
98.92307654383842
 20
195.4054817188323
 30
0.0
 10
99.60591234458096
 20
195.223169456018
 30
0.0
 10
100.6039464743873
 20
194.891261457854
 30
0.0
 10
101.1884531838255
 20
194.5892710217164
 30
0.0
 10
101.5591911849832
 20
194.3977260336871
 30
0.0
  0
ARC
  5
2B1
330
1F
100
AcDbEntity
  8
0
  6
Continuous
 62
     7
370
    25
100
AcDbCircle
 10
96.8634483283
 20
185.0621742628
 30
0.0
 40
10.45000000000002
100
AcDbArc
 50
116.7022046297
 51
202.505197344
  0
LINE
  5
2B2
330
1F
100
AcDbEntity
  8
0
  6
Continuous
 62
     7
370
    25
100
AcDbLine
 10
87.2108374601
 20
181.0584747539
 30
0.0
 11
87.2092700442
 21
181.0622559235
 31
0.0
  0
SPLINE
  5
2B3
330
1F
100
AcDbEntity
  8
0
  6
Continuous
 62
     7
370
    25
100
AcDbSpline
210
0.0
220
0.0
230
1.0
 70
     8
 71
     3
 72
     9
 73
     5
 74
     0
 42
0.000000001
 43
0.00000001
 40
0.0
 40
0.0
 40
0.0
 40
0.0
 40
0.0334440158773679
 40
0.9999999999999999
 40
0.9999999999999999
 40
0.9999999999999999
 40
0.9999999999999999
 10
87.36344863374582
 20
180.2922160670753
 30
0.0
 10
87.36341995810118
 20
180.3009337461619
 30
0.0
 10
87.36256253581251
 20
180.5615985873254
 30
0.0
 10
87.2854098501117
 20
180.8142617052546
 30
0.0
 10
87.21083746005645
 20
181.0584747538562
 30
0.0
  0
SPLINE
  5
2B4
330
1F
100
AcDbEntity
  8
0
  6
Continuous
 62
     7
370
    25
100
AcDbSpline
210
0.0
220
0.0
230
1.0
 70
    24
 71
     3
 72
     9
 73
     5
 74
     0
 42
0.000000001
 43
0.00000001
 40
0.0
 40
0.0
 40
0.0
 40
0.0
 40
0.4231596332638308
 40
1.0
 40
1.0
 40
1.0
 40
1.0
 10
87.36344863374582
 20
178.6801264927383
 30
0.0
 10
87.36344863374582
 20
178.8872639378379
 30
0.0
 10
87.36344863374582
 20
179.3767658392881
 30
0.0
 10
87.36344863374582
 20
179.9573257026064
 30
0.0
 10
87.36344863374582
 20
180.2922160670753
 30
0.0
  0
SPLINE
  5
2B5
330
1F
100
AcDbEntity
  8
0
  6
Continuous
 62
     7
370
    25
100
AcDbSpline
210
0.0
220
0.0
230
1.0
 70
     8
 71
     3
 72
     9
 73
     5
 74
     0
 42
0.000000001
 43
0.00000001
 40
0.0
 40
0.0
 40
0.0
 40
0.0
 40
0.0334440158773679
 40
0.9999999999999999
 40
0.9999999999999999
 40
0.9999999999999999
 40
0.9999999999999999
 10
106.3634480227982
 20
180.2922160670753
 30
0.0
 10
106.3634766984428
 20
180.3009337461619
 30
0.0
 10
106.3643341207315
 20
180.5615985873254
 30
0.0
 10
106.4414868064323
 20
180.8142617052546
 30
0.0
 10
106.5160591964876
 20
181.0584747538562
 30
0.0
  0
LINE
  5
2B6
330
1F
100
AcDbEntity
  8
0
  6
Continuous
 62
     7
370
    25
100
AcDbLine
 10
106.5160591965
 20
181.0584747539
 30
0.0
 11
106.5176266124
 21
181.0622559235
 31
0.0
  0
SPLINE
  5
2B7
330
1F
100
AcDbEntity
  8
0
  6
Continuous
 62
     7
370
    25
100
AcDbSpline
210
0.0
220
0.0
230
1.0
 70
    24
 71
     3
 72
     9
 73
     5
 74
     0
 42
0.000000001
 43
0.00000001
 40
0.0
 40
0.0
 40
0.0
 40
0.0
 40
0.4231596332638308
 40
1.0
 40
1.0
 40
1.0
 40
1.0
 10
106.3634480227982
 20
178.6801264927383
 30
0.0
 10
106.3634480227982
 20
178.8872639378379
 30
0.0
 10
106.3634480227982
 20
179.3767658392881
 30
0.0
 10
106.3634480227982
 20
179.9573257026064
 30
0.0
 10
106.3634480227982
 20
180.2922160670753
 30
0.0
  0
SPLINE
  5
2B8
330
1F
100
AcDbEntity
  8
0
  6
Continuous
 62
     7
370
    25
100
AcDbSpline
210
0.0
220
0.0
230
1.0
 70
    24
 71
     3
 72
    12
 73
     8
 74
     0
 42
0.000000001
 43
0.00000001
 40
0.0
 40
0.0
 40
0.0
 40
0.0
 40
0.0803981192256266
 40
0.309710522195245
 40
0.538794658966603
 40
0.7694334084626983
 40
0.9999999999999999
 40
0.9999999999999999
 40
0.9999999999999999
 40
0.9999999999999999
 10
87.36344863374582
 20
175.4907713577743
 30
0.0
 10
87.36344863374582
 20
175.4868482414271
 30
0.0
 10
87.36344863374582
 20
175.4717355693371
 30
0.0
 10
87.36344863374582
 20
175.7063883463638
 30
0.0
 10
87.36344863374582
 20
176.2930923469847
 30
0.0
 10
87.36344863374582
 20
177.2587030689412
 30
0.0
 10
87.36344863374582
 20
178.2063681071699
 30
0.0
 10
87.36344863374582
 20
178.6801264927383
 30
0.0
  0
SPLINE
  5
2B9
330
1F
100
AcDbEntity
  8
0
  6
Continuous
 62
     7
370
    25
100
AcDbSpline
210
0.0
220
0.0
230
1.0
 70
    24
 71
     3
 72
    12
 73
     8
 74
     0
 42
0.000000001
 43
0.00000001
 40
0.0
 40
0.0
 40
0.0
 40
0.0
 40
0.0803140351778428
 40
0.3071934958007871
 40
0.5387252054370145
 40
0.7656374772884935
 40
1.0
 40
1.0
 40
1.0
 40
1.0
 10
106.3634480227982
 20
175.5124115691181
 30
0.0
 10
106.3634480227982
 20
175.5002391832386
 30
0.0
 10
106.3634480227982
 20
175.4536809725564
 30
0.0
 10
106.3634480227982
 20
175.7110936927535
 30
0.0
 10
106.3634480227982
 20
176.286138508512
 30
0.0
 10
106.3634480227982
 20
177.248063046665
 30
0.0
 10
106.3634480227982
 20
178.1976595612349
 30
0.0
 10
106.3634480227982
 20
178.6801264927383
 30
0.0
  0
SPLINE
  5
2BA
330
1F
100
AcDbEntity
  8
0
  6
Continuous
 62
     7
370
    25
100
AcDbSpline
210
0.0
220
0.0
230
1.0
 70
     8
 71
     3
 72
     9
 73
     5
 74
     0
 42
0.000000001
 43
0.00000001
 40
0.0
 40
0.0
 40
0.0
 40
0.0
 40
0.5581394742500823
 40
1.0
 40
1.0
 40
1.0
 40
1.0
 10
101.1790076148962
 20
194.5765772209163
 30
0.0
 10
100.9262441437258
 20
194.6887982136022
 30
0.0
 10
100.4733762086813
 20
194.8898608473402
 30
0.0
 10
99.91907341557328
 20
195.0466858510792
 30
0.0
 10
99.67414889198592
 20
195.1159806296821
 30
0.0
  0
SPLINE
  5
2BB
330
1F
100
AcDbEntity
  8
0
  6
Continuous
 62
     7
370
    25
100
AcDbSpline
210
0.0
220
0.0
230
1.0
 70
     8
 71
     3
 72
    10
 73
     6
 74
     0
 42
0.000000001
 43
0.00000001
 40
0.0
 40
0.0
 40
0.0
 40
0.0
 40
0.2927350557829733
 40
0.6714733961494698
 40
1.0
 40
1.0
 40
1.0
 40
1.0
 10
93.95159449142268
 20
195.0927906975742
 30
0.0
 10
93.72749207174796
 20
195.0248650027186
 30
0.0
 10
93.21344768296845
 20
194.8690575717005
 30
0.0
 10
92.54136226285969
 20
194.5871037676445
 30
0.0
 10
92.14870711993379
 20
194.3840975986865
 30
0.0
 10
91.96631767500988
 20
194.2898006484504
 30
0.0
  0
LINE
  5
2BC
330
1F
100
AcDbEntity
  8
0
  6
Continuous
 62
     7
370
    25
100
AcDbLine
 10
123.2634481852
 20
249.5621749506
 30
0.0
 11
70.4634484713
 21
249.5621749506
 31
0.0
  0
LINE
  5
2BD
330
1F
100
AcDbEntity
  8
0
  6
Continuous
 62
     7
370
    25
100
AcDbLine
 10
87.5479482924
 20
260.5792739735
 30
0.0
 11
106.1789483642
 21
260.5792739735
 31
0.0
  0
LINE
  5
2BE
330
1F
100
AcDbEntity
  8
0
  6
Continuous
 62
     7
370
    25
100
AcDbLine
 10
107.3409483646
 20
259.417273973
 30
0.0
 11
86.3859482919
 21
259.417273973
 31
0.0
  0
LINE
  5
2BF
330
1F
100
AcDbEntity
  8
0
  6
Continuous
 62
     8
370
    18
100
AcDbLine
 10
124.3634481793
 20
248.7621744469
 30
0.0
 11
69.3634484773
 21
248.7621744469
 31
0.0
  0
LINE
  5
2C0
330
1F
100
AcDbEntity
  8
0
  6
Continuous
 62
     8
370
    18
100
AcDbLine
 10
69.3634484773
 20
243.8621734575
 30
0.0
 11
124.3634481793
 21
243.8621734575
 31
0.0
  0
LINE
  5
2C1
330
1F
100
AcDbEntity
  8
0
  6
Continuous
 62
     8
370
    18
100
AcDbLine
 10
77.8634489392
 20
241.0621744887
 30
0.0
 11
115.8634477173
 21
241.0621744887
 31
0.0
  0
LINE
  5
2C2
330
1F
100
AcDbEntity
  8
0
  6
Continuous
 62
     8
370
    18
100
AcDbLine
 10
106.6372587224
 20
193.0621759341
 30
0.0
 11
115.8634477173
 21
193.0621759341
 31
0.0
  0
SPLINE
  5
2C3
330
1F
100
AcDbEntity
  8
0
  6
Continuous
 62
     8
370
    18
100
AcDbSpline
210
0.0
220
0.0
230
1.0
 70
     8
 71
     3
 72
    20
 73
    16
 74
     0
 42
0.000000001
 43
0.00000001
 40
0.0
 40
0.0
 40
0.0
 40
0.0
 40
0.098285184474552
 40
0.1965241884633674
 40
0.263255479875011
 40
0.330236906450977
 40
0.3968929061804534
 40
0.4824252826186385
 40
0.5679496194831648
 40
0.6435969830145952
 40
0.7192766451888076
 40
0.7985749732021661
 40
0.8779112703158127
 40
0.9389536709721878
 40
1.0
 40
1.0
 40
1.0
 40
1.0
 10
87.08963793416372
 20
193.0621759340759
 30
0.0
 10
87.56649190131603
 20
193.5841969703611
 30
0.0
 10
88.51997578000184
 20
194.6279937650177
 30
0.0
 10
90.08913334198346
 20
195.7425308330952
 30
0.0
 10
91.60910949632974
 20
196.5380784292769
 30
0.0
 10
93.01597158136917
 20
197.0736286617731
 30
0.0
 10
94.63321058877676
 20
197.4824646364803
 30
0.0
 10
96.45643077737108
 20
197.6775950395768
 30
0.0
 10
98.36152467124073
 20
197.5947562576662
 30
0.0
 10
100.1419684149378
 20
197.248051205556
 30
0.0
 10
101.7929037585008
 20
196.6921488674836
 30
0.0
 10
103.3493502727809
 20
195.9146053579282
 30
0.0
 10
104.6710987334205
 20
195.0062491942855
 30
0.0
 10
105.7681755064828
 20
194.050218248213
 30
0.0
 10
106.3475581029393
 20
193.3915304368479
 30
0.0
 10
106.6372587223803
 20
193.0621759340759
 30
0.0
  0
LINE
  5
2C4
330
1F
100
AcDbEntity
  8
0
  6
Continuous
 62
     8
370
    18
100
AcDbLine
 10
87.0896379342
 20
193.0621759341
 30
0.0
 11
77.8634489392
 21
193.0621759341
 31
0.0
  0
LINE
  5
2C5
330
1F
100
AcDbEntity
  8
0
  6
Continuous
 62
     8
370
    18
100
AcDbLine
 10
93.0026994896
 20
237.7607281626
 30
0.0
 11
92.7277805162
 21
237.7607281626
 31
0.0
  0
SPLINE
  5
2C6
330
1F
100
AcDbEntity
  8
0
  6
Continuous
 62
     8
370
    18
100
AcDbSpline
210
0.0
220
0.0
230
1.0
 70
     8
 71
     3
 72
    12
 73
     8
 74
     0
 42
0.000000001
 43
0.00000001
 40
0.0
 40
0.0
 40
0.0
 40
0.0
 40
0.2908925939140993
 40
0.4989181639137288
 40
0.7076824271341714
 40
0.9036701890175932
 40
1.0
 40
1.0
 40
1.0
 40
1.0
 10
93.41438877110234
 20
237.2549874082799
 30
0.0
 10
93.4093065504252
 20
237.3262287282661
 30
0.0
 10
93.4005898891492
 20
237.4484167430383
 30
0.0
 10
93.318960805921
 20
237.6040924418542
 30
0.0
 10
93.2080470862409
 20
237.7046851854323
 30
0.0
 10
93.09513802102134
 20
237.7536644005347
 30
0.0
 10
93.02561122563809
 20
237.7589773445143
 30
0.0
 10
93.00269948963872
 20
237.7607281625862
 30
0.0
  0
LINE
  5
2C7
330
1F
100
AcDbEntity
  8
0
  6
Continuous
 62
     8
370
    18
100
AcDbLine
 10
93.4143887711
 20
237.1557689578
 30
0.0
 11
93.4143887711
 21
237.2549874083
 31
0.0
  0
LINE
  5
2C8
330
1F
100
AcDbEntity
  8
0
  6
Continuous
 62
     8
370
    18
100
AcDbLine
 10
93.7361609535
 20
237.1557689578
 30
0.0
 11
93.4143887711
 21
237.1557689578
 31
0.0
  0
LINE
  5
2C9
330
1F
100
AcDbEntity
  8
0
  6
Continuous
 62
     8
370
    18
100
AcDbLine
 10
93.7361609535
 20
238.0621739969
 30
0.0
 11
93.7361609535
 21
237.1557689578
 31
0.0
  0
LINE
  5
2CA
330
1F
100
AcDbEntity
  8
0
  6
Continuous
 62
     8
370
    18
100
AcDbLine
 10
91.1134078046
 20
238.0621739969
 30
0.0
 11
93.7361609535
 21
238.0621739969
 31
0.0
  0
LINE
  5
2CB
330
1F
100
AcDbEntity
  8
0
  6
Continuous
 62
     8
370
    18
100
AcDbLine
 10
91.1134078046
 20
237.1557689578
 30
0.0
 11
91.1134078046
 21
238.0621739969
 31
0.0
  0
LINE
  5
2CC
330
1F
100
AcDbEntity
  8
0
  6
Continuous
 62
     8
370
    18
100
AcDbLine
 10
91.4351802198
 20
237.1557689578
 30
0.0
 11
91.1134078046
 21
237.1557689578
 31
0.0
  0
LINE
  5
2CD
330
1F
100
AcDbEntity
  8
0
  6
Continuous
 62
     8
370
    18
100
AcDbLine
 10
91.4351802198
 20
237.2549874083
 30
0.0
 11
91.4351802198
 21
237.1557689578
 31
0.0
  0
SPLINE
  5
2CE
330
1F
100
AcDbEntity
  8
0
  6
Continuous
 62
     8
370
    18
100
AcDbSpline
210
0.0
220
0.0
230
1.0
 70
     8
 71
     3
 72
    12
 73
     8
 74
     0
 42
0.000000001
 43
0.00000001
 40
0.0
 40
0.0
 40
0.0
 40
0.0
 40
0.1830962992623722
 40
0.3649120012601246
 40
0.5665338384131723
 40
0.7643723309657755
 40
1.0
 40
1.0
 40
1.0
 40
1.0
 10
91.8465249118661
 20
237.7607281625862
 30
0.0
 10
91.80325276109306
 20
237.7550902056864
 30
0.0
 10
91.71701111010924
 20
237.7438537244268
 30
0.0
 10
91.59875412987594
 20
237.6723602041205
 30
0.0
 10
91.50541443995695
 20
237.5654911248801
 30
0.0
 10
91.44488503325526
 20
237.4196160583094
 30
0.0
 10
91.43859786086729
 20
237.3129629317229
 30
0.0
 10
91.43518021975508
 20
237.2549874082799
 30
0.0
  0
LINE
  5
2CF
330
1F
100
AcDbEntity
  8
0
  6
Continuous
 62
     8
370
    18
100
AcDbLine
 10
92.1214434197
 20
237.7607281626
 30
0.0
 11
91.8465249119
 21
237.7607281626
 31
0.0
  0
LINE
  5
2D0
330
1F
100
AcDbEntity
  8
0
  6
Continuous
 62
     8
370
    18
100
AcDbLine
 10
92.1214434197
 20
236.1060473443
 30
0.0
 11
92.1214434197
 21
237.7607281626
 31
0.0
  0
SPLINE
  5
2D1
330
1F
100
AcDbEntity
  8
0
  6
Continuous
 62
     8
370
    18
100
AcDbSpline
210
0.0
220
0.0
230
1.0
 70
     8
 71
     3
 72
    12
 73
     8
 74
     0
 42
0.000000001
 43
0.00000001
 40
0.0
 40
0.0
 40
0.0
 40
0.0
 40
0.2220359507406151
 40
0.4441604959603919
 40
0.6647834849711862
 40
0.8808856766020422
 40
1.0
 40
1.0
 40
1.0
 40
1.0
 10
91.96021285553327
 20
235.9444731221195
 30
0.0
 10
91.9786468235071
 20
235.9463220356558
 30
0.0
 10
92.01552211478526
 20
235.9500206004626
 30
0.0
 10
92.06460919636022
 20
235.9792080676993
 30
0.0
 10
92.10130827585664
 20
236.0218720697277
 30
0.0
 10
92.11924841268086
 20
236.0671604643462
 30
0.0
 10
92.12086794304213
 20
236.0958521648975
 30
0.0
 10
92.1214434196507
 20
236.1060473442669
 30
0.0
  0
LINE
  5
2D2
330
1F
100
AcDbEntity
  8
0
  6
Continuous
 62
     8
370
    18
100
AcDbLine
 10
91.6174256121
 20
235.9444731221
 30
0.0
 11
91.9602128555
 21
235.9444731221
 31
0.0
  0
LINE
  5
2D3
330
1F
100
AcDbEntity
  8
0
  6
Continuous
 62
     8
370
    18
100
AcDbLine
 10
91.6174256121
 20
235.6426817671
 30
0.0
 11
91.6174256121
 21
235.9444731221
 31
0.0
  0
LINE
  5
2D4
330
1F
100
AcDbEntity
  8
0
  6
Continuous
 62
     8
370
    18
100
AcDbLine
 10
93.2314539672
 20
235.6426817671
 30
0.0
 11
91.6174256121
 21
235.6426817671
 31
0.0
  0
LINE
  5
2D5
330
1F
100
AcDbEntity
  8
0
  6
Continuous
 62
     8
370
    18
100
AcDbLine
 10
93.2314539672
 20
235.9444731221
 30
0.0
 11
93.2314539672
 21
235.6426817671
 31
0.0
  0
LINE
  5
2D6
330
1F
100
AcDbEntity
  8
0
  6
Continuous
 62
     8
370
    18
100
AcDbLine
 10
92.8890110803
 20
235.9444731221
 30
0.0
 11
93.2314539672
 21
235.9444731221
 31
0.0
  0
SPLINE
  5
2D7
330
1F
100
AcDbEntity
  8
0
  6
Continuous
 62
     8
370
    18
100
AcDbSpline
210
0.0
220
0.0
230
1.0
 70
     8
 71
     3
 72
    12
 73
     8
 74
     0
 42
0.000000001
 43
0.00000001
 40
0.0
 40
0.0
 40
0.0
 40
0.0
 40
0.2081879178500658
 40
0.4163133650820692
 40
0.6273974852229858
 40
0.8449565164577149
 40
1.0
 40
1.0
 40
1.0
 40
1.0
 10
92.72778051619282
 20
236.1060473442669
 30
0.0
 10
92.72949031506325
 20
236.0882450773417
 30
0.0
 10
92.7329093997475
 20
236.0526458853891
 30
0.0
 10
92.75976737714412
 20
236.0050700869601
 30
0.0
 10
92.79943995954272
 20
235.9683117433165
 30
0.0
 10
92.84502462468329
 20
235.9475824228475
 30
0.0
 10
92.87608610157298
 20
235.9453867589476
 30
0.0
 10
92.88901108031025
 20
235.9444731221195
 30
0.0
  0
LINE
  5
2D8
330
1F
100
AcDbEntity
  8
0
  6
Continuous
 62
     8
370
    18
100
AcDbLine
 10
92.7277805162
 20
237.7607281626
 30
0.0
 11
92.7277805162
 21
236.1060473443
 31
0.0
  0
SPLINE
  5
2D9
330
1F
100
AcDbEntity
  8
0
  6
Continuous
 62
     8
370
    18
100
AcDbSpline
210
0.0
220
0.0
230
1.0
 70
     8
 71
     3
 72
    10
 73
     6
 74
     0
 42
0.000000001
 43
0.00000001
 40
0.0
 40
0.0
 40
0.0
 40
0.0
 40
0.271674779135854
 40
0.7342378586194824
 40
1.0
 40
1.0
 40
1.0
 40
1.0
 10
94.3635131110703
 20
237.8423772127028
 30
0.0
 10
94.44138043531613
 20
237.8986024309488
 30
0.0
 10
94.65182741752237
 20
238.0505586926847
 30
0.0
 10
95.00130247154392
 20
238.1486257831004
 30
0.0
 10
95.25792643200712
 20
238.1597466320705
 30
0.0
 10
95.35156720031848
 20
238.1638045728798
 30
0.0
  0
SPLINE
  5
2DA
330
1F
100
AcDbEntity
  8
0
  6
Continuous
 62
     8
370
    18
100
AcDbSpline
210
0.0
220
0.0
230
1.0
 70
     8
 71
     3
 72
    10
 73
     6
 74
     0
 42
0.000000001
 43
0.00000001
 40
0.0
 40
0.0
 40
0.0
 40
0.0
 40
0.2729875099199263
 40
0.6569113395451223
 40
1.0
 40
1.0
 40
1.0
 40
1.0
 10
93.93769915860942
 20
236.923569750845
 30
0.0
 10
93.9444627340063
 20
237.0185205167161
 30
0.0
 10
93.96073845803255
 20
237.2470080208423
 30
0.0
 10
94.10127387009393
 20
237.5778693612131
 30
0.0
 10
94.27943572281565
 20
237.7575724777466
 30
0.0
 10
94.3635131110703
 20
237.8423772127028
 30
0.0
  0
LINE
  5
2DB
330
1F
100
AcDbEntity
  8
0
  6
Continuous
 62
     8
370
    18
100
AcDbLine
 10
93.9376991586
 20
236.8546677128
 30
0.0
 11
93.9376991586
 21
236.9235697508
 31
0.0
  0
LINE
  5
2DC
330
1F
100
AcDbEntity
  8
0
  6
Continuous
 62
     8
370
    18
100
AcDbLine
 10
93.9376991586
 20
236.7823207126
 30
0.0
 11
93.9376991586
 21
236.8546677128
 31
0.0
  0
SPLINE
  5
2DD
330
1F
100
AcDbEntity
  8
0
  6
Continuous
 62
     8
370
    18
100
AcDbSpline
210
0.0
220
0.0
230
1.0
 70
     8
 71
     3
 72
    10
 73
     6
 74
     0
 42
0.000000001
 43
0.00000001
 40
0.0
 40
0.0
 40
0.0
 40
0.0
 40
0.2720730641135162
 40
0.6604568748899181
 40
1.0
 40
1.0
 40
1.0
 40
1.0
 10
94.3635131110703
 20
235.8635132507081
 30
0.0
 10
94.29599499505714
 20
235.9294760596559
 30
0.0
 10
94.13209488959907
 20
236.0896006600039
 30
0.0
 10
93.97044788875527
 20
236.4105614076718
 30
0.0
 10
93.94811594366354
 20
236.6640707299344
 30
0.0
 10
93.93769915860942
 20
236.7823207125659
 30
0.0
  0
SPLINE
  5
2DE
330
1F
100
AcDbEntity
  8
0
  6
Continuous
 62
     8
370
    18
100
AcDbSpline
210
0.0
220
0.0
230
1.0
 70
     8
 71
     3
 72
    10
 73
     6
 74
     0
 42
0.000000001
 43
0.00000001
 40
0.0
 40
0.0
 40
0.0
 40
0.0
 40
0.2707387314218188
 40
0.531898114796554
 40
1.0
 40
1.0
 40
1.0
 40
1.0
 10
95.35156720031848
 20
235.5438079059716
 30
0.0
 10
95.25621400257857
 20
235.5479819399329
 30
0.0
 10
95.06888141868365
 20
235.5561823211029
 30
0.0
 10
94.72099607077226
 20
235.632716819497
 30
0.0
 10
94.50326891267159
 20
235.7732847814197
 30
0.0
 10
94.3635131110703
 20
235.8635132507081
 30
0.0
  0
SPLINE
  5
2DF
330
1F
100
AcDbEntity
  8
0
  6
Continuous
 62
     8
370
    18
100
AcDbSpline
210
0.0
220
0.0
230
1.0
 70
     8
 71
     3
 72
    10
 73
     6
 74
     0
 42
0.000000001
 43
0.00000001
 40
0.0
 40
0.0
 40
0.0
 40
0.0
 40
0.2716706515654184
 40
0.7382746500090476
 40
1.0
 40
1.0
 40
1.0
 40
1.0
 10
96.34031023544124
 20
235.8635132507081
 30
0.0
 10
96.2619405085995
 20
235.8078259252832
 30
0.0
 10
96.04896799087629
 20
235.6564936394764
 30
0.0
 10
95.6993038358377
 20
235.5587352662621
 30
0.0
 10
95.44349292197879
 20
235.5477540198607
 30
0.0
 10
95.35156720031848
 20
235.5438079059716
 30
0.0
  0
SPLINE
  5
2E0
330
1F
100
AcDbEntity
  8
0
  6
Continuous
 62
     8
370
    18
100
AcDbSpline
210
0.0
220
0.0
230
1.0
 70
     8
 71
     3
 72
    10
 73
     6
 74
     0
 42
0.000000001
 43
0.00000001
 40
0.0
 40
0.0
 40
0.0
 40
0.0
 40
0.2730704819943343
 40
0.6644082805850485
 40
1.0
 40
1.0
 40
1.0
 40
1.0
 10
96.76267921842266
 20
236.7823207125659
 30
0.0
 10
96.75592850617869
 20
236.6877445157152
 30
0.0
 10
96.73950333608344
 20
236.4576310011567
 30
0.0
 10
96.59915382604069
 20
236.1276204973496
 30
0.0
 10
96.42206461603102
 20
235.9469301292503
 30
0.0
 10
96.34031023544124
 20
235.8635132507081
 30
0.0
  0
LINE
  5
2E1
330
1F
100
AcDbEntity
  8
0
  6
Continuous
 62
     8
370
    18
100
AcDbLine
 10
96.7626792184
 20
236.8546677128
 30
0.0
 11
96.7626792184
 21
236.7823207126
 31
0.0
  0
LINE
  5
2E2
330
1F
100
AcDbEntity
  8
0
  6
Continuous
 62
     8
370
    18
100
AcDbLine
 10
96.7626792184
 20
236.9235697508
 30
0.0
 11
96.7626792184
 21
236.8546677128
 31
0.0
  0
SPLINE
  5
2E3
330
1F
100
AcDbEntity
  8
0
  6
Continuous
 62
     8
370
    18
100
AcDbSpline
210
0.0
220
0.0
230
1.0
 70
     8
 71
     3
 72
    10
 73
     6
 74
     0
 42
0.000000001
 43
0.00000001
 40
0.0
 40
0.0
 40
0.0
 40
0.0
 40
0.2741707436713655
 40
0.6653487805285289
 40
1.0
 40
1.0
 40
1.0
 40
1.0
 10
96.34031023544124
 20
237.8423772127028
 30
0.0
 10
96.40805615574529
 20
237.7754767880033
 30
0.0
 10
96.57245978560196
 20
237.6131249798032
 30
0.0
 10
96.73114219646202
 20
237.2913906240941
 30
0.0
 10
96.75272721732648
 20
237.0396413868523
 30
0.0
 10
96.76267921842266
 20
236.923569750845
 30
0.0
  0
SPLINE
  5
2E4
330
1F
100
AcDbEntity
  8
0
  6
Continuous
 62
     8
370
    18
100
AcDbSpline
210
0.0
220
0.0
230
1.0
 70
     8
 71
     3
 72
    10
 73
     6
 74
     0
 42
0.000000001
 43
0.00000001
 40
0.0
 40
0.0
 40
0.0
 40
0.0
 40
0.2704122497635583
 40
0.5284955593135552
 40
1.0
 40
1.0
 40
1.0
 40
1.0
 10
95.35156720031848
 20
238.1638045728798
 30
0.0
 10
95.44664839886832
 20
238.1596479219018
 30
0.0
 10
95.63247574674826
 20
238.1515241346641
 30
0.0
 10
95.98072520031712
 20
238.0748555242167
 30
0.0
 10
96.19915042926921
 20
237.9336396129336
 30
0.0
 10
96.34031023544124
 20
237.8423772127028
 30
0.0
  0
LINE
  5
2E5
330
1F
100
AcDbEntity
  8
0
  6
Continuous
 62
     8
370
    18
100
AcDbLine
 10
98.8538534724
 20
237.7607281626
 30
0.0
 11
98.58031274
 21
237.7607281626
 31
0.0
  0
SPLINE
  5
2E6
330
1F
100
AcDbEntity
  8
0
  6
Continuous
 62
     8
370
    18
100
AcDbSpline
210
0.0
220
0.0
230
1.0
 70
     8
 71
     3
 72
    12
 73
     8
 74
     0
 42
0.000000001
 43
0.00000001
 40
0.0
 40
0.0
 40
0.0
 40
0.0
 40
0.2919102931143973
 40
0.5012340223698454
 40
0.7113654718151556
 40
0.9071963785314562
 40
1.0
 40
1.0
 40
1.0
 40
1.0
 10
99.26588734325817
 20
237.2549874082799
 30
0.0
 10
99.26083500690036
 20
237.3261083006582
 30
0.0
 10
99.25215972913618
 20
237.4482287321816
 30
0.0
 10
99.17051129268775
 20
237.6042955292467
 30
0.0
 10
99.05886475433866
 20
237.7053139031714
 30
0.0
 10
98.9455111521631
 20
237.75393125734
 30
0.0
 10
98.87615371855328
 20
237.7590744805353
 30
0.0
 10
98.85385347244194
 20
237.7607281625862
 30
0.0
  0
LINE
  5
2E7
330
1F
100
AcDbEntity
  8
0
  6
Continuous
 62
     8
370
    18
100
AcDbLine
 10
99.2658873433
 20
237.1557689578
 30
0.0
 11
99.2658873433
 21
237.2549874083
 31
0.0
  0
LINE
  5
2E8
330
1F
100
AcDbEntity
  8
0
  6
Continuous
 62
     8
370
    18
100
AcDbLine
 10
99.5876592928
 20
237.1557689578
 30
0.0
 11
99.2658873433
 21
237.1557689578
 31
0.0
  0
LINE
  5
2E9
330
1F
100
AcDbEntity
  8
0
  6
Continuous
 62
     8
370
    18
100
AcDbLine
 10
99.5876592928
 20
238.0621739969
 30
0.0
 11
99.5876592928
 21
237.1557689578
 31
0.0
  0
LINE
  5
2EA
330
1F
100
AcDbEntity
  8
0
  6
Continuous
 62
     8
370
    18
100
AcDbLine
 10
96.9642174381
 20
238.0621739969
 30
0.0
 11
99.5876592928
 21
238.0621739969
 31
0.0
  0
LINE
  5
2EB
330
1F
100
AcDbEntity
  8
0
  6
Continuous
 62
     8
370
    18
100
AcDbLine
 10
96.9642174381
 20
237.1557689578
 30
0.0
 11
96.9642174381
 21
238.0621739969
 31
0.0
  0
LINE
  5
2EC
330
1F
100
AcDbEntity
  8
0
  6
Continuous
 62
     8
370
    18
100
AcDbLine
 10
97.285645053
 20
237.1557689578
 30
0.0
 11
96.9642174381
 21
237.1557689578
 31
0.0
  0
LINE
  5
2ED
330
1F
100
AcDbEntity
  8
0
  6
Continuous
 62
     8
370
    18
100
AcDbLine
 10
97.285645053
 20
237.2549874083
 30
0.0
 11
97.285645053
 21
237.1557689578
 31
0.0
  0
SPLINE
  5
2EE
330
1F
100
AcDbEntity
  8
0
  6
Continuous
 62
     8
370
    18
100
AcDbSpline
210
0.0
220
0.0
230
1.0
 70
     8
 71
     3
 72
    12
 73
     8
 74
     0
 42
0.000000001
 43
0.00000001
 40
0.0
 40
0.0
 40
0.0
 40
0.0
 40
0.1759288238165616
 40
0.3504885549686524
 40
0.5462005291372847
 40
0.7437555593385792
 40
1.0
 40
1.0
 40
1.0
 40
1.0
 10
97.69836778233623
 20
237.7607281625862
 30
0.0
 10
97.65593303659426
 20
237.7552776395514
 30
0.0
 10
97.57139377581306
 20
237.7444190099028
 30
0.0
 10
97.45510857826326
 20
237.675862882118
 30
0.0
 10
97.36156254058018
 20
237.5733467117306
 30
0.0
 10
97.29650782823957
 20
237.4271662167581
 30
0.0
 10
97.28956526934235
 20
237.3171242166606
 30
0.0
 10
97.28564505295692
 20
237.2549874082799
 30
0.0
  0
LINE
  5
2EF
330
1F
100
AcDbEntity
  8
0
  6
Continuous
 62
     8
370
    18
100
AcDbLine
 10
97.9732865812
 20
237.7607281626
 30
0.0
 11
97.6983677823
 21
237.7607281626
 31
0.0
  0
LINE
  5
2F0
330
1F
100
AcDbEntity
  8
0
  6
Continuous
 62
     8
370
    18
100
AcDbLine
 10
97.9732865812
 20
236.1060473443
 30
0.0
 11
97.9732865812
 21
237.7607281626
 31
0.0
  0
SPLINE
  5
2F1
330
1F
100
AcDbEntity
  8
0
  6
Continuous
 62
     8
370
    18
100
AcDbSpline
210
0.0
220
0.0
230
1.0
 70
     8
 71
     3
 72
    12
 73
     8
 74
     0
 42
0.000000001
 43
0.00000001
 40
0.0
 40
0.0
 40
0.0
 40
0.0
 40
0.2156837227909611
 40
0.4315086189346163
 40
0.6453606851413947
 40
0.8601041875461974
 40
1.0
 40
1.0
 40
1.0
 40
1.0
 10
97.81136695475182
 20
235.9444731221195
 30
0.0
 10
97.82964099118921
 20
235.946224919191
 30
0.0
 10
97.86620102512885
 20
235.9497296599532
 30
0.0
 10
97.91477557046944
 20
235.9777183470299
 30
0.0
 10
97.95134494186088
 20
236.0188386723168
 30
0.0
 10
97.97061026010692
 20
236.0642372358795
 30
0.0
 10
97.9725294941752
 20
236.0942199557588
 30
0.0
 10
97.97328658115914
 20
236.1060473442669
 30
0.0
  0
LINE
  5
2F2
330
1F
100
AcDbEntity
  8
0
  6
Continuous
 62
     8
370
    18
100
AcDbLine
 10
97.4699577777
 20
235.9444731221
 30
0.0
 11
97.8113669548
 21
235.9444731221
 31
0.0
  0
LINE
  5
2F3
330
1F
100
AcDbEntity
  8
0
  6
Continuous
 62
     8
370
    18
100
AcDbLine
 10
97.4699577777
 20
235.6426817671
 30
0.0
 11
97.4699577777
 21
235.9444731221
 31
0.0
  0
LINE
  5
2F4
330
1F
100
AcDbEntity
  8
0
  6
Continuous
 62
     8
370
    18
100
AcDbLine
 10
99.0832971287
 20
235.6426817671
 30
0.0
 11
97.4699577777
 21
235.6426817671
 31
0.0
  0
LINE
  5
2F5
330
1F
100
AcDbEntity
  8
0
  6
Continuous
 62
     8
370
    18
100
AcDbLine
 10
99.0832971287
 20
235.9444731221
 30
0.0
 11
99.0832971287
 21
235.6426817671
 31
0.0
  0
LINE
  5
2F6
330
1F
100
AcDbEntity
  8
0
  6
Continuous
 62
     8
370
    18
100
AcDbLine
 10
98.7401652959
 20
235.9444731221
 30
0.0
 11
99.0832971287
 21
235.9444731221
 31
0.0
  0
SPLINE
  5
2F7
330
1F
100
AcDbEntity
  8
0
  6
Continuous
 62
     8
370
    18
100
AcDbSpline
210
0.0
220
0.0
230
1.0
 70
     8
 71
     3
 72
    12
 73
     8
 74
     0
 42
0.000000001
 43
0.00000001
 40
0.0
 40
0.0
 40
0.0
 40
0.0
 40
0.2155905955257152
 40
0.4312133412980057
 40
0.6471394675580133
 40
0.863543703207273
 40
1.0
 40
1.0
 40
1.0
 40
1.0
 10
98.58031273999116
 20
236.1060473442669
 30
0.0
 10
98.5820760809303
 20
236.0878635758225
 30
0.0
 10
98.58560302576929
 20
236.0514933272538
 30
0.0
 10
98.6134117802635
 20
236.003028244127
 30
0.0
 10
98.654247161455
 20
235.966301363299
 30
0.0
 10
98.69923199718194
 20
235.9470833847936
 30
0.0
 10
98.72875018403528
 20
235.945201048806
 30
0.0
 10
98.74016529594412
 20
235.9444731221195
 30
0.0
  0
LINE
  5
2F8
330
1F
100
AcDbEntity
  8
0
  6
Continuous
 62
     8
370
    18
100
AcDbLine
 10
98.58031274
 20
237.7607281626
 30
0.0
 11
98.58031274
 21
236.1060473443
 31
0.0
  0
SPLINE
  5
2F9
330
1F
100
AcDbEntity
  8
0
  6
Continuous
 62
     8
370
    18
100
AcDbSpline
210
0.0
220
0.0
230
1.0
 70
     8
 71
     3
 72
    10
 73
     6
 74
     0
 42
0.000000001
 43
0.00000001
 40
0.0
 40
0.0
 40
0.0
 40
0.0
 40
0.2676971310680363
 40
0.7303146752533185
 40
1.0
 40
1.0
 40
1.0
 40
1.0
 10
100.2146670938735
 20
237.8423772127028
 30
0.0
 10
100.2920827386516
 20
237.8981459493524
 30
0.0
 10
100.5032832892516
 20
238.0502907505802
 30
0.0
 10
100.8526845038711
 20
238.1485706994491
 30
0.0
 10
101.1085089103525
 20
238.1597043727685
 30
0.0
 10
101.2027214159524
 20
238.1638045728798
 30
0.0
  0
SPLINE
  5
2FA
330
1F
100
AcDbEntity
  8
0
  6
Continuous
 62
     8
370
    18
100
AcDbSpline
210
0.0
220
0.0
230
1.0
 70
     8
 71
     3
 72
    10
 73
     6
 74
     0
 42
0.000000001
 43
0.00000001
 40
0.0
 40
0.0
 40
0.0
 40
0.0
 40
0.2730228673182411
 40
0.6571091704517973
 40
1.0
 40
1.0
 40
1.0
 40
1.0
 10
99.790920211867
 20
236.923569750845
 30
0.0
 10
99.79765126574456
 20
237.0185114241906
 30
0.0
 10
99.81385151033653
 20
237.2470162554019
 30
0.0
 10
99.95390420214446
 20
237.5780389962033
 30
0.0
 10
100.1310930385536
 20
237.7576572719842
 30
0.0
 10
100.2146670938735
 20
237.8423772127028
 30
0.0
  0
LINE
  5
2FB
330
1F
100
AcDbEntity
  8
0
  6
Continuous
 62
     8
370
    18
100
AcDbLine
 10
99.7909202119
 20
236.8546677128
 30
0.0
 11
99.7909202119
 21
236.9235697508
 31
0.0
  0
LINE
  5
2FC
330
1F
100
AcDbEntity
  8
0
  6
Continuous
 62
     8
370
    18
100
AcDbLine
 10
99.7909202119
 20
236.7823207126
 30
0.0
 11
99.7909202119
 21
236.8546677128
 31
0.0
  0
SPLINE
  5
2FD
330
1F
100
AcDbEntity
  8
0
  6
Continuous
 62
     8
370
    18
100
AcDbSpline
210
0.0
220
0.0
230
1.0
 70
     8
 71
     3
 72
    10
 73
     6
 74
     0
 42
0.000000001
 43
0.00000001
 40
0.0
 40
0.0
 40
0.0
 40
0.0
 40
0.2721420577258283
 40
0.6594988762199329
 40
1.0
 40
1.0
 40
1.0
 40
1.0
 10
100.2146670938735
 20
235.8635132507081
 30
0.0
 10
100.147513897901
 20
235.9294592559243
 30
0.0
 10
99.98477735637374
 20
236.089270336559
 30
0.0
 10
99.82361444872525
 20
236.4103202058464
 30
0.0
 10
99.80134032692483
 20
236.6637588969653
 30
0.0
 10
99.790920211867
 20
236.7823207125659
 30
0.0
  0
SPLINE
  5
2FE
330
1F
100
AcDbEntity
  8
0
  6
Continuous
 62
     8
370
    18
100
AcDbSpline
210
0.0
220
0.0
230
1.0
 70
     8
 71
     3
 72
    10
 73
     6
 74
     0
 42
0.000000001
 43
0.00000001
 40
0.0
 40
0.0
 40
0.0
 40
0.0
 40
0.2667788788061441
 40
0.5317280256519179
 40
1.0
 40
1.0
 40
1.0
 40
1.0
 10
101.2027214159524
 20
235.5438079059716
 30
0.0
 10
101.1095724733824
 20
235.5478074930134
 30
0.0
 10
100.9239134603977
 20
235.5557792354943
 30
0.0
 10
100.57648959701
 20
235.6310240096066
 30
0.0
 10
100.3556844151848
 20
235.7729024961817
 30
0.0
 10
100.2146670938735
 20
235.8635132507081
 30
0.0
  0
SPLINE
  5
2FF
330
1F
100
AcDbEntity
  8
0
  6
Continuous
 62
     8
370
    18
100
AcDbSpline
210
0.0
220
0.0
230
1.0
 70
     8
 71
     3
 72
    10
 73
     6
 74
     0
 42
0.000000001
 43
0.00000001
 40
0.0
 40
0.0
 40
0.0
 40
0.0
 40
0.2647661224236926
 40
0.742062058419744
 40
1.0
 40
1.0
 40
1.0
 40
1.0
 10
102.1914642182445
 20
235.8635132507081
 30
0.0
 10
102.1151739267985
 20
235.8088861338063
 30
0.0
 10
101.901354537106
 20
235.6557822909028
 30
0.0
 10
101.5526186871263
 20
235.5586960620817
 30
0.0
 10
101.2935936901655
 20
235.5476745283091
 30
0.0
 10
101.2027214159524
 20
235.5438079059716
 30
0.0
  0
SPLINE
  5
300
330
1F
100
AcDbEntity
  8
0
  6
Continuous
 62
     8
370
    18
100
AcDbSpline
210
0.0
220
0.0
230
1.0
 70
     8
 71
     3
 72
    10
 73
     6
 74
     0
 42
0.000000001
 43
0.00000001
 40
0.0
 40
0.0
 40
0.0
 40
0.0
 40
0.2705931250676273
 40
0.6476225648502407
 40
1.0
 40
1.0
 40
1.0
 40
1.0
 10
102.6145221543764
 20
236.7823207125659
 30
0.0
 10
102.6077480120332
 20
236.6876485844083
 30
0.0
 10
102.5915351557833
 20
236.4610655681475
 30
0.0
 10
102.4517833262275
 20
236.129955356304
 30
0.0
 10
102.2762598459279
 20
235.9503033667329
 30
0.0
 10
102.1914642182445
 20
235.8635132507081
 30
0.0
  0
LINE
  5
301
330
1F
100
AcDbEntity
  8
0
  6
Continuous
 62
     8
370
    18
100
AcDbLine
 10
102.6145221544
 20
236.8546677128
 30
0.0
 11
102.6145221544
 21
236.7823207126
 31
0.0
  0
LINE
  5
302
330
1F
100
AcDbEntity
  8
0
  6
Continuous
 62
     8
370
    18
100
AcDbLine
 10
102.6145221544
 20
236.9235697508
 30
0.0
 11
102.6145221544
 21
236.8546677128
 31
0.0
  0
SPLINE
  5
303
330
1F
100
AcDbEntity
  8
0
  6
Continuous
 62
     8
370
    18
100
AcDbSpline
210
0.0
220
0.0
230
1.0
 70
     8
 71
     3
 72
    10
 73
     6
 74
     0
 42
0.000000001
 43
0.00000001
 40
0.0
 40
0.0
 40
0.0
 40
0.0
 40
0.2713856206463103
 40
0.6561798109622111
 40
1.0
 40
1.0
 40
1.0
 40
1.0
 10
102.1914642182445
 20
237.8423772127028
 30
0.0
 10
102.2578718152291
 20
237.7771491458838
 30
0.0
 10
102.418437892135
 20
237.6194350398351
 30
0.0
 10
102.5810042894382
 20
237.299437569523
 30
0.0
 10
102.6037763998112
 20
237.044072155635
 30
0.0
 10
102.6145221543764
 20
236.923569750845
 30
0.0
  0
SPLINE
  5
304
330
1F
100
AcDbEntity
  8
0
  6
Continuous
 62
     8
370
    18
100
AcDbSpline
210
0.0
220
0.0
230
1.0
 70
     8
 71
     3
 72
    10
 73
     6
 74
     0
 42
0.000000001
 43
0.00000001
 40
0.0
 40
0.0
 40
0.0
 40
0.0
 40
0.2635551629979245
 40
0.5273012115208348
 40
1.0
 40
1.0
 40
1.0
 40
1.0
 10
101.2027214159524
 20
238.1638045728798
 30
0.0
 10
101.2956715935291
 20
238.1598174545234
 30
0.0
 10
101.4816392698584
 20
238.151840330054
 30
0.0
 10
101.8295949575024
 20
238.0766911906834
 30
0.0
 10
102.0499961928289
 20
237.9339791789052
 30
0.0
 10
102.1914642182445
 20
237.8423772127028
 30
0.0
  0
SPLINE
  5
305
330
1F
100
AcDbEntity
  8
0
  6
Continuous
 62
     8
370
    18
100
AcDbSpline
210
0.0
220
0.0
230
1.0
 70
     8
 71
     3
 72
    10
 73
     6
 74
     0
 42
0.000000001
 43
0.00000001
 40
0.0
 40
0.0
 40
0.0
 40
0.0
 40
0.3763837312867486
 40
0.7528442431263015
 40
1.0
 40
1.0
 40
1.0
 40
1.0
 10
94.82860140216401
 20
237.6019087926145
 30
0.0
 10
94.88199130859155
 20
237.6544609045265
 30
0.0
 10
94.98878201274239
 20
237.75957584874
 30
0.0
 10
95.17989302062487
 20
237.8310913262353
 30
0.0
 10
95.30284002423673
 20
237.8384335325088
 30
0.0
 10
95.35156720031848
 20
237.841343444645
 30
0.0
  0
SPLINE
  5
306
330
1F
100
AcDbEntity
  8
0
  6
Continuous
 62
     8
370
    18
100
AcDbSpline
210
0.0
220
0.0
230
1.0
 70
     8
 71
     3
 72
    10
 73
     6
 74
     0
 42
0.000000001
 43
0.00000001
 40
0.0
 40
0.0
 40
0.0
 40
0.0
 40
0.2944241144947577
 40
0.6744775595169059
 40
1.0
 40
1.0
 40
1.0
 40
1.0
 10
95.35156720031848
 20
237.841343444645
 30
0.0
 10
95.40975247980698
 20
237.8373902140395
 30
0.0
 10
95.54304545200988
 20
237.8283340083833
 30
0.0
 10
95.73091745638907
 20
237.7470247531582
 30
0.0
 10
95.83013588205276
 20
237.6477225626872
 30
0.0
 10
95.87591100663742
 20
237.6019087926145
 30
0.0
  0
SPLINE
  5
307
330
1F
100
AcDbEntity
  8
0
  6
Continuous
 62
     8
370
    18
100
AcDbSpline
210
0.0
220
0.0
230
1.0
 70
     8
 71
     3
 72
    10
 73
     6
 74
     0
 42
0.000000001
 43
0.00000001
 40
0.0
 40
0.0
 40
0.0
 40
0.0
 40
0.3573621864995095
 40
0.902898882176998
 40
1.0
 40
1.0
 40
1.0
 40
1.0
 10
95.87591100663742
 20
237.6019087926145
 30
0.0
 10
95.924216588973
 20
237.5249791129285
 30
0.0
 10
96.04626379469705
 20
237.3306112575181
 30
0.0
 10
96.07472170585642
 20
237.0708676920497
 30
0.0
 10
96.07679193231832
 20
236.9090845953241
 30
0.0
 10
96.07710473884693
 20
236.8846395359035
 30
0.0
  0
LINE
  5
308
330
1F
100
AcDbEntity
  8
0
  6
Continuous
 62
     8
370
    18
100
AcDbLine
 10
96.0771047388
 20
236.8846395359
 30
0.0
 11
96.0771047388
 21
236.8219391749
 31
0.0
  0
SPLINE
  5
309
330
1F
100
AcDbEntity
  8
0
  6
Continuous
 62
     8
370
    18
100
AcDbSpline
210
0.0
220
0.0
230
1.0
 70
     8
 71
     3
 72
    10
 73
     6
 74
     0
 42
0.000000001
 43
0.00000001
 40
0.0
 40
0.0
 40
0.0
 40
0.0
 40
0.3489995360050913
 40
0.5984013375747077
 40
1.0
 40
1.0
 40
1.0
 40
1.0
 10
96.07710473884693
 20
236.8219391748901
 30
0.0
 10
96.0737404477061
 20
236.7340685644458
 30
0.0
 10
96.06797196920981
 20
236.5834039205176
 30
0.0
 10
96.01678511641306
 20
236.3337714861166
 30
0.0
 10
95.92965877502924
 20
236.1929310481132
 30
0.0
 10
95.87591100663742
 20
236.1060473442669
 30
0.0
  0
SPLINE
  5
30A
330
1F
100
AcDbEntity
  8
0
  6
Continuous
 62
     8
370
    18
100
AcDbSpline
210
0.0
220
0.0
230
1.0
 70
     8
 71
     3
 72
    10
 73
     6
 74
     0
 42
0.000000001
 43
0.00000001
 40
0.0
 40
0.0
 40
0.0
 40
0.0
 40
0.3801563471145431
 40
0.7607709104067037
 40
1.0
 40
1.0
 40
1.0
 40
1.0
 10
95.87591100663742
 20
236.1060473442669
 30
0.0
 10
95.82173676657841
 20
236.0528440398707
 30
0.0
 10
95.71332298829192
 20
235.9463733032136
 30
0.0
 10
95.52130338727765
 20
235.8746611737648
 30
0.0
 10
95.39883424939295
 20
235.8678601326891
 30
0.0
 10
95.35156720031848
 20
235.8652352661486
 30
0.0
  0
SPLINE
  5
30B
330
1F
100
AcDbEntity
  8
0
  6
Continuous
 62
     8
370
    18
100
AcDbSpline
210
0.0
220
0.0
230
1.0
 70
     8
 71
     3
 72
    10
 73
     6
 74
     0
 42
0.000000001
 43
0.00000001
 40
0.0
 40
0.0
 40
0.0
 40
0.0
 40
0.2895711021900791
 40
0.6700100296161509
 40
1.0
 40
1.0
 40
1.0
 40
1.0
 10
95.35156720031848
 20
235.8652352661486
 30
0.0
 10
95.29433098986391
 20
235.869154498354
 30
0.0
 10
95.16189776440822
 20
235.8782228234257
 30
0.0
 10
94.97369469591001
 20
235.9585038676953
 30
0.0
 10
94.87462068648288
 20
236.0592509347125
 30
0.0
 10
94.82860140216401
 20
236.1060473442669
 30
0.0
  0
SPLINE
  5
30C
330
1F
100
AcDbEntity
  8
0
  6
Continuous
 62
     8
370
    18
100
AcDbSpline
210
0.0
220
0.0
230
1.0
 70
     8
 71
     3
 72
    10
 73
     6
 74
     0
 42
0.000000001
 43
0.00000001
 40
0.0
 40
0.0
 40
0.0
 40
0.0
 40
0.3500089304344967
 40
0.8772192322883422
 40
1.0
 40
1.0
 40
1.0
 40
1.0
 10
94.82860140216401
 20
236.1060473442669
 30
0.0
 10
94.78052717152512
 20
236.1807893308931
 30
0.0
 10
94.66003984669729
 20
236.3681134315852
 30
0.0
 10
94.6287624837766
 20
236.627452804319
 30
0.0
 10
94.62617402261465
 20
236.7910384811325
 30
0.0
 10
94.62568507243743
 20
236.8219391748901
 30
0.0
  0
LINE
  5
30D
330
1F
100
AcDbEntity
  8
0
  6
Continuous
 62
     8
370
    18
100
AcDbLine
 10
94.6256850724
 20
236.8219391749
 30
0.0
 11
94.6256850724
 21
236.8846395359
 31
0.0
  0
SPLINE
  5
30E
330
1F
100
AcDbEntity
  8
0
  6
Continuous
 62
     8
370
    18
100
AcDbSpline
210
0.0
220
0.0
230
1.0
 70
     8
 71
     3
 72
    10
 73
     6
 74
     0
 42
0.000000001
 43
0.00000001
 40
0.0
 40
0.0
 40
0.0
 40
0.0
 40
0.3467810128733289
 40
0.5945106543487779
 40
1.0
 40
1.0
 40
1.0
 40
1.0
 10
94.62568507243743
 20
236.8846395359035
 30
0.0
 10
94.62903447915312
 20
236.9722244749583
 30
0.0
 10
94.63477659854345
 20
237.122377388456
 30
0.0
 10
94.68580252648725
 20
237.372844204889
 30
0.0
 10
94.77390888594856
 20
237.5141761783401
 30
0.0
 10
94.82860140216401
 20
237.6019087926145
 30
0.0
  0
ARC
  5
30F
330
1F
100
AcDbEntity
  8
0
  6
Continuous
 62
     8
370
    18
100
AcDbCircle
 10
105.6390621247
 20
193.7666792338
 30
0.0
 40
1.221769760184366
100
AcDbArc
 50
269.1317258333
 51
324.7864705625
  0
SPLINE
  5
310
330
1F
100
AcDbEntity
  8
0
  6
Continuous
 62
     8
370
    18
100
AcDbSpline
210
0.0
220
0.0
230
1.0
 70
     8
 71
     3
 72
    20
 73
    16
 74
     0
 42
0.000000001
 43
0.00000001
 40
0.0
 40
0.0
 40
0.0
 40
0.0
 40
0.0618684247093284
 40
0.1237301874499528
 40
0.2033155096813394
 40
0.2828500473624528
 40
0.3579285265594122
 40
0.4329630073330785
 40
0.517432242503141
 40
0.6019125819124816
 40
0.6935723745106234
 40
0.7853375898495326
 40
0.8013607851204835
 40
0.9006469614964144
 40
1.0
 40
1.0
 40
1.0
 40
1.0
 10
105.6205478375112
 20
192.5450497612949
 30
0.0
 10
105.362512419307
 20
192.8530159817323
 30
0.0
 10
104.8464693680555
 20
193.4689152609203
 30
0.0
 10
103.8674908085949
 20
194.3647456077802
 30
0.0
 10
102.6852746323432
 20
195.2180973298726
 30
0.0
 10
101.2918553655632
 20
195.949501371182
 30
0.0
 10
99.80917175868167
 20
196.4736686096079
 30
0.0
 10
98.21070791711736
 20
196.8011003935794
 30
0.0
 10
96.49732734591854
 20
196.878781842376
 30
0.0
 10
94.68156849759455
 20
196.6749662250193
 30
0.0
 10
92.9047425305973
 20
196.1557363004495
 30
0.0
 10
91.68946935474398
 20
195.570216812237
 30
0.0
 10
90.5154700855551
 20
194.8544725604228
 30
0.0
 10
89.37680183809758
 20
194.0071594117504
 30
0.0
 10
88.52992817818435
 20
193.032528998587
 30
0.0
 10
88.10634881903282
 20
192.5450497612949
 30
0.0
  0
ARC
  5
311
330
1F
100
AcDbEntity
  8
0
  6
Continuous
 62
     8
370
    18
100
AcDbCircle
 10
88.0878345318
 20
193.7666792338
 30
0.0
 40
1.221769760184362
100
AcDbArc
 50
215.2135294375
 51
270.8682741667
  0
SPLINE
  5
312
330
1F
100
AcDbEntity
  8
0
  6
Continuous
 62
     8
370
    18
100
AcDbSpline
210
0.0
220
0.0
230
1.0
 70
     8
 71
     3
 72
    10
 73
     6
 74
     0
 42
0.000000001
 43
0.00000001
 40
0.0
 40
0.0
 40
0.0
 40
0.0
 40
0.0395236386457858
 40
0.5130125677235281
 40
1.0
 40
1.0
 40
1.0
 40
1.0
 10
86.1336585943853
 20
188.7685553476806
 30
0.0
 10
86.1502935175963
 20
188.8224974730496
 30
0.0
 10
86.36621302710412
 20
189.5226604436715
 30
0.0
 10
86.91285391227409
 20
190.8581821118783
 30
0.0
 10
87.70480715516874
 20
191.9775168469695
 30
0.0
 10
88.10634881903282
 20
192.5450497612949
 30
0.0
  0
SPLINE
  5
313
330
1F
100
AcDbEntity
  8
0
  6
Continuous
 62
     8
370
    18
100
AcDbSpline
210
0.0
220
0.0
230
1.0
 70
     8
 71
     3
 72
    10
 73
     6
 74
     0
 42
0.000000001
 43
0.00000001
 40
0.0
 40
0.0
 40
0.0
 40
0.0
 40
0.0395236386457858
 40
0.5130125677235281
 40
1.0
 40
1.0
 40
1.0
 40
1.0
 10
107.5932380621587
 20
188.7685553476806
 30
0.0
 10
107.5766031389477
 20
188.8224974730496
 30
0.0
 10
107.3606836294399
 20
189.5226604436715
 30
0.0
 10
106.8140427442699
 20
190.8581821118783
 30
0.0
 10
106.0220895013753
 20
191.9775168469695
 30
0.0
 10
105.6205478375112
 20
192.5450497612949
 30
0.0
  0
SPLINE
  5
314
330
1F
100
AcDbEntity
  8
0
  6
Continuous
 62
     8
370
    18
100
AcDbSpline
210
0.0
220
0.0
230
1.0
 70
     8
 71
     3
 72
    10
 73
     6
 74
     0
 42
0.000000001
 43
0.00000001
 40
0.0
 40
0.0
 40
0.0
 40
0.0
 40
0.3481959369634358
 40
0.8652660429322686
 40
1.0
 40
1.0
 40
1.0
 40
1.0
 10
100.681133509547
 20
236.1060473442669
 30
0.0
 10
100.6331861513206
 20
236.1800898338963
 30
0.0
 10
100.51403708461
 20
236.3640852376599
 30
0.0
 10
100.4812753944442
 20
236.6236794956021
 30
0.0
 10
100.478455490764
 20
236.787977293284
 30
0.0
 10
100.4778725904678
 20
236.8219391748901
 30
0.0
  0
SPLINE
  5
315
330
1F
100
AcDbEntity
  8
0
  6
Continuous
 62
     8
370
    18
100
AcDbSpline
210
0.0
220
0.0
230
1.0
 70
     8
 71
     3
 72
    10
 73
     6
 74
     0
 42
0.000000001
 43
0.00000001
 40
0.0
 40
0.0
 40
0.0
 40
0.0
 40
0.2852993423238014
 40
0.6721392621319281
 40
1.0
 40
1.0
 40
1.0
 40
1.0
 10
101.2040993077015
 20
235.8652352661486
 30
0.0
 10
101.1481448200891
 20
235.869003798967
 30
0.0
 10
101.01632114426
 20
235.8778821190053
 30
0.0
 10
100.8278747860592
 20
235.9573276834629
 30
0.0
 10
100.727280147432
 20
236.0592785516231
 30
0.0
 10
100.681133509547
 20
236.1060473442669
 30
0.0
  0
SPLINE
  5
316
330
1F
100
AcDbEntity
  8
0
  6
Continuous
 62
     8
370
    18
100
AcDbSpline
210
0.0
220
0.0
230
1.0
 70
     8
 71
     3
 72
    10
 73
     6
 74
     0
 42
0.000000001
 43
0.00000001
 40
0.0
 40
0.0
 40
0.0
 40
0.0
 40
0.3835540514763111
 40
0.7672438489012057
 40
1.0
 40
1.0
 40
1.0
 40
1.0
 10
101.7277540517305
 20
236.1060473442669
 30
0.0
 10
101.6727963838834
 20
236.0521681575364
 30
0.0
 10
101.5628615977863
 20
235.9443907153644
 30
0.0
 10
101.3712868016438
 20
235.8743457337076
 30
0.0
 10
101.2499234026009
 20
235.8677323364746
 30
0.0
 10
101.2040993077015
 20
235.8652352661486
 30
0.0
  0
SPLINE
  5
317
330
1F
100
AcDbEntity
  8
0
  6
Continuous
 62
     8
370
    18
100
AcDbSpline
210
0.0
220
0.0
230
1.0
 70
     8
 71
     3
 72
    11
 73
     7
 74
     0
 42
0.000000001
 43
0.00000001
 40
0.0
 40
0.0
 40
0.0
 40
0.0
 40
0.3458741071588615
 40
0.5875727174434177
 40
0.9336174401726842
 40
1.0
 40
1.0
 40
1.0
 40
1.0
 10
101.9296368462299
 20
236.8219391748901
 30
0.0
 10
101.9266646135948
 20
236.7341294223929
 30
0.0
 10
101.921615369462
 20
236.5849577618814
 30
0.0
 10
101.8701031881523
 20
236.3540187672156
 30
0.0
 10
101.8021031828343
 20
236.1998722491767
 30
0.0
 10
101.7380618716764
 20
236.1190553002698
 30
0.0
 10
101.7277540517305
 20
236.1060473442669
 30
0.0
  0
LINE
  5
318
330
1F
100
AcDbEntity
  8
0
  6
Continuous
 62
     8
370
    18
100
AcDbLine
 10
101.9296368462
 20
236.8846395359
 30
0.0
 11
101.9296368462
 21
236.8219391749
 31
0.0
  0
SPLINE
  5
319
330
1F
100
AcDbEntity
  8
0
  6
Continuous
 62
     8
370
    18
100
AcDbSpline
210
0.0
220
0.0
230
1.0
 70
     8
 71
     3
 72
    10
 73
     6
 74
     0
 42
0.000000001
 43
0.00000001
 40
0.0
 40
0.0
 40
0.0
 40
0.0
 40
0.3544967544459543
 40
0.8773334701468178
 40
1.0
 40
1.0
 40
1.0
 40
1.0
 10
101.7277540517305
 20
237.6019087926145
 30
0.0
 10
101.775758747822
 20
237.5262327804288
 30
0.0
 10
101.8945641418828
 20
237.3389444694778
 30
0.0
 10
101.9265617044953
 20
237.0787375637522
 30
0.0
 10
101.9291457868607
 20
236.9156344178812
 30
0.0
 10
101.9296368462299
 20
236.8846395359035
 30
0.0
  0
SPLINE
  5
31A
330
1F
100
AcDbEntity
  8
0
  6
Continuous
 62
     8
370
    18
100
AcDbSpline
210
0.0
220
0.0
230
1.0
 70
     8
 71
     3
 72
    10
 73
     6
 74
     0
 42
0.000000001
 43
0.00000001
 40
0.0
 40
0.0
 40
0.0
 40
0.0
 40
0.288223292542976
 40
0.6791660966876453
 40
1.0
 40
1.0
 40
1.0
 40
1.0
 10
101.2040993077015
 20
237.841343444645
 30
0.0
 10
101.2608400797381
 20
237.8375434681015
 30
0.0
 10
101.3945433912476
 20
237.8285892464847
 30
0.0
 10
101.5820624022582
 20
237.7481162078933
 30
0.0
 10
101.6824874041746
 20
237.6473356894988
 30
0.0
 10
101.7277540517305
 20
237.6019087926145
 30
0.0
  0
SPLINE
  5
31B
330
1F
100
AcDbEntity
  8
0
  6
Continuous
 62
     8
370
    18
100
AcDbSpline
210
0.0
220
0.0
230
1.0
 70
     8
 71
     3
 72
    10
 73
     6
 74
     0
 42
0.000000001
 43
0.00000001
 40
0.0
 40
0.0
 40
0.0
 40
0.0
 40
0.3772890737036858
 40
0.7544646046335576
 40
1.0
 40
1.0
 40
1.0
 40
1.0
 10
100.681133509547
 20
237.6019087926145
 30
0.0
 10
100.7351827672902
 20
237.6548420729231
 30
0.0
 10
100.8432650169922
 20
237.7606927036026
 30
0.0
 10
101.034239433193
 20
237.8312730178567
 30
0.0
 10
101.1560638477131
 20
237.8384955820497
 30
0.0
 10
101.2040993077015
 20
237.841343444645
 30
0.0
  0
SPLINE
  5
31C
330
1F
100
AcDbEntity
  8
0
  6
Continuous
 62
     8
370
    18
100
AcDbSpline
210
0.0
220
0.0
230
1.0
 70
     8
 71
     3
 72
    11
 73
     7
 74
     0
 42
0.000000001
 43
0.00000001
 40
0.0
 40
0.0
 40
0.0
 40
0.0
 40
0.3444673143547086
 40
0.5888098365681563
 40
0.9295570560097687
 40
0.9999999999999999
 40
0.9999999999999999
 40
0.9999999999999999
 40
0.9999999999999999
 10
100.4778725904678
 20
236.8846395359035
 30
0.0
 10
100.480812188737
 20
236.9721777328236
 30
0.0
 10
100.4858369452359
 20
237.1218097857764
 30
0.0
 10
100.5371277083913
 20
237.3521652897841
 30
0.0
 10
100.6053610182926
 20
237.5073150203399
 30
0.0
 10
100.670051137353
 20
237.5880736477719
 30
0.0
 10
100.681133509547
 20
237.6019087926145
 30
0.0
  0
LINE
  5
31D
330
1F
100
AcDbEntity
  8
0
  6
Continuous
 62
     8
370
    18
100
AcDbLine
 10
100.4778725905
 20
236.8219391749
 30
0.0
 11
100.4778725905
 21
236.8846395359
 31
0.0
  0
SPLINE
  5
31E
330
1F
100
AcDbEntity
  8
0
  6
Continuous
 62
     8
370
    18
100
AcDbSpline
210
0.0
220
0.0
230
1.0
 70
     8
 71
     3
 72
    11
 73
     7
 74
     0
 42
0.000000001
 43
0.00000001
 40
0.0
 40
0.0
 40
0.0
 40
0.0
 40
0.0000122313122985
 40
0.4912843692843312
 40
0.7456383578141659
 40
1.0
 40
1.0
 40
1.0
 40
1.0
 10
87.08963793416372
 20
193.0621759340759
 30
0.0
 10
87.08962582695881
 20
193.0621610329219
 30
0.0
 10
86.6033263703401
 20
192.4636394787702
 30
0.0
 10
85.9492410933283
 20
191.5024387931979
 30
0.0
 10
85.26415839536232
 20
190.0899682054375
 30
0.0
 10
85.00628126691915
 20
189.3358737332003
 30
0.0
 10
84.87734076280942
 20
188.9588208243842
 30
0.0
  0
SPLINE
  5
31F
330
1F
100
AcDbEntity
  8
0
  6
Continuous
 62
     8
370
    18
100
AcDbSpline
210
0.0
220
0.0
230
1.0
 70
     8
 71
     3
 72
    11
 73
     7
 74
     0
 42
0.000000001
 43
0.00000001
 40
0.0
 40
0.0
 40
0.0
 40
0.0
 40
0.0000122313122985
 40
0.4912843692843312
 40
0.7456383578141659
 40
1.0
 40
1.0
 40
1.0
 40
1.0
 10
106.6372587223803
 20
193.0621759340759
 30
0.0
 10
106.6372708295852
 20
193.0621610329219
 30
0.0
 10
107.1235702862039
 20
192.4636394787702
 30
0.0
 10
107.7776555632157
 20
191.5024387931979
 30
0.0
 10
108.4627382611817
 20
190.0899682054375
 30
0.0
 10
108.7206153896249
 20
189.3358737332003
 30
0.0
 10
108.8495558937346
 20
188.9588208243842
 30
0.0
  0
SPLINE
  5
320
330
1F
100
AcDbEntity
  8
0
  6
Continuous
 62
     8
370
    18
100
AcDbSpline
210
0.0
220
0.0
230
1.0
 70
     8
 71
     3
 72
    13
 73
     9
 74
     0
 42
0.000000001
 43
0.00000001
 40
0.0
 40
0.0
 40
0.0
 40
0.0
 40
0.2272165752944552
 40
0.3446624184833738
 40
0.4621184672935615
 40
0.6873299764700431
 40
0.9177478774835429
 40
1.0
 40
1.0
 40
1.0
 40
1.0
 10
107.6187078719293
 20
178.1759419784541
 30
0.0
 10
107.6155442592467
 20
177.6805381880772
 30
0.0
 10
107.6107454086482
 20
176.9290654211989
 30
0.0
 10
107.5987334435391
 20
176.1772266204351
 30
0.0
 10
107.5848477356169
 20
175.5485808959157
 30
0.0
 10
107.5667082104279
 20
175.0345161895119
 30
0.0
 10
107.5523256927944
 20
174.7537476007749
 30
0.0
 10
107.5547901608281
 20
174.8030301712205
 30
0.0
 10
107.5554384728228
 20
174.8159946248527
 30
0.0
  0
SPLINE
  5
321
330
1F
100
AcDbEntity
  8
0
  6
Continuous
 62
     8
370
    18
100
AcDbSpline
210
0.0
220
0.0
230
1.0
 70
     8
 71
     3
 72
     9
 73
     5
 74
     0
 42
0.000000001
 43
0.00000001
 40
0.0
 40
0.0
 40
0.0
 40
0.0
 40
0.3075637596055003
 40
1.0
 40
1.0
 40
1.0
 40
1.0
 10
107.7809368138467
 20
178.7511789546008
 30
0.0
 10
107.74793899771
 20
178.6869574986903
 30
0.0
 10
107.6406512724621
 20
178.4781505313387
 30
0.0
 10
107.6276857024695
 20
178.2995863138683
 30
0.0
 10
107.6187078719293
 20
178.1759419784541
 30
0.0
  0
SPLINE
  5
322
330
1F
100
AcDbEntity
  8
0
  6
Continuous
 62
     8
370
    18
100
AcDbSpline
210
0.0
220
0.0
230
1.0
 70
     8
 71
     3
 72
    12
 73
     8
 74
     0
 42
0.000000001
 43
0.00000001
 40
0.0
 40
0.0
 40
0.0
 40
0.0
 40
0.1414922430125117
 40
0.3524244234417282
 40
0.5695250688998413
 40
0.7816713288901189
 40
1.0
 40
1.0
 40
1.0
 40
1.0
 10
108.8495558937346
 20
188.9588208243842
 30
0.0
 10
108.989738788098
 20
188.4787131559187
 30
0.0
 10
109.3389019271545
 20
187.2828760934306
 30
0.0
 10
109.5439504204292
 20
185.2710417940092
 30
0.0
 10
109.3803204367593
 20
183.0165169999201
 30
0.0
 10
108.8239411961793
 20
180.7848206077774
 30
0.0
 10
108.1319178502971
 20
179.4355189893037
 30
0.0
 10
107.7809368138467
 20
178.7511789546008
 30
0.0
  0
SPLINE
  5
323
330
1F
100
AcDbEntity
  8
0
  6
Continuous
 62
     8
370
    18
100
AcDbSpline
210
0.0
220
0.0
230
1.0
 70
     8
 71
     3
 72
    12
 73
     8
 74
     0
 42
0.000000001
 43
0.00000001
 40
0.0
 40
0.0
 40
0.0
 40
0.0
 40
0.1414922430125117
 40
0.3524244234417282
 40
0.5695250688998413
 40
0.7816713288901189
 40
1.0
 40
1.0
 40
1.0
 40
1.0
 10
84.87734076280942
 20
188.9588208243842
 30
0.0
 10
84.73715786844608
 20
188.4787131559187
 30
0.0
 10
84.38799472938956
 20
187.2828760934306
 30
0.0
 10
84.18294623611483
 20
185.2710417940092
 30
0.0
 10
84.34657621978475
 20
183.0165169999201
 30
0.0
 10
84.90295546036477
 20
180.7848206077774
 30
0.0
 10
85.59497880624687
 20
179.4355189893037
 30
0.0
 10
85.94595984269729
 20
178.7511789546008
 30
0.0
  0
SPLINE
  5
324
330
1F
100
AcDbEntity
  8
0
  6
Continuous
 62
     8
370
    18
100
AcDbSpline
210
0.0
220
0.0
230
1.0
 70
     8
 71
     3
 72
     9
 73
     5
 74
     0
 42
0.000000001
 43
0.00000001
 40
0.0
 40
0.0
 40
0.0
 40
0.0
 40
0.3075637596055003
 40
1.0
 40
1.0
 40
1.0
 40
1.0
 10
85.94595984269729
 20
178.7511789546008
 30
0.0
 10
85.97895765883405
 20
178.6869574986903
 30
0.0
 10
86.08624538408195
 20
178.4781505313387
 30
0.0
 10
86.0992109540745
 20
178.2995863138683
 30
0.0
 10
86.10818878461471
 20
178.1759419784541
 30
0.0
  0
SPLINE
  5
325
330
1F
100
AcDbEntity
  8
0
  6
Continuous
 62
     8
370
    18
100
AcDbSpline
210
0.0
220
0.0
230
1.0
 70
     8
 71
     3
 72
    13
 73
     9
 74
     0
 42
0.000000001
 43
0.00000001
 40
0.0
 40
0.0
 40
0.0
 40
0.0
 40
0.2272182574122519
 40
0.344664970070058
 40
0.4621218884246871
 40
0.6873350648751654
 40
0.9177546717063478
 40
1.0
 40
1.0
 40
1.0
 40
1.0
 10
86.10818878461471
 20
178.1759419784541
 30
0.0
 10
86.11135239767941
 20
177.6805381863461
 30
0.0
 10
86.11615124885745
 20
176.9290654168418
 30
0.0
 10
86.12816321120738
 20
176.1772266285793
 30
0.0
 10
86.14204893046654
 20
175.5485808526936
 30
0.0
 10
86.16018837178052
 20
175.0345165263194
 30
0.0
 10
86.17457096823443
 20
174.7537505478868
 30
0.0
 10
86.17210646260357
 20
174.8030285163811
 30
0.0
 10
86.17145818372121
 20
174.8159908995624
 30
0.0
  0
SPLINE
  5
326
330
1F
100
AcDbEntity
  8
0
  6
Continuous
 62
     8
370
    18
100
AcDbSpline
210
0.0
220
0.0
230
1.0
 70
     8
 71
     3
 72
    12
 73
     8
 74
     0
 42
0.000000001
 43
0.00000001
 40
0.0
 40
0.0
 40
0.0
 40
0.0
 40
0.2102277728474547
 40
0.4264521610636045
 40
0.6367030008618619
 40
0.8529137218259235
 40
1.0
 40
1.0
 40
1.0
 40
1.0
 10
106.6188585822736
 20
179.6167725071903
 30
0.0
 10
106.9248970420636
 20
180.2100048014524
 30
0.0
 10
107.5457035167662
 20
181.4133909691038
 30
0.0
 10
108.0460336450427
 20
183.3914133621296
 30
0.0
 10
108.2028840830731
 20
185.4316141932665
 30
0.0
 10
108.0261699226365
 20
187.2614270831818
 30
0.0
 10
107.7022924176318
 20
188.375193410764
 30
0.0
 10
107.5711657171403
 20
188.8261185333724
 30
0.0
  0
LWPOLYLINE
  5
327
330
1F
100
AcDbEntity
  8
0
  6
Continuous
 62
     8
370
    18
100
AcDbPolyline
 90
        9
 70
   128
 43
0.0
 10
106.6188585823
 20
179.6167725072
 10
106.6164287617
 20
179.5153961823
 10
106.6792241176
 20
179.3871791408
 10
106.8013959443
 20
179.2440646634
 10
106.9715644111
 20
179.0993855641
 10
107.1738793393
 20
178.9666162179
 10
107.3894963478
 20
178.8581208632
 10
107.598333328
 20
178.7840062127
 10
107.7809368138
 20
178.7511789546
  0
SPLINE
  5
328
330
1F
100
AcDbEntity
  8
0
  6
Continuous
 62
     8
370
    18
100
AcDbSpline
210
0.0
220
0.0
230
1.0
 70
     8
 71
     3
 72
    12
 73
     8
 74
     0
 42
0.000000001
 43
0.00000001
 40
0.0
 40
0.0
 40
0.0
 40
0.0
 40
0.2102277728474547
 40
0.4264521610636045
 40
0.6367030008618619
 40
0.8529137218259235
 40
1.0
 40
1.0
 40
1.0
 40
1.0
 10
87.1080380742704
 20
179.6167725071903
 30
0.0
 10
86.80199961448044
 20
180.2100048014524
 30
0.0
 10
86.18119313977787
 20
181.4133909691038
 30
0.0
 10
85.6808630115013
 20
183.3914133621296
 30
0.0
 10
85.52401257347096
 20
185.4316141932665
 30
0.0
 10
85.7007267339075
 20
187.2614270831818
 30
0.0
 10
86.02460423891219
 20
188.375193410764
 30
0.0
 10
86.15573093940368
 20
188.8261185333724
 30
0.0
  0
LWPOLYLINE
  5
329
330
1F
100
AcDbEntity
  8
0
  6
Continuous
 62
     8
370
    18
100
AcDbPolyline
 90
        9
 70
   128
 43
0.0
 10
87.1080380743
 20
179.6167725072
 10
87.1104678949
 20
179.5153961823
 10
87.047672539
 20
179.3871791408
 10
86.9255007123
 20
179.2440646634
 10
86.7553322454
 20
179.0993855641
 10
86.5530173173
 20
178.9666162179
 10
86.3374003087
 20
178.8581208632
 10
86.1285633286
 20
178.7840062127
 10
85.9459598427
 20
178.7511789546
  0
SPLINE
  5
32A
330
1F
100
AcDbEntity
  8
0
  6
Continuous
 62
     8
370
    18
100
AcDbSpline
210
0.0
220
0.0
230
1.0
 70
     8
 71
     3
 72
     9
 73
     5
 74
     0
 42
0.000000001
 43
0.00000001
 40
0.0
 40
0.0
 40
0.0
 40
0.0
 40
0.5635104840551207
 40
1.0
 40
1.0
 40
1.0
 40
1.0
 10
106.5176266123807
 20
181.0622559235092
 30
0.0
 10
106.5373977864151
 20
180.7704195726647
 30
0.0
 10
106.5724835116925
 20
180.2525297390197
 30
0.0
 10
106.6047671239753
 20
179.8099527311317
 30
0.0
 10
106.6188585822736
 20
179.6167725071903
 30
0.0
  0
SPLINE
  5
32B
330
1F
100
AcDbEntity
  8
0
  6
Continuous
 62
     8
370
    18
100
AcDbSpline
210
0.0
220
0.0
230
1.0
 70
     8
 71
     3
 72
     9
 73
     5
 74
     0
 42
0.000000001
 43
0.00000001
 40
0.0
 40
0.0
 40
0.0
 40
0.0
 40
0.5635104840551207
 40
1.0
 40
1.0
 40
1.0
 40
1.0
 10
87.20927004416338
 20
181.0622559235092
 30
0.0
 10
87.18949887012889
 20
180.7704195726647
 30
0.0
 10
87.1544131448515
 20
180.2525297390197
 30
0.0
 10
87.12212953256868
 20
179.8099527311317
 30
0.0
 10
87.1080380742704
 20
179.6167725071903
 30
0.0
  0
SPLINE
  5
32C
330
1F
100
AcDbEntity
  8
0
  6
Continuous
 62
     8
370
    18
100
AcDbSpline
210
0.0
220
0.0
230
1.0
 70
     8
 71
     3
 72
     9
 73
     5
 74
     0
 42
0.000000001
 43
0.00000001
 40
0.0
 40
0.0
 40
0.0
 40
0.0
 40
0.6740045808596697
 40
1.0
 40
1.0
 40
1.0
 40
1.0
 10
87.36344863374582
 20
178.6801264927383
 30
0.0
 10
87.34639521747692
 20
178.8897142819218
 30
0.0
 10
87.32109358488692
 20
179.2006732800287
 30
0.0
 10
87.16041768243572
 20
179.5144746862442
 30
0.0
 10
87.1080380742704
 20
179.6167725071903
 30
0.0
  0
LWPOLYLINE
  5
32D
330
1F
100
AcDbEntity
  8
0
  6
Continuous
 62
     8
370
    18
100
AcDbPolyline
 90
        9
 70
   128
 43
0.0
 10
87.3634486337
 20
178.6801264927
 10
87.3340318789
 20
178.5153867052
 10
87.247946008
 20
178.3627615616
 10
87.111522152
 20
178.2334716365
 10
86.9347925176
 20
178.1370350466
 10
86.7307537114
 20
178.0805335686
 10
86.5144112026
 20
178.0681283519
 10
86.3016747748
 20
178.1007283673
 10
86.1081887846
 20
178.1759419785
  0
SPLINE
  5
32E
330
1F
100
AcDbEntity
  8
0
  6
Continuous
 62
     8
370
    18
100
AcDbSpline
210
0.0
220
0.0
230
1.0
 70
     8
 71
     3
 72
     9
 73
     5
 74
     0
 42
0.000000001
 43
0.00000001
 40
0.0
 40
0.0
 40
0.0
 40
0.0
 40
0.6740045808596697
 40
1.0
 40
1.0
 40
1.0
 40
1.0
 10
106.3634480227982
 20
178.6801264927383
 30
0.0
 10
106.3805014390671
 20
178.8897142819218
 30
0.0
 10
106.4058030716571
 20
179.2006732800287
 30
0.0
 10
106.5664789741083
 20
179.5144746862442
 30
0.0
 10
106.6188585822736
 20
179.6167725071903
 30
0.0
  0
LWPOLYLINE
  5
32F
330
1F
100
AcDbEntity
  8
0
  6
Continuous
 62
     8
370
    18
100
AcDbPolyline
 90
        9
 70
   128
 43
0.0
 10
106.3634480228
 20
178.6801264927
 10
106.3928647776
 20
178.5153867052
 10
106.4789506485
 20
178.3627615616
 10
106.6153745045
 20
178.2334716365
 10
106.7921041389
 20
178.1370350466
 10
106.9961429452
 20
178.0805335686
 10
107.212485454
 20
178.0681283519
 10
107.4252218818
 20
178.1007283673
 10
107.6187078719
 20
178.1759419785
  0
LINE
  5
330
330
1F
100
AcDbEntity
  8
DEFAULT_LAYER
  6
PHANTOM
370
    18
100
AcDbLine
 10
69.6634483283
 20
249.0621742628
 30
0.0
 11
43.2081036809
 21
249.0621742628
 31
0.0
  0
LINE
  5
331
330
1F
100
AcDbEntity
  8
DEFAULT_LAYER
  6
PHANTOM
370
    18
100
AcDbLine
 10
124.0634483283
 20
249.0621742628
 30
0.0
 11
150.3417375479
 21
249.0621742628
 31
0.0
  0
MTEXT
  5
332
330
1F
100
AcDbEntity
  8
DEFAULT_LAYER
100
AcDbMText
 10
135.5150694982
 20
249.2261918162
 30
0.0
 40
2.1166666667
 41
0.0
 71
     1
 72
     1
  1
△
  7
SLDTEXTSTYLE0
 73
     1
 44
1.0
  0
MTEXT
  5
333
330
1F
100
AcDbEntity
  8
DEFAULT_LAYER
100
AcDbMText
 10
138.8231548569
 20
248.8373211397
 30
0.0
 40
2.1166666667
 41
0.0
 71
     1
 72
     1
  1
W.L.
  7
SLDTEXTSTYLE0
 73
     1
 44
1.0
  0
INSERT
  5
339
330
1F
100
AcDbEntity
  8
DEFAULT_LAYER
100
AcDbBlockReference
  2
SW_NOTE_4
 10
78.421672099
 20
256.5738174848
 30
0.0
  0
LEADER
  5
33A
330
1F
100
AcDbEntity
  8
DEFAULT_LAYER
100
AcDbLeader
  3
SLDDIMSTYLE4
 76
     2
 10
90.1481049856
 20
238.2702907262
 30
0.0
 10
78.421672099
 20
256.5738174848
 30
0.0
  0
LINE
  5
33B
330
1F
100
AcDbEntity
  8
DEFAULT_LAYER
  6
CENTERX2
370
    18
100
AcDbLine
 10
96.8634483283
 20
169.3316794061
 30
0.0
 11
96.8634483283
 21
263.7302768263
 31
0.0
  0
ENDSEC
  0
SECTION
  2
OBJECTS
  0
DICTIONARY
  5
C
330
0
100
AcDbDictionary
281
     1
  3
ACAD_GROUP
350
D
  3
ACAD_LAYOUT
350
1A
  3
ACAD_MLINESTYLE
350
17
  3
ACAD_PLOTSETTINGS
350
19
  3
ACAD_PLOTSTYLENAME
350
E
  3
ACAD_SCALELIST
350
47
  0
DICTIONARY
  5
D
102
{ACAD_REACTORS
330
C
102
}
330
C
100
AcDbDictionary
281
     1
  0
DICTIONARY
  5
1A
102
{ACAD_REACTORS
330
C
102
}
330
C
100
AcDbDictionary
281
     1
  3
Layout1
350
1E
  3
Layout2
350
26
  3
Model
350
22
  0
DICTIONARY
  5
17
102
{ACAD_REACTORS
330
C
102
}
330
C
100
AcDbDictionary
281
     1
  3
Standard
350
18
  0
DICTIONARY
  5
19
102
{ACAD_REACTORS
330
C
102
}
330
C
100
AcDbDictionary
281
     1
  0
ACDBDICTIONARYWDFLT
  5
E
102
{ACAD_REACTORS
330
C
102
}
330
C
100
AcDbDictionary
281
     1
  3
Normal
350
F
100
AcDbDictionaryWithDefault
340
F
  0
DICTIONARY
  5
47
102
{ACAD_REACTORS
330
C
102
}
330
C
100
AcDbDictionary
281
     1
  3
A0
350
48
  3
A1
350
49
  3
A2
350
4A
  3
A3
350
4B
  3
A4
350
4C
  3
A5
350
4D
  3
A6
350
4E
  3
A7
350
4F
  3
A8
350
50
  3
A9
350
51
  3
B0
350
52
  3
B1
350
53
  3
B2
350
54
  3
B3
350
55
  3
B4
350
56
  3
B5
350
57
  3
B6
350
58
  3
B7
350
59
  3
B8
350
5A
  3
B9
350
5B
  3
C0
350
5C
  3
C1
350
5D
  3
C2
350
5E
  3
C3
350
5F
  3
C4
350
60
  3
C5
350
61
  3
C6
350
62
  3
C7
350
63
  3
C8
350
64
  3
C9
350
65
  3
D0
350
66
  3
D1
350
67
  3
D2
350
68
  0
LAYOUT
  5
1E
102
{ACAD_REACTORS
330
1A
102
}
330
1A
100
AcDbPlotSettings
  1

  2
none_device
  4

  6

 40
0.0
 41
0.0
 42
0.0
 43
0.0
 44
0.0
 45
0.0
 46
0.0
 47
0.0
 48
0.0
 49
0.0
140
0.0
141
0.0
142
1.0
143
1.0
 70
   688
 72
     1
 73
     0
 74
     5
  7

 75
    16
147
1.0
148
0.0
149
0.0
100
AcDbLayout
  1
Layout1
 70
     1
 71
     1
 10
0.0
 20
0.0
 11
420.0
 21
297.0
 12
0.0
 22
0.0
 32
0.0
 14
1.0000000000E+20
 24
1.0000000000E+20
 34
1.0000000000E+20
 15
-1.0000000000E+20
 25
-1.0000000000E+20
 35
-1.0000000000E+20
146
0.0
 13
0.0
 23
0.0
 33
0.0
 16
1.0
 26
0.0
 36
0.0
 17
0.0
 27
1.0
 37
0.0
 76
     0
330
1B
  0
LAYOUT
  5
26
102
{ACAD_REACTORS
330
1A
102
}
330
1A
100
AcDbPlotSettings
  1

  2
none_device
  4

  6

 40
0.0
 41
0.0
 42
0.0
 43
0.0
 44
0.0
 45
0.0
 46
0.0
 47
0.0
 48
0.0
 49
0.0
140
0.0
141
0.0
142
1.0
143
1.0
 70
   688
 72
     1
 73
     0
 74
     5
  7

 75
    16
147
1.0
148
0.0
149
0.0
100
AcDbLayout
  1
Layout2
 70
     1
 71
     2
 10
0.0
 20
0.0
 11
0.0
 21
0.0
 12
0.0
 22
0.0
 32
0.0
 14
0.0
 24
0.0
 34
0.0
 15
0.0
 25
0.0
 35
0.0
146
0.0
 13
0.0
 23
0.0
 33
0.0
 16
1.0
 26
0.0
 36
0.0
 17
0.0
 27
1.0
 37
0.0
 76
     0
330
23
  0
LAYOUT
  5
22
102
{ACAD_REACTORS
330
1A
102
}
330
1A
100
AcDbPlotSettings
  1

  2
none_device
  4
Letter_(8.50_x_11.00_Inches)
  6

 40
6.35
 41
6.35
 42
6.35000508
 43
6.35000508
 44
215.9
 45
279.4
 46
0.0
 47
0.0
 48
0.0
 49
0.0
140
0.0
141
0.0
142
1.0
143
1.0
 70
  1712
 72
     1
 73
     0
 74
     0
  7

 75
     0
147
1.0
148
0.0
149
0.0
100
AcDbLayout
  1
Model
 70
     1
 71
     0
 10
0.0
 20
0.0
 11
420.0
 21
297.0
 12
0.0
 22
0.0
 32
0.0
 14
0.0
 24
0.0
 34
0.0
 15
420.0
 25
297.0
 35
0.0
146
0.0
 13
0.0
 23
0.0
 33
0.0
 16
1.0
 26
0.0
 36
0.0
 17
0.0
 27
1.0
 37
0.0
 76
     0
330
1F
331
29
  0
MLINESTYLE
  5
18
102
{ACAD_REACTORS
330
17
102
}
330
17
100
AcDbMlineStyle
  2
Standard
 70
     0
  3

 62
   256
 51
90.0
 52
90.0
 71
     2
 49
0.5
 62
   256
  6
BYLAYER
 49
-0.5
 62
   256
  6
BYLAYER
  0
ACDBPLACEHOLDER
  5
F
102
{ACAD_REACTORS
330
E
102
}
330
E
  0
SCALE
  5
48
102
{ACAD_REACTORS
330
47
102
}
330
47
100
AcDbScale
 70
     0
300
1:1
140
1.0
141
1.0
290
     1
  0
SCALE
  5
49
102
{ACAD_REACTORS
330
47
102
}
330
47
100
AcDbScale
 70
     0
300
1:2
140
1.0
141
2.0
290
     0
  0
SCALE
  5
4A
102
{ACAD_REACTORS
330
47
102
}
330
47
100
AcDbScale
 70
     0
300
1:4
140
1.0
141
4.0
290
     0
  0
SCALE
  5
4B
102
{ACAD_REACTORS
330
47
102
}
330
47
100
AcDbScale
 70
     0
300
1:5
140
1.0
141
5.0
290
     0
  0
SCALE
  5
4C
102
{ACAD_REACTORS
330
47
102
}
330
47
100
AcDbScale
 70
     0
300
1:8
140
1.0
141
8.0
290
     0
  0
SCALE
  5
4D
102
{ACAD_REACTORS
330
47
102
}
330
47
100
AcDbScale
 70
     0
300
1:10
140
1.0
141
10.0
290
     0
  0
SCALE
  5
4E
102
{ACAD_REACTORS
330
47
102
}
330
47
100
AcDbScale
 70
     0
300
1:16
140
1.0
141
16.0
290
     0
  0
SCALE
  5
4F
102
{ACAD_REACTORS
330
47
102
}
330
47
100
AcDbScale
 70
     0
300
1:20
140
1.0
141
20.0
290
     0
  0
SCALE
  5
50
102
{ACAD_REACTORS
330
47
102
}
330
47
100
AcDbScale
 70
     0
300
1:30
140
1.0
141
30.0
290
     0
  0
SCALE
  5
51
102
{ACAD_REACTORS
330
47
102
}
330
47
100
AcDbScale
 70
     0
300
1:40
140
1.0
141
40.0
290
     0
  0
SCALE
  5
52
102
{ACAD_REACTORS
330
47
102
}
330
47
100
AcDbScale
 70
     0
300
1:50
140
1.0
141
50.0
290
     0
  0
SCALE
  5
53
102
{ACAD_REACTORS
330
47
102
}
330
47
100
AcDbScale
 70
     0
300
1:100
140
1.0
141
100.0
290
     0
  0
SCALE
  5
54
102
{ACAD_REACTORS
330
47
102
}
330
47
100
AcDbScale
 70
     0
300
2:1
140
2.0
141
1.0
290
     0
  0
SCALE
  5
55
102
{ACAD_REACTORS
330
47
102
}
330
47
100
AcDbScale
 70
     0
300
4:1
140
4.0
141
1.0
290
     0
  0
SCALE
  5
56
102
{ACAD_REACTORS
330
47
102
}
330
47
100
AcDbScale
 70
     0
300
8:1
140
8.0
141
1.0
290
     0
  0
SCALE
  5
57
102
{ACAD_REACTORS
330
47
102
}
330
47
100
AcDbScale
 70
     0
300
10:1
140
10.0
141
1.0
290
     0
  0
SCALE
  5
58
102
{ACAD_REACTORS
330
47
102
}
330
47
100
AcDbScale
 70
     0
300
100:1
140
100.0
141
1.0
290
     0
  0
SCALE
  5
59
102
{ACAD_REACTORS
330
47
102
}
330
47
100
AcDbScale
 70
     0
300
1/128" = 1'-0"
140
0.0078125
141
12.0
290
     0
  0
SCALE
  5
5A
102
{ACAD_REACTORS
330
47
102
}
330
47
100
AcDbScale
 70
     0
300
1/64" = 1'-0"
140
0.015625
141
12.0
290
     0
  0
SCALE
  5
5B
102
{ACAD_REACTORS
330
47
102
}
330
47
100
AcDbScale
 70
     0
300
1/32" = 1'-0"
140
0.03125
141
12.0
290
     0
  0
SCALE
  5
5C
102
{ACAD_REACTORS
330
47
102
}
330
47
100
AcDbScale
 70
     0
300
1/16" = 1'-0"
140
0.0625
141
12.0
290
     0
  0
SCALE
  5
5D
102
{ACAD_REACTORS
330
47
102
}
330
47
100
AcDbScale
 70
     0
300
3/32" = 1'-0"
140
0.09375
141
12.0
290
     0
  0
SCALE
  5
5E
102
{ACAD_REACTORS
330
47
102
}
330
47
100
AcDbScale
 70
     0
300
1/8" = 1'-0"
140
0.125
141
12.0
290
     0
  0
SCALE
  5
5F
102
{ACAD_REACTORS
330
47
102
}
330
47
100
AcDbScale
 70
     0
300
3/16" = 1'-0"
140
0.1875
141
12.0
290
     0
  0
SCALE
  5
60
102
{ACAD_REACTORS
330
47
102
}
330
47
100
AcDbScale
 70
     0
300
1/4" = 1'-0"
140
0.25
141
12.0
290
     0
  0
SCALE
  5
61
102
{ACAD_REACTORS
330
47
102
}
330
47
100
AcDbScale
 70
     0
300
3/8" = 1'-0"
140
0.375
141
12.0
290
     0
  0
SCALE
  5
62
102
{ACAD_REACTORS
330
47
102
}
330
47
100
AcDbScale
 70
     0
300
1/2" = 1'-0"
140
0.5
141
12.0
290
     0
  0
SCALE
  5
63
102
{ACAD_REACTORS
330
47
102
}
330
47
100
AcDbScale
 70
     0
300
3/4" = 1'-0"
140
0.75
141
12.0
290
     0
  0
SCALE
  5
64
102
{ACAD_REACTORS
330
47
102
}
330
47
100
AcDbScale
 70
     0
300
1" = 1'-0"
140
1.0
141
12.0
290
     0
  0
SCALE
  5
65
102
{ACAD_REACTORS
330
47
102
}
330
47
100
AcDbScale
 70
     0
300
1-1/2" = 1'-0"
140
1.5
141
12.0
290
     0
  0
SCALE
  5
66
102
{ACAD_REACTORS
330
47
102
}
330
47
100
AcDbScale
 70
     0
300
3" = 1'-0"
140
3.0
141
12.0
290
     0
  0
SCALE
  5
67
102
{ACAD_REACTORS
330
47
102
}
330
47
100
AcDbScale
 70
     0
300
6" = 1'-0"
140
6.0
141
12.0
290
     0
  0
SCALE
  5
68
102
{ACAD_REACTORS
330
47
102
}
330
47
100
AcDbScale
 70
     0
300
1'-0" = 1'-0"
140
12.0
141
12.0
290
     0
  0
ENDSEC
  0
EOF
