  0
SECTION
  2
HEADER
  9
$ACADVER
  1
AC1015
  9
$ACADMAINTVER
 70
     6
  9
$DWGCODEPAGE
  3
ANSI_936
  9
$INSBASE
 10
0.0
 20
0.0
 30
0.0
  9
$EXTMIN
 10
0.0
 20
0.0
 30
0.0
  9
$EXTMAX
 10
420.0
 20
297.0
 30
0.0
  9
$LIMMIN
 10
0.0
 20
0.0
  9
$LIMMAX
 10
420.0
 20
297.0
  9
$ORTHOMODE
 70
     0
  9
$REGENMODE
 70
     1
  9
$FILLMODE
 70
     1
  9
$QTEXTMODE
 70
     0
  9
$MIRRTEXT
 70
     1
  9
$LTSCALE
 40
1.0
  9
$ATTMODE
 70
     1
  9
$TEXTSIZE
 40
2.5
  9
$TRACEWID
 40
1.0
  9
$TEXTSTYLE
  7
Standard
  9
$CLAYER
  8
0
  9
$CELTYPE
  6
ByLayer
  9
$CECOLOR
 62
   256
  9
$CELTSCALE
 40
1.0
  9
$DISPSILH
 70
     0
  9
$DIMSCALE
 40
1.0
  9
$DIMASZ
 40
2.5
  9
$DIMEXO
 40
0.0
  9
$DIMDLI
 40
3.75
  9
$DIMRND
 40
0.0
  9
$DIMDLE
 40
0.0
  9
$DIMEXE
 40
1.0
  9
$DIMTP
 40
0.0
  9
$DIMTM
 40
0.0
  9
$DIMTXT
 40
2.5
  9
$DIMCEN
 40
2.5
  9
$DIMTSZ
 40
0.0
  9
$DIMTOL
 70
     0
  9
$DIMLIM
 70
     0
  9
$DIMTIH
 70
     1
  9
$DIMTOH
 70
     1
  9
$DIMSE1
 70
     0
  9
$DIMSE2
 70
     0
  9
$DIMTAD
 70
     1
  9
$DIMZIN
 70
     0
  9
$DIMBLK
  1

  9
$DIMASO
 70
     1
  9
$DIMSHO
 70
     1
  9
$DIMPOST
  1

  9
$DIMAPOST
  1

  9
$DIMALT
 70
     0
  9
$DIMALTD
 70
     3
  9
$DIMALTF
 40
0.0393700787
  9
$DIMLFAC
 40
1.0
  9
$DIMTOFL
 70
     1
  9
$DIMTVP
 40
0.0
  9
$DIMTIX
 70
     0
  9
$DIMSOXD
 70
     0
  9
$DIMSAH
 70
     0
  9
$DIMBLK1
  1

  9
$DIMBLK2
  1

  9
$DIMSTYLE
  2
ISO-25
  9
$DIMCLRD
 70
     0
  9
$DIMCLRE
 70
     0
  9
$DIMCLRT
 70
     0
  9
$DIMTFAC
 40
1.0
  9
$DIMGAP
 40
1.524
  9
$DIMJUST
 70
     0
  9
$DIMSD1
 70
     0
  9
$DIMSD2
 70
     0
  9
$DIMTOLJ
 70
     0
  9
$DIMTZIN
 70
     0
  9
$DIMALTZ
 70
     0
  9
$DIMALTTZ
 70
     0
  9
$DIMUPT
 70
     0
  9
$DIMDEC
 70
     1
  9
$DIMTDEC
 70
     1
  9
$DIMALTU
 70
     2
  9
$DIMALTTD
 70
     3
  9
$DIMTXSTY
  7
Standard
  9
$DIMAUNIT
 70
     0
  9
$DIMADEC
 70
     2
  9
$DIMALTRND
 40
0.0
  9
$DIMAZIN
 70
     0
  9
$DIMDSEP
 70
    44
  9
$DIMATFIT
 70
     3
  9
$DIMFRAC
 70
     0
  9
$DIMLDRBLK
  1

  9
$DIMLUNIT
 70
     2
  9
$DIMLWD
 70
    -2
  9
$DIMLWE
 70
    -2
  9
$DIMTMOVE
 70
     0
  9
$LUNITS
 70
     2
  9
$LUPREC
 70
     1
  9
$SKETCHINC
 40
1.0
  9
$FILLETRAD
 40
10.0
  9
$AUNITS
 70
     0
  9
$AUPREC
 70
     2
  9
$MENU
  1
.
  9
$ELEVATION
 40
0.0
  9
$PELEVATION
 40
0.0
  9
$THICKNESS
 40
0.0
  9
$LIMCHECK
 70
     0
  9
$CHAMFERA
 40
0.0
  9
$CHAMFERB
 40
0.0
  9
$CHAMFERC
 40
0.0
  9
$CHAMFERD
 40
0.0
  9
$SKPOLY
 70
     0
  9
$TDCREATE
 40
2459605.3644975
  9
$TDUCREATE
 40
2459605.031164167
  9
$TDUPDATE
 40
2459605.36450419
  9
$TDUUPDATE
 40
2459605.031170857
  9
$TDINDWG
 40
0.0000000116
  9
$TDUSRTIMER
 40
0.0000000116
  9
$USRTIMER
 70
     1
  9
$ANGBASE
 50
0.0
  9
$ANGDIR
 70
     0
  9
$PDMODE
 70
     0
  9
$PDSIZE
 40
-1.0
  9
$PLINEWID
 40
0.0
  9
$SPLFRAME
 70
     0
  9
$SPLINETYPE
 70
     6
  9
$SPLINESEGS
 70
     8
  9
$HANDSEED
  5
282
  9
$SURFTAB1
 70
     6
  9
$SURFTAB2
 70
     6
  9
$SURFTYPE
 70
     6
  9
$SURFU
 70
     6
  9
$SURFV
 70
     6
  9
$UCSBASE
  2

  9
$UCSNAME
  2

  9
$UCSORG
 10
0.0
 20
0.0
 30
0.0
  9
$UCSXDIR
 10
1.0
 20
0.0
 30
0.0
  9
$UCSYDIR
 10
0.0
 20
1.0
 30
0.0
  9
$UCSORTHOREF
  2

  9
$UCSORTHOVIEW
 70
     0
  9
$UCSORGTOP
 10
0.0
 20
0.0
 30
0.0
  9
$UCSORGBOTTOM
 10
0.0
 20
0.0
 30
0.0
  9
$UCSORGLEFT
 10
0.0
 20
0.0
 30
0.0
  9
$UCSORGRIGHT
 10
0.0
 20
0.0
 30
0.0
  9
$UCSORGFRONT
 10
0.0
 20
0.0
 30
0.0
  9
$UCSORGBACK
 10
0.0
 20
0.0
 30
0.0
  9
$PUCSBASE
  2

  9
$PUCSNAME
  2

  9
$PUCSORG
 10
0.0
 20
0.0
 30
0.0
  9
$PUCSXDIR
 10
1.0
 20
0.0
 30
0.0
  9
$PUCSYDIR
 10
0.0
 20
1.0
 30
0.0
  9
$PUCSORTHOREF
  2

  9
$PUCSORTHOVIEW
 70
     0
  9
$PUCSORGTOP
 10
0.0
 20
0.0
 30
0.0
  9
$PUCSORGBOTTOM
 10
0.0
 20
0.0
 30
0.0
  9
$PUCSORGLEFT
 10
0.0
 20
0.0
 30
0.0
  9
$PUCSORGRIGHT
 10
0.0
 20
0.0
 30
0.0
  9
$PUCSORGFRONT
 10
0.0
 20
0.0
 30
0.0
  9
$PUCSORGBACK
 10
0.0
 20
0.0
 30
0.0
  9
$USERI1
 70
     0
  9
$USERI2
 70
     0
  9
$USERI3
 70
     0
  9
$USERI4
 70
     0
  9
$USERI5
 70
     0
  9
$USERR1
 40
0.0
  9
$USERR2
 40
0.0
  9
$USERR3
 40
0.0
  9
$USERR4
 40
0.0
  9
$USERR5
 40
0.0
  9
$WORLDVIEW
 70
     1
  9
$SHADEDGE
 70
     3
  9
$SHADEDIF
 70
    70
  9
$TILEMODE
 70
     1
  9
$MAXACTVP
 70
    64
  9
$PINSBASE
 10
0.0
 20
0.0
 30
0.0
  9
$PLIMCHECK
 70
     0
  9
$PEXTMIN
 10
1.0000000000E+20
 20
1.0000000000E+20
 30
1.0000000000E+20
  9
$PEXTMAX
 10
-1.0000000000E+20
 20
-1.0000000000E+20
 30
-1.0000000000E+20
  9
$PLIMMIN
 10
0.0
 20
0.0
  9
$PLIMMAX
 10
420.0
 20
297.0
  9
$UNITMODE
 70
     0
  9
$VISRETAIN
 70
     1
  9
$PLINEGEN
 70
     0
  9
$PSLTSCALE
 70
     1
  9
$TREEDEPTH
 70
  3020
  9
$CMLSTYLE
  2
Standard
  9
$CMLJUST
 70
     0
  9
$CMLSCALE
 40
20.0
  9
$PROXYGRAPHICS
 70
     1
  9
$MEASUREMENT
 70
     1
  9
$CELWEIGHT
370
    -1
  9
$ENDCAPS
280
     0
  9
$JOINSTYLE
280
     0
  9
$LWDISPLAY
290
     1
  9
$INSUNITS
 70
     4
  9
$HYPERLINKBASE
  1

  9
$STYLESHEET
  1

  9
$XEDIT
290
     1
  9
$CEPSNTYPE
380
     0
  9
$PSTYLEMODE
290
     1
  9
$FINGERPRINTGUID
  2
{E66ED958-889D-4FE3-A29A-3FAFF2A928D5}
  9
$VERSIONGUID
  2
{FAEB1C32-E019-11D5-929B-00C0DF256EC4}
  9
$EXTNAMES
290
     1
  9
$PSVPSCALE
 40
0.0
  9
$OLESTARTUP
290
     0
  0
ENDSEC
  0
SECTION
  2
CLASSES
  0
CLASS
  1
ACDBDICTIONARYWDFLT
  2
AcDbDictionaryWithDefault
  3
ObjectDBX Classes
 90
        0
280
     0
281
     0
  0
CLASS
  1
VISUALSTYLE
  2
AcDbVisualStyle
  3
ObjectDBX Classes
 90
     4095
280
     0
281
     0
  0
CLASS
  1
MATERIAL
  2
AcDbMaterial
  3
ObjectDBX Classes
 90
     1153
280
     0
281
     0
  0
CLASS
  1
SCALE
  2
AcDbScale
  3
ObjectDBX Classes
 90
     1153
280
     0
281
     0
  0
CLASS
  1
TABLESTYLE
  2
AcDbTableStyle
  3
ObjectDBX Classes
 90
     4095
280
     0
281
     0
  0
CLASS
  1
MLEADERSTYLE
  2
AcDbMLeaderStyle
  3
ACDB_MLEADERSTYLE_CLASS
 90
     4095
280
     0
281
     0
  0
CLASS
  1
SUN
  2
AcDbSun
  3
SCENEOE
 90
     1153
280
     0
281
     0
  0
CLASS
  1
ACDBPLACEHOLDER
  2
AcDbPlaceHolder
  3
ObjectDBX Classes
 90
        0
280
     0
281
     0
  0
CLASS
  1
LAYOUT
  2
AcDbLayout
  3
ObjectDBX Classes
 90
        0
280
     0
281
     0
  0
ENDSEC
  0
SECTION
  2
TABLES
  0
TABLE
  2
VPORT
  5
8
330
0
100
AcDbSymbolTable
 70
     1
  0
VPORT
  5
29
330
8
100
AcDbSymbolTableRecord
100
AcDbViewportTableRecord
  2
*Active
 70
     0
 10
0.0
 20
0.0
 11
1.0
 21
1.0
 12
210.0
 22
148.5
 13
0.0
 23
0.0
 14
10.0
 24
10.0
 15
10.0
 25
10.0
 16
0.0
 26
0.0
 36
1.0
 17
0.0
 27
0.0
 37
0.0
 40
297.0
 41
1.4141414141
 42
50.0
 43
0.0
 44
0.0
 50
0.0
 51
0.0
 71
     0
 72
  2000
 73
     1
 74
     3
 75
     0
 76
     0
 77
     0
 78
     0
281
     0
 65
     1
110
0.0
120
0.0
130
0.0
111
1.0
121
0.0
131
0.0
112
0.0
122
1.0
132
0.0
 79
     0
146
0.0
  0
ENDTAB
  0
TABLE
  2
LTYPE
  5
5
330
0
100
AcDbSymbolTable
 70
     6
  0
LTYPE
  5
14
330
5
100
AcDbSymbolTableRecord
100
AcDbLinetypeTableRecord
  2
ByBlock
 70
     0
  3

 72
    65
 73
     0
 40
0.0
  0
LTYPE
  5
15
330
5
100
AcDbSymbolTableRecord
100
AcDbLinetypeTableRecord
  2
ByLayer
 70
     0
  3

 72
    65
 73
     0
 40
0.0
  0
LTYPE
  5
16
330
5
100
AcDbSymbolTableRecord
100
AcDbLinetypeTableRecord
  2
Continuous
 70
     0
  3
Solid line
 72
    65
 73
     0
 40
0.0
  0
LTYPE
  5
6E
330
5
100
AcDbSymbolTableRecord
100
AcDbLinetypeTableRecord
  2
HIDDEN
 70
     0
  3
Hidden __ __ __ __ __ __ __ __ __ __ __ __ __ __
 72
    65
 73
     2
 40
1.905
 49
1.27
 74
     0
 49
-0.635
 74
     0
  0
LTYPE
  5
6F
330
5
100
AcDbSymbolTableRecord
100
AcDbLinetypeTableRecord
  2
PHANTOM
 70
     0
  3
Phantom ______  __  __  ______  __  __  ______
 72
    65
 73
     6
 40
12.7
 49
6.35
 74
     0
 49
-1.27
 74
     0
 49
1.27
 74
     0
 49
-1.27
 74
     0
 49
1.27
 74
     0
 49
-1.27
 74
     0
  0
LTYPE
  5
70
330
5
100
AcDbSymbolTableRecord
100
AcDbLinetypeTableRecord
  2
CENTER
 70
     0
  3
Center ____ _ ____ _ ____ _ ____ _ ____ _ ____
 72
    65
 73
     4
 40
10.16
 49
6.35
 74
     0
 49
-1.27
 74
     0
 49
1.27
 74
     0
 49
-1.27
 74
     0
  0
LTYPE
  5
71
330
5
100
AcDbSymbolTableRecord
100
AcDbLinetypeTableRecord
  2
CENTERX2
 70
     0
  3
Center (2x) ________  __  ________  __  _____
 72
    65
 73
     4
 40
20.32
 49
12.7
 74
     0
 49
-2.54
 74
     0
 49
2.54
 74
     0
 49
-2.54
 74
     0
  0
LTYPE
  5
72
330
5
100
AcDbSymbolTableRecord
100
AcDbLinetypeTableRecord
  2
DOT2
 70
     0
  3
Dot (.5x) ........................................
 72
    65
 73
     2
 40
0.635
 49
0.0
 74
     0
 49
-0.635
 74
     0
  0
ENDTAB
  0
TABLE
  2
LAYER
  5
2
330
0
100
AcDbSymbolTable
 70
     9
  0
LAYER
  5
10
330
2
100
AcDbSymbolTableRecord
100
AcDbLayerTableRecord
  2
0
 70
     0
 62
     7
  6
Continuous
370
    -3
390
F
  0
LAYER
  5
73
330
2
100
AcDbSymbolTableRecord
100
AcDbLayerTableRecord
  2
アノテーション
 70
     0
 62
     7
  6
Continuous
370
    -3
390
F
  0
LAYER
  5
74
330
2
100
AcDbSymbolTableRecord
100
AcDbLayerTableRecord
  2
寸法
 70
     0
 62
     7
  6
Continuous
370
    -3
390
F
  0
LAYER
  5
75
330
2
100
AcDbSymbolTableRecord
100
AcDbLayerTableRecord
  2
PIC01
 70
     0
 62
   179
  6
Continuous
370
    -3
390
F
  0
LAYER
  5
76
330
2
100
AcDbSymbolTableRecord
100
AcDbLayerTableRecord
  2
FORMAT
 70
     0
 62
     7
  6
Continuous
370
    -3
390
F
  0
LAYER
  5
77
330
2
100
AcDbSymbolTableRecord
100
AcDbLayerTableRecord
  2
SLD-0
 70
     0
 62
     7
  6
Continuous
370
    -3
390
F
  0
LAYER
  5
78
330
2
100
AcDbSymbolTableRecord
100
AcDbLayerTableRecord
  2
SLD-DEFPOINTS
 70
     0
 62
     7
  6
Continuous
370
    -3
390
F
  0
LAYER
  5
79
330
2
100
AcDbSymbolTableRecord
100
AcDbLayerTableRecord
  2
33
 70
     0
 62
     7
  6
Continuous
370
    -3
390
F
  0
LAYER
  5
7A
330
2
100
AcDbSymbolTableRecord
100
AcDbLayerTableRecord
  2
64
 70
     0
 62
     7
  6
Continuous
370
    -3
390
F
  0
ENDTAB
  0
TABLE
  2
STYLE
  5
3
330
0
100
AcDbSymbolTable
 70
     6
  0
STYLE
  5
11
330
3
100
AcDbSymbolTableRecord
100
AcDbTextStyleTableRecord
  2
Standard
 70
     0
 40
0.0
 41
1.0
 50
0.0
 71
     0
 42
2.5
  3
txt
  4

  0
STYLE
  5
AC
330
3
100
AcDbSymbolTableRecord
100
AcDbTextStyleTableRecord
  2
SLDTEXTSTYLE0
 70
     0
 40
0.0
 41
0.75
 50
0.0
 71
     0
 42
2.5
  3
TXT
  4
bigfont
  0
STYLE
  5
AF
330
3
100
AcDbSymbolTableRecord
100
AcDbTextStyleTableRecord
  2
SLDTEXTSTYLE1
 70
     0
 40
0.0
 41
0.75
 50
0.0
 71
     0
 42
2.5
  3
TXT
  4

  0
STYLE
  5
B7
330
3
100
AcDbSymbolTableRecord
100
AcDbTextStyleTableRecord
  2
SLDTEXTSTYLE2
 70
     0
 40
0.0
 41
0.7
 50
0.0
 71
     0
 42
2.5
  3
TXT
  4
bigfont
  0
STYLE
  5
DF
330
3
100
AcDbSymbolTableRecord
100
AcDbTextStyleTableRecord
  2
SLDTEXTSTYLE3
 70
     0
 40
0.0
 41
0.7
 50
0.0
 71
     0
 42
2.5
  3
TXT
  4

  0
STYLE
  5
E1
330
3
100
AcDbSymbolTableRecord
100
AcDbTextStyleTableRecord
  2
SLDTEXTSTYLE4
 70
     0
 40
0.0
 41
0.6
 50
0.0
 71
     0
 42
2.5
  3
TXT
  4

  0
ENDTAB
  0
TABLE
  2
VIEW
  5
6
330
0
100
AcDbSymbolTable
 70
     0
  0
ENDTAB
  0
TABLE
  2
UCS
  5
7
330
0
100
AcDbSymbolTable
 70
     0
  0
ENDTAB
  0
TABLE
  2
APPID
  5
9
330
0
100
AcDbSymbolTable
 70
     1
  0
APPID
  5
12
330
9
100
AcDbSymbolTableRecord
100
AcDbRegAppTableRecord
  2
ACAD
 70
     0
  0
ENDTAB
  0
TABLE
  2
DIMSTYLE
  5
A
330
0
100
AcDbSymbolTable
 70
     6
100
AcDbDimStyleTable
  0
DIMSTYLE
105
27
330
A
100
AcDbSymbolTableRecord
100
AcDbDimStyleTableRecord
  2
ISO-25
 70
     0
 41
2.5
 42
0.625
 43
3.75
 44
1.25
 73
     0
 74
     0
 77
     1
 78
     8
140
2.5
141
2.5
143
0.0393700787
147
0.625
171
     3
172
     1
178
     0
271
     2
272
     2
274
     3
278
    44
283
     0
284
     8
340
11
  0
DIMSTYLE
105
155
102
{ACAD_REACTORS
330
154
330
220
330
235
330
24A
330
254
330
25F
102
}
330
A
100
AcDbSymbolTableRecord
100
AcDbDimStyleTableRecord
  2
SLDDIMSTYLE0
 70
     0
 41
2.5
 44
0.0
 45
0.000000001
 73
     0
 74
     0
 77
     3
 78
    12
 79
     3
140
2.5
147
0.625
173
     1
178
     0
271
     1
272
     1
276
     2
284
    12
340
DF
341
156
343
156
344
156
  0
DIMSTYLE
105
16E
102
{ACAD_REACTORS
330
16D
102
}
330
A
100
AcDbSymbolTableRecord
100
AcDbDimStyleTableRecord
  2
SLDDIMSTYLE1
 70
     0
 41
2.5
 44
0.0
 45
0.000000001
 73
     0
 74
     0
 77
     3
 78
     8
 79
     2
140
2.5
141
0.0
147
0.625
173
     1
178
     0
271
     1
272
     1
276
     2
284
    12
340
DF
341
156
343
156
344
156
  0
DIMSTYLE
105
1D8
330
A
100
AcDbSymbolTableRecord
100
AcDbDimStyleTableRecord
  2
SLDDIMSTYLE2
 70
     0
 41
2.5
 44
0.0
 45
0.000000001
146
2.5
147
0.0
173
     1
178
     0
271
     0
272
     0
276
     2
340
11
341
156
343
156
344
156
  0
DIMSTYLE
105
22B
102
{ACAD_REACTORS
330
22A
330
268
330
274
102
}
330
A
100
AcDbSymbolTableRecord
100
AcDbDimStyleTableRecord
  2
SLDDIMSTYLE3
 70
     0
 41
2.5
 44
0.0
 45
0.000000001
 73
     0
 74
     0
 77
     3
 78
    12
 79
     3
140
2.5
147
0.625
172
     1
173
     1
178
     0
271
     1
272
     1
276
     2
284
    12
289
     0
340
DF
341
156
343
156
344
156
  0
DIMSTYLE
105
240
102
{ACAD_REACTORS
330
23F
102
}
330
A
100
AcDbSymbolTableRecord
100
AcDbDimStyleTableRecord
  2
SLDDIMSTYLE4
 70
     0
 41
2.5
 44
0.0
 45
0.000000001
 73
     0
 74
     0
 77
     3
 78
    12
 79
     3
140
2.5
147
0.625
173
     1
178
     0
271
     6
272
     1
276
     2
284
    12
340
DF
341
156
343
156
344
156
  0
ENDTAB
  0
TABLE
  2
BLOCK_RECORD
  5
1
330
0
100
AcDbSymbolTable
 70
    23
  0
BLOCK_RECORD
  5
1F
330
1
100
AcDbSymbolTableRecord
100
AcDbBlockTableRecord
  2
*Model_Space
340
22
  0
BLOCK_RECORD
  5
1B
330
1
100
AcDbSymbolTableRecord
100
AcDbBlockTableRecord
  2
*Paper_Space
340
1E
  0
BLOCK_RECORD
  5
23
330
1
100
AcDbSymbolTableRecord
100
AcDbBlockTableRecord
  2
*Paper_Space0
340
26
  0
BLOCK_RECORD
  5
7B
330
1
100
AcDbSymbolTableRecord
100
AcDbBlockTableRecord
  2
块9
340
0
102
{BLKREFS
331
D2
102
}
  0
BLOCK_RECORD
  5
A9
330
1
100
AcDbSymbolTableRecord
100
AcDbBlockTableRecord
  2
块10
340
0
102
{BLKREFS
331
D3
102
}
  0
BLOCK_RECORD
  5
BB
330
1
100
AcDbSymbolTableRecord
100
AcDbBlockTableRecord
  2
块17
340
0
102
{BLKREFS
331
1D1
102
}
  0
BLOCK_RECORD
  5
C6
330
1
100
AcDbSymbolTableRecord
100
AcDbBlockTableRecord
  2
承认图块
340
0
102
{BLKREFS
331
DC
102
}
  0
BLOCK_RECORD
  5
CB
330
1
100
AcDbSymbolTableRecord
100
AcDbBlockTableRecord
  2
社外密
340
0
102
{BLKREFS
331
DD
102
}
  0
BLOCK_RECORD
  5
E3
330
1
100
AcDbSymbolTableRecord
100
AcDbBlockTableRecord
  2
SW_NOTE_0
340
0
102
{BLKREFS
331
E8
102
}
  0
BLOCK_RECORD
  5
EB
330
1
100
AcDbSymbolTableRecord
100
AcDbBlockTableRecord
  2
SW_TABLEANNOTATION_0
340
0
102
{BLKREFS
331
11B
102
}
  0
BLOCK_RECORD
  5
11C
330
1
100
AcDbSymbolTableRecord
100
AcDbBlockTableRecord
  2
SW_TABLEANNOTATION_1
340
0
102
{BLKREFS
331
131
102
}
  0
BLOCK_RECORD
  5
156
330
1
100
AcDbSymbolTableRecord
100
AcDbBlockTableRecord
  2
_OPEN30
340
0
102
{BLKREFS
331
15F
331
160
331
172
331
224
331
225
331
22F
331
230
331
239
331
23A
331
244
331
245
331
24E
331
24F
331
258
331
259
331
263
331
264
331
26C
331
26D
331
278
331
279
102
}
  0
BLOCK_RECORD
  5
15C
330
1
100
AcDbSymbolTableRecord
100
AcDbBlockTableRecord
  2
_D
340
0
  0
BLOCK_RECORD
  5
164
330
1
100
AcDbSymbolTableRecord
100
AcDbBlockTableRecord
  2
SW_SYMBOL_MOD_BOX
340
0
102
{BLKREFS
331
16B
102
}
  0
BLOCK_RECORD
  5
16F
330
1
100
AcDbSymbolTableRecord
100
AcDbBlockTableRecord
  2
_D_1
340
0
  0
BLOCK_RECORD
  5
1D2
330
1
100
AcDbSymbolTableRecord
100
AcDbBlockTableRecord
  2
SW_NOTE_1
340
0
102
{BLKREFS
331
1D7
102
}
  0
BLOCK_RECORD
  5
221
330
1
100
AcDbSymbolTableRecord
100
AcDbBlockTableRecord
  2
_D_2
340
0
  0
BLOCK_RECORD
  5
22C
330
1
100
AcDbSymbolTableRecord
100
AcDbBlockTableRecord
  2
_D_3
340
0
  0
BLOCK_RECORD
  5
236
330
1
100
AcDbSymbolTableRecord
100
AcDbBlockTableRecord
  2
_D_4
340
0
  0
BLOCK_RECORD
  5
241
330
1
100
AcDbSymbolTableRecord
100
AcDbBlockTableRecord
  2
_D_5
340
0
  0
BLOCK_RECORD
  5
24B
330
1
100
AcDbSymbolTableRecord
100
AcDbBlockTableRecord
  2
_D_6
340
0
  0
BLOCK_RECORD
  5
255
330
1
100
AcDbSymbolTableRecord
100
AcDbBlockTableRecord
  2
_D_7
340
0
  0
BLOCK_RECORD
  5
260
330
1
100
AcDbSymbolTableRecord
100
AcDbBlockTableRecord
  2
_D_8
340
0
  0
BLOCK_RECORD
  5
269
330
1
100
AcDbSymbolTableRecord
100
AcDbBlockTableRecord
  2
_D_9
340
0
  0
BLOCK_RECORD
  5
275
330
1
100
AcDbSymbolTableRecord
100
AcDbBlockTableRecord
  2
_D_10
340
0
  0
ENDTAB
  0
ENDSEC
  0
SECTION
  2
BLOCKS
  0
BLOCK
  5
20
330
1F
100
AcDbEntity
  8
0
100
AcDbBlockBegin
  2
*Model_Space
 70
     0
 10
0.0
 20
0.0
 30
0.0
  3
*Model_Space
  1

  0
ENDBLK
  5
21
330
1F
100
AcDbEntity
  8
0
100
AcDbBlockEnd
  0
BLOCK
  5
1C
330
1B
100
AcDbEntity
 67
     1
  8
0
100
AcDbBlockBegin
  2
*Paper_Space
 70
     0
 10
0.0
 20
0.0
 30
0.0
  3
*Paper_Space
  1

  0
ENDBLK
  5
1D
330
1B
100
AcDbEntity
 67
     1
  8
0
100
AcDbBlockEnd
  0
BLOCK
  5
24
330
23
100
AcDbEntity
  8
0
100
AcDbBlockBegin
  2
*Paper_Space0
 70
     0
 10
0.0
 20
0.0
 30
0.0
  3
*Paper_Space0
  1

  0
ENDBLK
  5
25
330
23
100
AcDbEntity
  8
0
100
AcDbBlockEnd
  0
BLOCK
  5
7C
330
7B
100
AcDbEntity
  8
0
100
AcDbBlockBegin
  2
块9
 70
     0
 10
0.0
 20
0.0
 30
0.0
  3
块9
  1

  0
CIRCLE
  5
7E
330
7B
100
AcDbEntity
  8
0
100
AcDbCircle
 10
54.5199695899
 20
33.7521051225
 30
0.0
 40
1.353874625394937
  0
CIRCLE
  5
7F
330
7B
100
AcDbEntity
  8
0
100
AcDbCircle
 10
54.5199695899
 20
33.7521051225
 30
0.0
 40
2.49999999999995
  0
LINE
  5
80
330
7B
100
AcDbEntity
  8
0
100
AcDbLine
 10
0.0
 20
29.0
 30
0.0
 11
90.0
 21
29.0
 31
0.0
  0
LINE
  5
81
330
7B
100
AcDbEntity
  8
0
100
AcDbLine
 10
90.0
 20
20.0
 30
0.0
 11
175.0
 21
20.0
 31
0.0
  0
LINE
  5
82
330
7B
100
AcDbEntity
  8
0
370
    18
100
AcDbLine
 10
175.0
 20
40.0
 30
0.0
 11
0.0
 21
40.0
 31
0.0
  0
LINE
  5
83
330
7B
100
AcDbEntity
  8
0
100
AcDbLine
 10
0.0
 20
14.0
 30
0.0
 11
90.0
 21
14.0
 31
0.0
  0
LINE
  5
84
330
7B
100
AcDbEntity
  8
0
100
AcDbLine
 10
0.0
 20
23.6250780825
 30
0.0
 11
50.0
 21
23.6250780825
 31
0.0
  0
LINE
  5
85
330
7B
100
AcDbEntity
  8
0
100
AcDbLine
 10
13.0
 20
29.0
 30
0.0
 11
13.0
 21
14.0
 31
0.0
  0
LINE
  5
86
330
7B
100
AcDbEntity
  8
0
370
    18
100
AcDbLine
 10
0.0
 20
40.0
 30
0.0
 11
0.0
 21
0.0
 31
0.0
  0
LINE
  5
87
330
7B
100
AcDbEntity
  8
0
100
AcDbLine
 10
37.0
 20
29.0
 30
0.0
 11
37.0
 21
14.0
 31
0.0
  0
LINE
  5
88
330
7B
100
AcDbEntity
  8
0
100
AcDbLine
 10
50.0
 20
40.0
 30
0.0
 11
50.0
 21
14.0
 31
0.0
  0
LINE
  5
89
330
7B
100
AcDbEntity
  8
0
100
AcDbLine
 10
70.0
 20
40.0
 30
0.0
 11
70.0
 21
14.0
 31
0.0
  0
LINE
  5
8A
330
7B
100
AcDbEntity
  8
0
  6
CENTER
100
AcDbLine
 10
65.4883398317
 20
33.7521051225
 30
0.0
 11
67.8873398317
 21
33.7521051225
 31
0.0
  0
LINE
  5
8B
330
7B
100
AcDbEntity
  8
0
100
AcDbLine
 10
59.6871010363
 20
32.3982304971
 30
0.0
 11
66.1871010363
 21
31.2521051225
 31
0.0
  0
LINE
  5
8C
330
7B
100
AcDbEntity
  8
0
100
AcDbLine
 10
66.1871010363
 20
36.2521051225
 30
0.0
 11
59.6871010363
 21
35.1059797479
 31
0.0
  0
LINE
  5
8D
330
7B
100
AcDbEntity
  8
0
  6
CENTER
100
AcDbLine
 10
57.0790533351
 20
33.7521051225
 30
0.0
 11
59.4780533351
 21
33.7521051225
 31
0.0
  0
LINE
  5
8E
330
7B
100
AcDbEntity
  8
0
  6
CENTER
100
AcDbLine
 10
54.5199695899
 20
31.1421051225
 30
0.0
 11
54.5199695899
 21
33.5411051225
 31
0.0
  0
LINE
  5
8F
330
7B
100
AcDbEntity
  8
0
  6
CENTER
100
AcDbLine
 10
54.4649695899
 20
33.7521051225
 30
0.0
 11
54.5749695899
 21
33.7521051225
 31
0.0
  0
LINE
  5
90
330
7B
100
AcDbEntity
  8
0
  6
CENTER
100
AcDbLine
 10
54.4649695899
 20
33.7521051225
 30
0.0
 11
54.5749695899
 21
33.7521051225
 31
0.0
  0
LINE
  5
91
330
7B
100
AcDbEntity
  8
0
  6
CENTER
100
AcDbLine
 10
54.5199695899
 20
33.6971051225
 30
0.0
 11
54.5199695899
 21
33.8071051225
 31
0.0
  0
LINE
  5
92
330
7B
100
AcDbEntity
  8
0
  6
CENTER
100
AcDbLine
 10
54.5199695899
 20
33.6971051225
 30
0.0
 11
54.5199695899
 21
33.8071051225
 31
0.0
  0
LINE
  5
93
330
7B
100
AcDbEntity
  8
0
  6
CENTER
100
AcDbLine
 10
54.7309695899
 20
33.7521051225
 30
0.0
 11
57.1299695899
 21
33.7521051225
 31
0.0
  0
LINE
  5
94
330
7B
100
AcDbEntity
  8
0
  6
CENTER
100
AcDbLine
 10
54.5199695899
 20
33.9631051225
 30
0.0
 11
54.5199695899
 21
36.3621051225
 31
0.0
  0
LINE
  5
95
330
7B
100
AcDbEntity
  8
0
  6
CENTER
100
AcDbLine
 10
51.9099695899
 20
33.7521051225
 30
0.0
 11
54.3089695899
 21
33.7521051225
 31
0.0
  0
LINE
  5
96
330
7B
100
AcDbEntity
  8
0
  6
CENTER
100
AcDbLine
 10
65.2223398317
 20
33.7521051225
 30
0.0
 11
65.3323398317
 21
33.7521051225
 31
0.0
  0
LINE
  5
97
330
7B
100
AcDbEntity
  8
0
  6
CENTER
100
AcDbLine
 10
65.2773398317
 20
33.6971051225
 30
0.0
 11
65.2773398317
 21
33.8071051225
 31
0.0
  0
LINE
  5
98
330
7B
100
AcDbEntity
  8
0
  6
CENTER
100
AcDbLine
 10
65.2223398317
 20
33.7521051225
 30
0.0
 11
65.3323398317
 21
33.7521051225
 31
0.0
  0
LINE
  5
99
330
7B
100
AcDbEntity
  8
0
  6
CENTER
100
AcDbLine
 10
65.2773398317
 20
33.6971051225
 30
0.0
 11
65.2773398317
 21
33.8071051225
 31
0.0
  0
LINE
  5
9A
330
7B
100
AcDbEntity
  8
0
  6
CENTER
100
AcDbLine
 10
62.4741962362
 20
33.6971051225
 30
0.0
 11
62.4741962362
 21
33.8071051225
 31
0.0
  0
LINE
  5
9B
330
7B
100
AcDbEntity
  8
0
  6
CENTER
100
AcDbLine
 10
62.4191962362
 20
33.7521051225
 30
0.0
 11
62.5291962362
 21
33.7521051225
 31
0.0
  0
LINE
  5
9C
330
7B
100
AcDbEntity
  8
0
  6
CENTER
100
AcDbLine
 10
62.4741962362
 20
33.6971051225
 30
0.0
 11
62.4741962362
 21
33.8071051225
 31
0.0
  0
LINE
  5
9D
330
7B
100
AcDbEntity
  8
0
  6
CENTER
100
AcDbLine
 10
62.4191962362
 20
33.7521051225
 30
0.0
 11
62.5291962362
 21
33.7521051225
 31
0.0
  0
LINE
  5
9E
330
7B
100
AcDbEntity
  8
0
  6
CENTER
100
AcDbLine
 10
62.6673398317
 20
33.7521051225
 30
0.0
 11
65.0663398317
 21
33.7521051225
 31
0.0
  0
LINE
  5
9F
330
7B
100
AcDbEntity
  8
0
100
AcDbLine
 10
59.6871010363
 20
32.3982304971
 30
0.0
 11
59.6871010363
 21
33.7521051225
 31
0.0
  0
LINE
  5
A0
330
7B
100
AcDbEntity
  8
0
  6
CENTER
100
AcDbLine
 10
59.6890533351
 20
33.6971051225
 30
0.0
 11
59.6890533351
 21
33.8071051225
 31
0.0
  0
LINE
  5
A1
330
7B
100
AcDbEntity
  8
0
  6
CENTER
100
AcDbLine
 10
59.6340533351
 20
33.7521051225
 30
0.0
 11
59.7440533351
 21
33.7521051225
 31
0.0
  0
LINE
  5
A2
330
7B
100
AcDbEntity
  8
0
  6
CENTER
100
AcDbLine
 10
59.6890533351
 20
33.6971051225
 30
0.0
 11
59.6890533351
 21
33.8071051225
 31
0.0
  0
LINE
  5
A3
330
7B
100
AcDbEntity
  8
0
  6
CENTER
100
AcDbLine
 10
59.6340533351
 20
33.7521051225
 30
0.0
 11
59.7440533351
 21
33.7521051225
 31
0.0
  0
LINE
  5
A4
330
7B
100
AcDbEntity
  8
0
100
AcDbLine
 10
59.6871010363
 20
33.7521051225
 30
0.0
 11
59.6871010363
 21
35.1059797479
 31
0.0
  0
LINE
  5
A5
330
7B
100
AcDbEntity
  8
0
  6
CENTER
100
AcDbLine
 10
59.9000533351
 20
33.7521051225
 30
0.0
 11
62.2990533351
 21
33.7521051225
 31
0.0
  0
LINE
  5
A6
330
7B
100
AcDbEntity
  8
0
100
AcDbLine
 10
66.1871010363
 20
33.7521051225
 30
0.0
 11
66.1871010363
 21
31.2521051225
 31
0.0
  0
LINE
  5
A7
330
7B
100
AcDbEntity
  8
0
100
AcDbLine
 10
66.1871010363
 20
36.2521051225
 30
0.0
 11
66.1871010363
 21
33.7521051225
 31
0.0
  0
LINE
  5
A8
330
7B
100
AcDbEntity
  8
0
100
AcDbLine
 10
90.0
 20
40.0
 30
0.0
 11
90.0
 21
0.0
 31
0.0
  0
ENDBLK
  5
7D
330
7B
100
AcDbEntity
  8
0
100
AcDbBlockEnd
  0
BLOCK
  5
AA
330
A9
100
AcDbEntity
  8
0
100
AcDbBlockBegin
  2
块10
 70
     0
 10
0.0
 20
0.0
 30
0.0
  3
块10
  1

  0
MTEXT
  5
AD
330
A9
100
AcDbEntity
  8
0
100
AcDbMText
 10
2.071493163
 20
12.0659955992
 30
0.0
 40
3.0
 41
0.0
 71
     1
 72
     1
  1
备\M+18D6C
  7
SLDTEXTSTYLE0
 73
     1
 44
1.0
  0
MTEXT
  5
AE
330
A9
100
AcDbEntity
  8
0
100
AcDbMText
 10
2.071493163
 20
28.008450902
 30
0.0
 40
3.0
 41
0.0
 71
     1
 72
     1
  1
\M+190A7图
  7
SLDTEXTSTYLE0
 73
     1
 44
1.0
  0
MTEXT
  5
B0
330
A9
100
AcDbEntity
  8
0
100
AcDbMText
 10
80.4555544639
 20
34.429757624
 30
0.0
 40
3.0
 41
0.0
 71
     1
 72
     1
  1
mm
  7
SLDTEXTSTYLE1
 73
     1
 44
1.0
  0
MTEXT
  5
B1
330
A9
100
AcDbEntity
  8
0
100
AcDbMText
 10
93.4712002545
 20
38.6957449577
 30
0.0
 40
3.0
 41
0.0
 71
     1
 72
     1
  1
\M+196BC\M+18FCC
  7
SLDTEXTSTYLE0
 73
     1
 44
1.0
  0
MTEXT
  5
B2
330
A9
100
AcDbEntity
  8
0
100
AcDbMText
 10
21.6040936217
 20
28.008450902
 30
0.0
 40
3.0
 41
0.0
 71
     1
 72
     1
  1
检图
  7
SLDTEXTSTYLE0
 73
     1
 44
1.0
  0
MTEXT
  5
B3
330
A9
100
AcDbEntity
  8
0
100
AcDbMText
 10
40.7780323707
 20
28.008450902
 30
0.0
 40
3.0
 41
0.0
 71
     1
 72
     1
  1
\M+18FB3认
  7
SLDTEXTSTYLE0
 73
     1
 44
1.0
  0
MTEXT
  5
B4
330
A9
100
AcDbEntity
  8
0
100
AcDbMText
 10
72.6745855574
 20
38.6957449577
 30
0.0
 40
3.0
 41
0.0
 71
     1
 72
     1
  1
单\M+188CA
  7
SLDTEXTSTYLE0
 73
     1
 44
1.0
  0
MTEXT
  5
B5
330
A9
100
AcDbEntity
  8
0
100
AcDbMText
 10
51.776709216
 20
28.008450902
 30
0.0
 40
3.0
 41
0.0
 71
     1
 72
     1
  1
\M+193FA\M+18AFA
  7
SLDTEXTSTYLE0
 73
     1
 44
1.0
  0
MTEXT
  5
B6
330
A9
100
AcDbEntity
  8
0
100
AcDbMText
 10
93.4712002545
 20
17.5444400216
 30
0.0
 40
3.0
 41
0.0
 71
     1
 72
     1
  1
图\M+194D4
  7
SLDTEXTSTYLE0
 73
     1
 44
1.0
  0
MTEXT
  5
B8
330
A9
100
AcDbEntity
  8
0
100
AcDbMText
 10
2.8740057953
 20
36.939136921
 30
0.0
 40
3.7041666667
 41
0.0
 71
     1
 72
     1
  1
东\M+193A9(\M+191E5连)\M+1974C\M+18CC0\M+18CF6\M+18E69
  7
SLDTEXTSTYLE2
 73
     1
 44
1.0
  0
MTEXT
  5
B9
330
A9
100
AcDbEntity
  8
0
100
AcDbMText
 10
79.0429375195
 20
20.9045062761
 30
0.0
 40
3.0
 41
0.0
 71
     1
 72
     1
  1
:
  7
SLDTEXTSTYLE1
 73
     1
 44
1.0
  0
MTEXT
  5
BA
330
A9
100
AcDbEntity
  8
0
100
AcDbMText
 10
72.6745855574
 20
28.008450902
 30
0.0
 40
3.0
 41
0.0
 71
     1
 72
     1
  1
\M+18EDA\M+19378
  7
SLDTEXTSTYLE0
 73
     1
 44
1.0
  0
INSERT
  5
D2
330
A9
100
AcDbEntity
  8
0
  6
Continuous
 62
     7
100
AcDbBlockReference
  2
块9
 10
0.0
 20
0.0
 30
0.0
  0
ENDBLK
  5
AB
330
A9
100
AcDbEntity
  8
0
100
AcDbBlockEnd
  0
BLOCK
  5
BC
330
BB
100
AcDbEntity
  8
0
100
AcDbBlockBegin
  2
块17
 70
     0
 10
0.0
 20
0.0
 30
0.0
  3
块17
  1

  0
ARC
  5
BE
330
BB
100
AcDbEntity
  8
アノテーション
 62
     7
100
AcDbCircle
 10
20.9908472826
 20
-37.6852685001
 30
0.0
 40
2.000000000000004
100
AcDbArc
 50
180.0
 51
270.0
  0
ARC
  5
BF
330
BB
100
AcDbEntity
  8
アノテーション
 62
     7
100
AcDbCircle
 10
48.9908472826
 20
-31.6852685001
 30
0.0
 40
2.000000000000007
100
AcDbArc
 50
0.0
 51
90.0
  0
ARC
  5
C0
330
BB
100
AcDbEntity
  8
アノテーション
 62
     7
100
AcDbCircle
 10
20.9908472826
 20
-31.6852685001
 30
0.0
 40
2.000000000000004
100
AcDbArc
 50
90.0
 51
180.0
  0
ARC
  5
C1
330
BB
100
AcDbEntity
  8
アノテーション
 62
     7
100
AcDbCircle
 10
48.9908472826
 20
-37.6852685001
 30
0.0
 40
2.000000000000007
100
AcDbArc
 50
270.0
 51
0.0
  0
LINE
  5
C2
330
BB
100
AcDbEntity
  8
アノテーション
 62
     7
100
AcDbLine
 10
20.9908472826
 20
-29.6852685001
 30
0.0
 11
48.9908472826
 21
-29.6852685001
 31
0.0
  0
LINE
  5
C3
330
BB
100
AcDbEntity
  8
アノテーション
 62
     7
100
AcDbLine
 10
18.9908472826
 20
-31.6852685001
 30
0.0
 11
18.9908472826
 21
-37.6852685001
 31
0.0
  0
LINE
  5
C4
330
BB
100
AcDbEntity
  8
アノテーション
 62
     7
100
AcDbLine
 10
20.9908472826
 20
-39.6852685001
 30
0.0
 11
48.9908472826
 21
-39.6852685001
 31
0.0
  0
LINE
  5
C5
330
BB
100
AcDbEntity
  8
アノテーション
 62
     7
100
AcDbLine
 10
50.9908472826
 20
-31.6852685001
 30
0.0
 11
50.9908472826
 21
-37.6852685001
 31
0.0
  0
ENDBLK
  5
BD
330
BB
100
AcDbEntity
  8
0
100
AcDbBlockEnd
  0
BLOCK
  5
C7
330
C6
100
AcDbEntity
  8
0
100
AcDbBlockBegin
  2
承认图块
 70
     0
 10
0.0
 20
0.0
 30
0.0
  3
承认图块
  1

  0
LINE
  5
C9
330
C6
100
AcDbEntity
  8
アノテーション
100
AcDbLine
 10
0.0
 20
0.0
 30
0.0
 11
175.0
 21
0.0
 31
0.0
  0
LINE
  5
CA
330
C6
100
AcDbEntity
  8
アノテーション
100
AcDbLine
 10
175.0
 20
0.0
 30
0.0
 11
175.0
 21
40.0
 31
0.0
  0
INSERT
  5
D3
330
C6
100
AcDbEntity
  8
0
  6
Continuous
 62
     7
100
AcDbBlockReference
  2
块10
 10
0.0
 20
0.0
 30
0.0
  0
ENDBLK
  5
C8
330
C6
100
AcDbEntity
  8
0
100
AcDbBlockEnd
  0
BLOCK
  5
CC
330
CB
100
AcDbEntity
  8
0
100
AcDbBlockBegin
  2
社外密
 70
     0
 10
0.0
 20
0.0
 30
0.0
  3
社外密
  1

  0
LINE
  5
CE
330
CB
100
AcDbEntity
  8
33
100
AcDbLine
 10
-7.7258704751
 20
578.4373001297
 30
0.0
 11
-7.7258704751
 21
583.8773001297
 31
0.0
  0
LINE
  5
CF
330
CB
100
AcDbEntity
  8
33
100
AcDbLine
 10
-7.7258704751
 20
583.8773001297
 30
0.0
 11
47.7974205397
 21
583.8773001297
 31
0.0
  0
LINE
  5
D0
330
CB
100
AcDbEntity
  8
33
100
AcDbLine
 10
47.7974205397
 20
583.8773001297
 30
0.0
 11
47.7974205397
 21
578.4373001297
 31
0.0
  0
MTEXT
  5
D1
330
CB
100
AcDbEntity
  8
33
100
AcDbMText
 10
-7.231777633
 20
583.8106566755
 30
0.0
 40
4.2333333333
 41
0.0
 71
     1
 72
     1
  1
Confidential:\M+18ED0\M+18A4F\M+196A7
  7
SLDTEXTSTYLE2
 73
     1
 44
1.0
  0
ENDBLK
  5
CD
330
CB
100
AcDbEntity
  8
0
100
AcDbBlockEnd
  0
BLOCK
  5
E4
330
E3
100
AcDbEntity
  8
0
100
AcDbBlockBegin
  2
SW_NOTE_0
 70
     0
 10
0.0
 20
0.0
 30
0.0
  3
SW_NOTE_0
  1

  0
MTEXT
  5
E6
330
E3
100
AcDbEntity
  8
アノテーション
 62
     0
100
AcDbMText
 10
0.0
 20
4.0927900738
 30
0.0
 40
3.175
 41
0.0
 71
     1
 72
     1
  1
\M+19067\M+191CC\M+19974\M+190F4龙头(\M+19684\M+193FC\M+18EAE·\M+19781\M+18EBA\M+19770)
  7
SLDTEXTSTYLE2
 73
     1
 44
1.0
  0
MTEXT
  5
E7
330
E3
100
AcDbEntity
  8
アノテーション
 62
     0
100
AcDbMText
 10
7.540625
 20
-1.1405433723
 30
0.0
 40
3.175
 41
0.0
 71
     1
 72
     1
  1
"G"Body Shower(Ctp)
  7
SLDTEXTSTYLE3
 73
     1
 44
1.0
  0
ENDBLK
  5
E5
330
E3
100
AcDbEntity
  8
0
100
AcDbBlockEnd
  0
BLOCK
  5
EC
330
EB
100
AcDbEntity
  8
0
100
AcDbBlockBegin
  2
SW_TABLEANNOTATION_0
 70
     0
 10
0.0
 20
0.0
 30
0.0
  3
SW_TABLEANNOTATION_0
  1

  0
LINE
  5
EE
330
EB
100
AcDbEntity
  8
アノテーション
 62
     0
100
AcDbLine
 10
0.0
 20
0.0
 30
0.0
 11
0.0
 21
-59.7939525937
 31
0.0
  0
LINE
  5
EF
330
EB
100
AcDbEntity
  8
アノテーション
 62
     0
100
AcDbLine
 10
0.0
 20
-59.7939525937
 30
0.0
 11
68.6187622768
 21
-59.7939525937
 31
0.0
  0
LINE
  5
F0
330
EB
100
AcDbEntity
  8
アノテーション
 62
     0
100
AcDbLine
 10
68.6187622768
 20
-59.7939525937
 30
0.0
 11
68.6187622768
 21
0.0
 31
0.0
  0
LINE
  5
F1
330
EB
100
AcDbEntity
  8
アノテーション
 62
     0
100
AcDbLine
 10
68.6187622768
 20
0.0
 30
0.0
 11
0.0
 21
0.0
 31
0.0
  0
LINE
  5
F2
330
EB
100
AcDbEntity
  8
アノテーション
 62
     0
100
AcDbLine
 10
15.4538587517
 20
0.0
 30
0.0
 11
15.4538587517
 21
-59.7939525937
 31
0.0
  0
LINE
  5
F3
330
EB
100
AcDbEntity
  8
アノテーション
 62
     0
100
AcDbLine
 10
47.797944315
 20
0.0
 30
0.0
 11
47.797944315
 21
-59.7939525937
 31
0.0
  0
LINE
  5
F4
330
EB
100
AcDbEntity
  8
アノテーション
 62
     0
100
AcDbLine
 10
0.0
 20
-5.6445937306
 30
0.0
 11
68.6187622768
 21
-5.6445937306
 31
0.0
  0
LINE
  5
F5
330
EB
100
AcDbEntity
  8
アノテーション
 62
     0
100
AcDbLine
 10
0.0
 20
-10.1279088011
 30
0.0
 11
68.6187622768
 21
-10.1279088011
 31
0.0
  0
LINE
  5
F6
330
EB
100
AcDbEntity
  8
アノテーション
 62
     0
100
AcDbLine
 10
0.0
 20
-14.6112238716
 30
0.0
 11
68.6187622768
 21
-14.6112238716
 31
0.0
  0
LINE
  5
F7
330
EB
100
AcDbEntity
  8
アノテーション
 62
     0
100
AcDbLine
 10
0.0
 20
-19.0945389421
 30
0.0
 11
68.6187622768
 21
-19.0945389421
 31
0.0
  0
LINE
  5
F8
330
EB
100
AcDbEntity
  8
アノテーション
 62
     0
100
AcDbLine
 10
0.0
 20
-23.9274320297
 30
0.0
 11
68.6187622768
 21
-23.9274320297
 31
0.0
  0
LINE
  5
F9
330
EB
100
AcDbEntity
  8
アノテーション
 62
     0
100
AcDbLine
 10
0.0
 20
-28.4107471002
 30
0.0
 11
68.6187622768
 21
-28.4107471002
 31
0.0
  0
LINE
  5
FA
330
EB
100
AcDbEntity
  8
アノテーション
 62
     0
100
AcDbLine
 10
0.0
 20
-32.8940621707
 30
0.0
 11
68.6187622768
 21
-32.8940621707
 31
0.0
  0
LINE
  5
FB
330
EB
100
AcDbEntity
  8
アノテーション
 62
     0
100
AcDbLine
 10
0.0
 20
-37.3773772412
 30
0.0
 11
68.6187622768
 21
-37.3773772412
 31
0.0
  0
LINE
  5
FC
330
EB
100
AcDbEntity
  8
アノテーション
 62
     0
100
AcDbLine
 10
0.0
 20
-41.8606923117
 30
0.0
 11
68.6187622768
 21
-41.8606923117
 31
0.0
  0
LINE
  5
FD
330
EB
100
AcDbEntity
  8
アノテーション
 62
     0
100
AcDbLine
 10
0.0
 20
-46.3440073822
 30
0.0
 11
68.6187622768
 21
-46.3440073822
 31
0.0
  0
LINE
  5
FE
330
EB
100
AcDbEntity
  8
アノテーション
 62
     0
100
AcDbLine
 10
0.0
 20
-50.8273224527
 30
0.0
 11
68.6187622768
 21
-50.8273224527
 31
0.0
  0
LINE
  5
FF
330
EB
100
AcDbEntity
  8
アノテーション
 62
     0
100
AcDbLine
 10
0.0
 20
-55.3106375232
 30
0.0
 11
68.6187622768
 21
-55.3106375232
 31
0.0
  0
MTEXT
  5
100
330
EB
100
AcDbEntity
  8
アノテーション
 62
     0
100
AcDbMText
 10
4.1991516407
 20
-1.3946258151
 30
0.0
 40
2.6458333333
 41
0.0
 71
     1
 72
     1
  1
种别
  7
SLDTEXTSTYLE2
 73
     1
 44
1.0
  0
MTEXT
  5
101
330
EB
100
AcDbEntity
  8
アノテーション
 62
     0
100
AcDbMText
 10
24.5703460631
 20
-1.3946258151
 30
0.0
 40
2.6458333333
 41
0.0
 71
     1
 72
     1
  1
\M+190A7\M+19569\M+19569\M+194D4
  7
SLDTEXTSTYLE2
 73
     1
 44
1.0
  0
MTEXT
  5
102
330
EB
100
AcDbEntity
  8
アノテーション
 62
     0
100
AcDbMText
 10
54.6805755607
 20
-1.3946258151
 30
0.0
 40
2.6458333333
 41
0.0
 71
     1
 72
     1
  1
备\M+1928D
  7
SLDTEXTSTYLE2
 73
     1
 44
1.0
  0
MTEXT
  5
103
330
EB
100
AcDbEntity
  8
アノテーション
 62
     0
100
AcDbMText
 10
5.0810959581
 20
-6.4585802157
 30
0.0
 40
2.6458333333
 41
0.0
 71
     1
 72
     1
  1
A\M+19569
  7
SLDTEXTSTYLE2
 73
     1
 44
1.0
  0
MTEXT
  5
104
330
EB
100
AcDbEntity
  8
アノテーション
 62
     0
100
AcDbMText
 10
23.6884022114
 20
-6.4585802157
 30
0.0
 40
2.6458333333
 41
0.0
 71
     1
 72
     1
  1
TBW08008B
  7
SLDTEXTSTYLE3
 73
     1
 44
1.0
  0
MTEXT
  5
105
330
EB
100
AcDbEntity
  8
アノテーション
 62
     0
100
AcDbMText
 10
4.1991516407
 20
-10.9418952862
 30
0.0
 40
2.6458333333
 41
0.0
 71
     1
 72
     1
  1
PN\M+19569
  7
SLDTEXTSTYLE2
 73
     1
 44
1.0
  0
MTEXT
  5
106
330
EB
100
AcDbEntity
  8
アノテーション
 62
     0
100
AcDbMText
 10
21.0425678623
 20
-10.9418952862
 30
0.0
 40
2.6458333333
 41
0.0
 71
     1
 72
     1
  1
TBW08008B#PN
  7
SLDTEXTSTYLE3
 73
     1
 44
1.0
  0
MTEXT
  5
107
330
EB
100
AcDbEntity
  8
アノテーション
 62
     0
100
AcDbMText
 10
4.1991516407
 20
-15.4252103567
 30
0.0
 40
2.6458333333
 41
0.0
 71
     1
 72
     1
  1
BN\M+19569
  7
SLDTEXTSTYLE2
 73
     1
 44
1.0
  0
MTEXT
  5
108
330
EB
100
AcDbEntity
  8
アノテーション
 62
     0
100
AcDbMText
 10
21.0425678623
 20
-15.4252103567
 30
0.0
 40
2.6458333333
 41
0.0
 71
     1
 72
     1
  1
TBW08008B#BN
  7
SLDTEXTSTYLE3
 73
     1
 44
1.0
  0
MTEXT
  5
109
330
EB
100
AcDbEntity
  8
アノテーション
 62
     0
100
AcDbMText
 10
3.3172073233
 20
-20.0833144358
 30
0.0
 40
2.6458333333
 41
0.0
 71
     1
 72
     1
  1
PFG\M+19569
  7
SLDTEXTSTYLE2
 73
     1
 44
1.0
  0
MTEXT
  5
10A
330
EB
100
AcDbEntity
  8
アノテーション
 62
     0
100
AcDbMText
 10
20.1606230792
 20
-20.0833144358
 30
0.0
 40
2.6458333333
 41
0.0
 71
     1
 72
     1
  1
TBW08008B#PFG
  7
SLDTEXTSTYLE3
 73
     1
 44
1.0
  0
MTEXT
  5
10B
330
EB
100
AcDbEntity
  8
アノテーション
 62
     0
100
AcDbMText
 10
3.3172073233
 20
-24.7414185148
 30
0.0
 40
2.6458333333
 41
0.0
 71
     1
 72
     1
  1
BFG\M+19569
  7
SLDTEXTSTYLE2
 73
     1
 44
1.0
  0
MTEXT
  5
10C
330
EB
100
AcDbEntity
  8
アノテーション
 62
     0
100
AcDbMText
 10
20.1606230792
 20
-24.7414185148
 30
0.0
 40
2.6458333333
 41
0.0
 71
     1
 72
     1
  1
TBW08008B#BFG
  7
SLDTEXTSTYLE3
 73
     1
 44
1.0
  0
MTEXT
  5
10D
330
EB
100
AcDbEntity
  8
アノテーション
 62
     0
100
AcDbMText
 10
3.3172073233
 20
-29.2247335853
 30
0.0
 40
2.6458333333
 41
0.0
 71
     1
 72
     1
  1
PRG\M+19569
  7
SLDTEXTSTYLE2
 73
     1
 44
1.0
  0
MTEXT
  5
10E
330
EB
100
AcDbEntity
  8
アノテーション
 62
     0
100
AcDbMText
 10
20.1606230792
 20
-29.2247335853
 30
0.0
 40
2.6458333333
 41
0.0
 71
     1
 72
     1
  1
TBW08008B#PRG
  7
SLDTEXTSTYLE3
 73
     1
 44
1.0
  0
MTEXT
  5
10F
330
EB
100
AcDbEntity
  8
アノテーション
 62
     0
100
AcDbMText
 10
3.3172073233
 20
-33.7080486558
 30
0.0
 40
2.6458333333
 41
0.0
 71
     1
 72
     1
  1
BRG\M+19569
  7
SLDTEXTSTYLE2
 73
     1
 44
1.0
  0
MTEXT
  5
110
330
EB
100
AcDbEntity
  8
アノテーション
 62
     0
100
AcDbMText
 10
20.1606230792
 20
-33.7080486558
 30
0.0
 40
2.6458333333
 41
0.0
 71
     1
 72
     1
  1
TBW08008B#BRG
  7
SLDTEXTSTYLE3
 73
     1
 44
1.0
  0
MTEXT
  5
111
330
EB
100
AcDbEntity
  8
アノテーション
 62
     0
100
AcDbMText
 10
3.3172073233
 20
-38.1913637263
 30
0.0
 40
2.6458333333
 41
0.0
 71
     1
 72
     1
  1
PBR\M+19569
  7
SLDTEXTSTYLE2
 73
     1
 44
1.0
  0
MTEXT
  5
112
330
EB
100
AcDbEntity
  8
アノテーション
 62
     0
100
AcDbMText
 10
20.1606230792
 20
-38.1913637263
 30
0.0
 40
2.6458333333
 41
0.0
 71
     1
 72
     1
  1
TBW08008B#PBR
  7
SLDTEXTSTYLE3
 73
     1
 44
1.0
  0
MTEXT
  5
113
330
EB
100
AcDbEntity
  8
アノテーション
 62
     0
100
AcDbMText
 10
3.3172073233
 20
-42.6746787968
 30
0.0
 40
2.6458333333
 41
0.0
 71
     1
 72
     1
  1
BBR\M+19569
  7
SLDTEXTSTYLE2
 73
     1
 44
1.0
  0
MTEXT
  5
114
330
EB
100
AcDbEntity
  8
アノテーション
 62
     0
100
AcDbMText
 10
20.1606230792
 20
-42.6746787968
 30
0.0
 40
2.6458333333
 41
0.0
 71
     1
 72
     1
  1
TBW08008B#BBR
  7
SLDTEXTSTYLE3
 73
     1
 44
1.0
  0
MTEXT
  5
115
330
EB
100
AcDbEntity
  8
アノテーション
 62
     0
100
AcDbMText
 10
3.3172073233
 20
-47.1579938673
 30
0.0
 40
2.6458333333
 41
0.0
 71
     1
 72
     1
  1
PBL\M+19569
  7
SLDTEXTSTYLE2
 73
     1
 44
1.0
  0
MTEXT
  5
116
330
EB
100
AcDbEntity
  8
アノテーション
 62
     0
100
AcDbMText
 10
20.1606230792
 20
-47.1579938673
 30
0.0
 40
2.6458333333
 41
0.0
 71
     1
 72
     1
  1
TBW08008B#PBL
  7
SLDTEXTSTYLE3
 73
     1
 44
1.0
  0
MTEXT
  5
117
330
EB
100
AcDbEntity
  8
アノテーション
 62
     0
100
AcDbMText
 10
3.3172073233
 20
-51.6413089378
 30
0.0
 40
2.6458333333
 41
0.0
 71
     1
 72
     1
  1
BBL\M+19569
  7
SLDTEXTSTYLE2
 73
     1
 44
1.0
  0
MTEXT
  5
118
330
EB
100
AcDbEntity
  8
アノテーション
 62
     0
100
AcDbMText
 10
20.1606230792
 20
-51.6413089378
 30
0.0
 40
2.6458333333
 41
0.0
 71
     1
 72
     1
  1
TBW08008B#BBL
  7
SLDTEXTSTYLE3
 73
     1
 44
1.0
  0
MTEXT
  5
119
330
EB
100
AcDbEntity
  8
アノテーション
 62
     0
100
AcDbMText
 10
3.3172073233
 20
-56.1246240083
 30
0.0
 40
2.6458333333
 41
0.0
 71
     1
 72
     1
  1
MBL\M+19569
  7
SLDTEXTSTYLE2
 73
     1
 44
1.0
  0
MTEXT
  5
11A
330
EB
100
AcDbEntity
  8
アノテーション
 62
     0
100
AcDbMText
 10
20.1606230792
 20
-56.1246240083
 30
0.0
 40
2.6458333333
 41
0.0
 71
     1
 72
     1
  1
TBW08008B#MBL
  7
SLDTEXTSTYLE3
 73
     1
 44
1.0
  0
ENDBLK
  5
ED
330
EB
100
AcDbEntity
  8
0
100
AcDbBlockEnd
  0
BLOCK
  5
11D
330
11C
100
AcDbEntity
  8
0
100
AcDbBlockBegin
  2
SW_TABLEANNOTATION_1
 70
     0
 10
0.0
 20
0.0
 30
0.0
  3
SW_TABLEANNOTATION_1
  1

  0
LINE
  5
11F
330
11C
100
AcDbEntity
  8
アノテーション
 62
     0
100
AcDbLine
 10
0.0
 20
0.0
 30
0.0
 11
0.0
 21
-19.0945389421
 31
0.0
  0
LINE
  5
120
330
11C
100
AcDbEntity
  8
アノテーション
 62
     0
100
AcDbLine
 10
0.0
 20
-19.0945389421
 30
0.0
 11
68.6187622768
 21
-19.0945389421
 31
0.0
  0
LINE
  5
121
330
11C
100
AcDbEntity
  8
アノテーション
 62
     0
100
AcDbLine
 10
68.6187622768
 20
-19.0945389421
 30
0.0
 11
68.6187622768
 21
0.0
 31
0.0
  0
LINE
  5
122
330
11C
100
AcDbEntity
  8
アノテーション
 62
     0
100
AcDbLine
 10
68.6187622768
 20
0.0
 30
0.0
 11
0.0
 21
0.0
 31
0.0
  0
LINE
  5
123
330
11C
100
AcDbEntity
  8
アノテーション
 62
     0
100
AcDbLine
 10
15.4538587517
 20
0.0
 30
0.0
 11
15.4538587517
 21
-19.0945389421
 31
0.0
  0
LINE
  5
124
330
11C
100
AcDbEntity
  8
アノテーション
 62
     0
100
AcDbLine
 10
47.797944315
 20
0.0
 30
0.0
 11
47.797944315
 21
-19.0945389421
 31
0.0
  0
LINE
  5
125
330
11C
100
AcDbEntity
  8
アノテーション
 62
     0
100
AcDbLine
 10
0.0
 20
-5.6445937306
 30
0.0
 11
68.6187622768
 21
-5.6445937306
 31
0.0
  0
LINE
  5
126
330
11C
100
AcDbEntity
  8
アノテーション
 62
     0
100
AcDbLine
 10
0.0
 20
-10.1279088011
 30
0.0
 11
68.6187622768
 21
-10.1279088011
 31
0.0
  0
LINE
  5
127
330
11C
100
AcDbEntity
  8
アノテーション
 62
     0
100
AcDbLine
 10
0.0
 20
-14.6112238716
 30
0.0
 11
68.6187622768
 21
-14.6112238716
 31
0.0
  0
MTEXT
  5
128
330
11C
100
AcDbEntity
  8
アノテーション
 62
     0
100
AcDbMText
 10
4.1991516407
 20
-1.3946258151
 30
0.0
 40
2.6458333333
 41
0.0
 71
     1
 72
     1
  1
种别
  7
SLDTEXTSTYLE2
 73
     1
 44
1.0
  0
MTEXT
  5
129
330
11C
100
AcDbEntity
  8
アノテーション
 62
     0
100
AcDbMText
 10
24.5703460631
 20
-1.3946258151
 30
0.0
 40
2.6458333333
 41
0.0
 71
     1
 72
     1
  1
\M+190A7\M+19569\M+19569\M+194D4
  7
SLDTEXTSTYLE2
 73
     1
 44
1.0
  0
MTEXT
  5
12A
330
11C
100
AcDbEntity
  8
アノテーション
 62
     0
100
AcDbMText
 10
54.6805755607
 20
-1.3946258151
 30
0.0
 40
2.6458333333
 41
0.0
 71
     1
 72
     1
  1
备\M+1928D
  7
SLDTEXTSTYLE2
 73
     1
 44
1.0
  0
MTEXT
  5
12B
330
11C
100
AcDbEntity
  8
アノテーション
 62
     0
100
AcDbMText
 10
5.0810959581
 20
-6.4585802157
 30
0.0
 40
2.6458333333
 41
0.0
 71
     1
 72
     1
  1
A\M+19569
  7
SLDTEXTSTYLE2
 73
     1
 44
1.0
  0
MTEXT
  5
12C
330
11C
100
AcDbEntity
  8
アノテーション
 62
     0
100
AcDbMText
 10
15.9538587517
 20
-6.4585802157
 30
0.0
 40
2.6458333333
 41
0.0
 71
     1
 72
     1
  1
TBW08008BKK
  7
SLDTEXTSTYLE3
 73
     1
 44
1.0
  0
MTEXT
  5
12D
330
11C
100
AcDbEntity
  8
アノテーション
 62
     0
100
AcDbMText
 10
3.3172073233
 20
-10.9418952862
 30
0.0
 40
2.6458333333
 41
0.0
 71
     1
 72
     1
  1
BBL\M+19569
  7
SLDTEXTSTYLE2
 73
     1
 44
1.0
  0
MTEXT
  5
12E
330
11C
100
AcDbEntity
  8
アノテーション
 62
     0
100
AcDbMText
 10
15.9538587517
 20
-10.9418952862
 30
0.0
 40
2.6458333333
 41
0.0
 71
     1
 72
     1
  1
TBW08008BKK#BBL
  7
SLDTEXTSTYLE3
 73
     1
 44
1.0
  0
MTEXT
  5
12F
330
11C
100
AcDbEntity
  8
アノテーション
 62
     0
100
AcDbMText
 10
3.3172073233
 20
-15.4252103567
 30
0.0
 40
2.6458333333
 41
0.0
 71
     1
 72
     1
  1
MBL\M+19569
  7
SLDTEXTSTYLE2
 73
     1
 44
1.0
  0
MTEXT
  5
130
330
11C
100
AcDbEntity
  8
アノテーション
 62
     0
100
AcDbMText
 10
15.9538587517
 20
-15.4252103567
 30
0.0
 40
2.6458333333
 41
0.0
 71
     1
 72
     1
  1
TBW08008BKK#MBL
  7
SLDTEXTSTYLE3
 73
     1
 44
1.0
  0
ENDBLK
  5
11E
330
11C
100
AcDbEntity
  8
0
100
AcDbBlockEnd
  0
BLOCK
  5
157
330
156
100
AcDbEntity
  8
0
100
AcDbBlockBegin
  2
_OPEN30
 70
     0
 10
0.0
 20
0.0
 30
0.0
  3
_OPEN30
  1

  0
LINE
  5
159
330
156
100
AcDbEntity
  8
0
  6
ByBlock
 62
     0
370
    -2
100
AcDbLine
 10
-1.0
 20
0.267949
 30
0.0
 11
0.0
 21
0.0
 31
0.0
  0
LINE
  5
15A
330
156
100
AcDbEntity
  8
0
  6
ByBlock
 62
     0
370
    -2
100
AcDbLine
 10
0.0
 20
0.0
 30
0.0
 11
-1.0
 21
-0.267949
 31
0.0
  0
LINE
  5
15B
330
156
100
AcDbEntity
  8
0
  6
ByBlock
 62
     0
370
    -2
100
AcDbLine
 10
0.0
 20
0.0
 30
0.0
 11
-1.0
 21
0.0
 31
0.0
  0
ENDBLK
  5
158
330
156
100
AcDbEntity
  8
0
100
AcDbBlockEnd
  0
BLOCK
  5
15D
330
15C
100
AcDbEntity
  8
0
100
AcDbBlockBegin
  2
_D
 70
     0
 10
0.0
 20
0.0
 30
0.0
  3
_D
  1

  0
INSERT
  5
15F
330
15C
100
AcDbEntity
  8
アノテーション
 62
     7
100
AcDbBlockReference
  2
_OPEN30
 10
175.1971316795
 20
250.1145312918
 30
13.0327884642
 41
2.5
 42
2.5
 50
360.0
  0
INSERT
  5
160
330
15C
100
AcDbEntity
  8
アノテーション
 62
     7
100
AcDbBlockReference
  2
_OPEN30
 10
75.1971316795
 20
250.1145312918
 30
13.0327884642
 41
2.5
 42
2.5
 50
180.0
  0
LINE
  5
161
330
15C
100
AcDbEntity
  8
アノテーション
 62
     7
100
AcDbLine
 10
175.1971316795
 20
239.3145312918
 30
0.0
 11
175.1971316795
 21
251.1145312918
 31
0.0
  0
LINE
  5
162
330
15C
100
AcDbEntity
  8
アノテーション
 62
     7
100
AcDbLine
 10
75.1971316795
 20
239.3145312918
 30
0.0
 11
75.1971316795
 21
251.1145312918
 31
0.0
  0
LINE
  5
163
330
15C
100
AcDbEntity
  8
アノテーション
 62
     7
100
AcDbLine
 10
175.1971316795
 20
250.1145312918
 30
0.0
 11
75.1971316795
 21
250.1145312918
 31
0.0
  0
INSERT
  5
16B
330
15C
100
AcDbEntity
  8
アノテーション
 62
     7
100
AcDbBlockReference
  2
SW_SYMBOL_MOD_BOX
 10
121.3295879754
 20
250.3190768627
 30
0.0
 41
0.0029090909
 42
0.0029090909
 43
0.0029090909
 50
360.0
  0
MTEXT
  5
16C
330
15C
100
AcDbEntity
  8
アノテーション
 62
     7
100
AcDbMText
 10
123.9483380671
 20
253.3372007576
 30
0.0
 40
2.5
 41
0.0
 71
     1
 72
     1
  1
100
  7
SLDTEXTSTYLE3
 73
     1
 44
1.0
  0
ENDBLK
  5
15E
330
15C
100
AcDbEntity
  8
0
100
AcDbBlockEnd
  0
BLOCK
  5
165
330
164
100
AcDbEntity
  8
0
100
AcDbBlockBegin
  2
SW_SYMBOL_MOD_BOX
 70
     0
 10
0.0
 20
0.0
 30
0.0
  3
SW_SYMBOL_MOD_BOX
  1

  0
LINE
  5
167
330
164
100
AcDbEntity
  8
アノテーション
 62
     0
100
AcDbLine
 10
200.0
 20
200.0
 30
0.0
 11
800.0
 21
200.0
 31
0.0
  0
LINE
  5
168
330
164
100
AcDbEntity
  8
アノテーション
 62
     0
100
AcDbLine
 10
200.0
 20
200.0
 30
0.0
 11
200.0
 21
800.0
 31
0.0
  0
LINE
  5
169
330
164
100
AcDbEntity
  8
アノテーション
 62
     0
100
AcDbLine
 10
200.0
 20
800.0
 30
0.0
 11
800.0
 21
800.0
 31
0.0
  0
LINE
  5
16A
330
164
100
AcDbEntity
  8
アノテーション
 62
     0
100
AcDbLine
 10
800.0
 20
800.0
 30
0.0
 11
800.0
 21
200.0
 31
0.0
  0
ENDBLK
  5
166
330
164
100
AcDbEntity
  8
0
100
AcDbBlockEnd
  0
BLOCK
  5
170
330
16F
100
AcDbEntity
  8
0
100
AcDbBlockBegin
  2
_D_1
 70
     0
 10
0.0
 20
0.0
 30
0.0
  3
_D_1
  1

  0
INSERT
  5
172
330
16F
100
AcDbEntity
  8
アノテーション
 62
     7
100
AcDbBlockReference
  2
_OPEN30
 10
174.9628171044
 20
239.8802167167
 30
13.0327884642
 41
2.5
 42
2.5
 50
225.0
  0
LINE
  5
173
330
16F
100
AcDbEntity
  8
アノテーション
 62
     7
100
AcDbLine
 10
174.9628171044
 20
239.8802167167
 30
0.0
 11
185.616995695
 21
250.5343953073
 31
0.0
  0
MTEXT
  5
174
330
16F
100
AcDbEntity
  8
アノテーション
 62
     7
100
AcDbMText
 10
179.2296010654
 20
248.6918525365
 30
0.0
 40
2.5
 41
0.0
 71
     1
 72
     1
  1
R0.8
  7
SLDTEXTSTYLE3
 11
0.7071067811865451
 21
0.7071067811865499
 31
0.0
 73
     1
 44
1.0
  0
ENDBLK
  5
171
330
16F
100
AcDbEntity
  8
0
100
AcDbBlockEnd
  0
BLOCK
  5
1D3
330
1D2
100
AcDbEntity
  8
0
100
AcDbBlockBegin
  2
SW_NOTE_1
 70
     0
 10
0.0
 20
0.0
 30
0.0
  3
SW_NOTE_1
  1

  0
LINE
  5
1D5
330
1D2
100
AcDbEntity
  8
アノテーション
 62
     0
100
AcDbLine
 10
8.6030629465
 20
0.0
 30
0.0
 11
0.0
 21
0.0
 31
0.0
  0
MTEXT
  5
1D6
330
1D2
100
AcDbEntity
  8
アノテーション
 62
     0
100
AcDbMText
 10
0.4019209004
 20
3.142636459
 30
0.0
 40
2.5
 41
0.0
 71
     1
 72
     1
  1
04500Y
  7
SLDTEXTSTYLE3
 73
     1
 44
1.0
  0
ENDBLK
  5
1D4
330
1D2
100
AcDbEntity
  8
0
100
AcDbBlockEnd
  0
BLOCK
  5
222
330
221
100
AcDbEntity
  8
0
100
AcDbBlockBegin
  2
_D_2
 70
     0
 10
0.0
 20
0.0
 30
0.0
  3
_D_2
  1

  0
INSERT
  5
224
330
221
100
AcDbEntity
  8
アノテーション
 62
     7
100
AcDbBlockReference
  2
_OPEN30
 10
253.1641984784
 20
249.8820165229
 30
0.0
 41
2.5
 42
2.5
 50
0.0
  0
INSERT
  5
225
330
221
100
AcDbEntity
  8
アノテーション
 62
     7
100
AcDbBlockReference
  2
_OPEN30
 10
238.1641984784
 20
249.8820165229
 30
0.0
 41
2.5
 42
2.5
 50
180.0
  0
LINE
  5
226
330
221
100
AcDbEntity
  8
アノテーション
 62
     7
100
AcDbLine
 10
253.1641984784
 20
240.1145312918
 30
0.0
 11
253.1641984784
 21
250.8820165229
 31
0.0
  0
LINE
  5
227
330
221
100
AcDbEntity
  8
アノテーション
 62
     7
100
AcDbLine
 10
238.1641984784
 20
239.3145312918
 30
0.0
 11
238.1641984784
 21
250.8820165229
 31
0.0
  0
LINE
  5
228
330
221
100
AcDbEntity
  8
アノテーション
 62
     7
100
AcDbLine
 10
253.1641984784
 20
249.8820165229
 30
0.0
 11
238.1641984784
 21
249.8820165229
 31
0.0
  0
MTEXT
  5
229
330
221
100
AcDbEntity
  8
アノテーション
 62
     7
100
AcDbMText
 10
244.0440152907
 20
253.1046859888
 30
0.0
 40
2.5
 41
0.0
 71
     1
 72
     1
  1
15
  7
SLDTEXTSTYLE3
 73
     1
 44
1.0
  0
ENDBLK
  5
223
330
221
100
AcDbEntity
  8
0
100
AcDbBlockEnd
  0
BLOCK
  5
22D
330
22C
100
AcDbEntity
  8
0
100
AcDbBlockBegin
  2
_D_3
 70
     0
 10
0.0
 20
0.0
 30
0.0
  3
_D_3
  1

  0
INSERT
  5
22F
330
22C
100
AcDbEntity
  8
アノテーション
 62
     7
100
AcDbBlockReference
  2
_OPEN30
 10
228.207804427
 20
249.8820165229
 30
0.0
 41
2.5
 42
2.5
 50
180.0
  0
INSERT
  5
230
330
22C
100
AcDbEntity
  8
アノテーション
 62
     7
100
AcDbBlockReference
  2
_OPEN30
 10
238.1641984784
 20
249.8820165229
 30
0.0
 41
2.5
 42
2.5
 50
0.0
  0
LINE
  5
231
330
22C
100
AcDbEntity
  8
アノテーション
 62
     7
100
AcDbLine
 10
228.207804427
 20
202.1145312918
 30
0.0
 11
228.207804427
 21
250.8820165229
 31
0.0
  0
LINE
  5
232
330
22C
100
AcDbEntity
  8
アノテーション
 62
     7
100
AcDbLine
 10
238.1641984784
 20
239.3145312918
 30
0.0
 11
238.1641984784
 21
250.8820165229
 31
0.0
  0
LINE
  5
233
330
22C
100
AcDbEntity
  8
アノテーション
 62
     7
100
AcDbLine
 10
228.207804427
 20
249.8820165229
 30
0.0
 11
238.1641984784
 21
249.8820165229
 31
0.0
  0
MTEXT
  5
234
330
22C
100
AcDbEntity
  8
アノテーション
 62
     7
100
AcDbMText
 10
231.4823198852
 20
253.1046859888
 30
0.0
 40
2.5
 41
0.0
 71
     1
 72
     1
  1
10
  7
SLDTEXTSTYLE3
 73
     1
 44
1.0
  0
ENDBLK
  5
22E
330
22C
100
AcDbEntity
  8
0
100
AcDbBlockEnd
  0
BLOCK
  5
237
330
236
100
AcDbEntity
  8
0
100
AcDbBlockBegin
  2
_D_4
 70
     0
 10
0.0
 20
0.0
 30
0.0
  3
_D_4
  1

  0
INSERT
  5
239
330
236
100
AcDbEntity
  8
アノテーション
 62
     7
100
AcDbBlockReference
  2
_OPEN30
 10
253.1641984784
 20
249.8820165229
 30
0.0
 41
2.5
 42
2.5
 50
180.0
  0
INSERT
  5
23A
330
236
100
AcDbEntity
  8
アノテーション
 62
     7
100
AcDbBlockReference
  2
_OPEN30
 10
293.1641984784
 20
249.8820165229
 30
0.0
 41
2.5
 42
2.5
 50
0.0
  0
LINE
  5
23B
330
236
100
AcDbEntity
  8
アノテーション
 62
     7
100
AcDbLine
 10
253.1641984784
 20
240.1145312918
 30
0.0
 11
253.1641984784
 21
250.8820165229
 31
0.0
  0
LINE
  5
23C
330
236
100
AcDbEntity
  8
アノテーション
 62
     7
100
AcDbLine
 10
293.1641984784
 20
204.1145312918
 30
0.0
 11
293.1641984784
 21
250.8820165229
 31
0.0
  0
LINE
  5
23D
330
236
100
AcDbEntity
  8
アノテーション
 62
     7
100
AcDbLine
 10
253.1641984784
 20
249.8820165229
 30
0.0
 11
293.1641984784
 21
249.8820165229
 31
0.0
  0
MTEXT
  5
23E
330
236
100
AcDbEntity
  8
アノテーション
 62
     7
100
AcDbMText
 10
268.3939350484
 20
253.1046859888
 30
0.0
 40
2.5
 41
0.0
 71
     1
 72
     1
  1
40-60
  7
SLDTEXTSTYLE3
 73
     1
 44
1.0
  0
ENDBLK
  5
238
330
236
100
AcDbEntity
  8
0
100
AcDbBlockEnd
  0
BLOCK
  5
242
330
241
100
AcDbEntity
  8
0
100
AcDbBlockBegin
  2
_D_5
 70
     0
 10
0.0
 20
0.0
 30
0.0
  3
_D_5
  1

  0
INSERT
  5
244
330
241
100
AcDbEntity
  8
アノテーション
 62
     7
100
AcDbBlockReference
  2
_OPEN30
 10
323.3754641657
 20
200.5920312918
 30
0.0
 41
2.5
 42
2.5
 50
90.0
  0
INSERT
  5
245
330
241
100
AcDbEntity
  8
アノテーション
 62
     7
100
AcDbBlockReference
  2
_OPEN30
 10
323.3754641657
 20
179.6370312918
 30
0.0
 41
2.5
 42
2.5
 50
270.0
  0
LINE
  5
246
330
241
100
AcDbEntity
  8
アノテーション
 62
     7
100
AcDbLine
 10
308.0021984784
 20
200.5920312918
 30
0.0
 11
324.3754641657
 21
200.5920312918
 31
0.0
  0
LINE
  5
247
330
241
100
AcDbEntity
  8
アノテーション
 62
     7
100
AcDbLine
 10
308.0021984784
 20
179.6370312918
 30
0.0
 11
324.3754641657
 21
179.6370312918
 31
0.0
  0
LINE
  5
248
330
241
100
AcDbEntity
  8
アノテーション
 62
     7
100
AcDbLine
 10
323.3754641657
 20
200.5920312918
 30
0.0
 11
323.3754641657
 21
179.6370312918
 31
0.0
  0
MTEXT
  5
249
330
241
100
AcDbEntity
  8
アノテーション
 62
     7
100
AcDbMText
 10
320.1527946999
 20
187.3660180023
 30
0.0
 40
2.5
 41
0.0
 71
     1
 72
     1
  1
G1/2
  7
SLDTEXTSTYLE3
 11
-7.044195017643634E-15
 21
1.0
 31
0.0
 73
     1
 44
1.0
  0
ENDBLK
  5
243
330
241
100
AcDbEntity
  8
0
100
AcDbBlockEnd
  0
BLOCK
  5
24C
330
24B
100
AcDbEntity
  8
0
100
AcDbBlockBegin
  2
_D_6
 70
     0
 10
0.0
 20
0.0
 30
0.0
  3
_D_6
  1

  0
INSERT
  5
24E
330
24B
100
AcDbEntity
  8
アノテーション
 62
     7
100
AcDbBlockReference
  2
_OPEN30
 10
309.1641984784
 20
249.8820165229
 30
0.0
 41
2.5
 42
2.5
 50
0.0
  0
INSERT
  5
24F
330
24B
100
AcDbEntity
  8
アノテーション
 62
     7
100
AcDbBlockReference
  2
_OPEN30
 10
293.1641984784
 20
249.8820165229
 30
0.0
 41
2.5
 42
2.5
 50
180.0
  0
LINE
  5
250
330
24B
100
AcDbEntity
  8
アノテーション
 62
     7
100
AcDbLine
 10
309.1641984784
 20
199.4300312918
 30
0.0
 11
309.1641984784
 21
250.8820165229
 31
0.0
  0
LINE
  5
251
330
24B
100
AcDbEntity
  8
アノテーション
 62
     7
100
AcDbLine
 10
293.1641984784
 20
204.1145312918
 30
0.0
 11
293.1641984784
 21
250.8820165229
 31
0.0
  0
LINE
  5
252
330
24B
100
AcDbEntity
  8
アノテーション
 62
     7
100
AcDbLine
 10
309.1641984784
 20
249.8820165229
 30
0.0
 11
293.1641984784
 21
249.8820165229
 31
0.0
  0
MTEXT
  5
253
330
24B
100
AcDbEntity
  8
アノテーション
 62
     7
100
AcDbMText
 10
299.6171487115
 20
253.1046859888
 30
0.0
 40
2.5
 41
0.0
 71
     1
 72
     1
  1
16
  7
SLDTEXTSTYLE3
 73
     1
 44
1.0
  0
ENDBLK
  5
24D
330
24B
100
AcDbEntity
  8
0
100
AcDbBlockEnd
  0
BLOCK
  5
256
330
255
100
AcDbEntity
  8
0
100
AcDbBlockBegin
  2
_D_7
 70
     0
 10
0.0
 20
0.0
 30
0.0
  3
_D_7
  1

  0
INSERT
  5
258
330
255
100
AcDbEntity
  8
アノテーション
 62
     7
100
AcDbBlockReference
  2
_OPEN30
 10
218.207804427
 20
177.6145312918
 30
0.0
 41
2.5
 42
2.5
 50
270.0
  0
INSERT
  5
259
330
255
100
AcDbEntity
  8
アノテーション
 62
     7
100
AcDbBlockReference
  2
_OPEN30
 10
218.207804427
 20
202.6145312918
 30
0.0
 41
2.5
 42
2.5
 50
90.0
  0
LINE
  5
25A
330
255
100
AcDbEntity
  8
アノテーション
 62
     7
100
AcDbLine
 10
229.707804427
 20
177.6145312918
 30
0.0
 11
217.207804427
 21
177.6145312918
 31
0.0
  0
LINE
  5
25B
330
255
100
AcDbEntity
  8
アノテーション
 62
     7
100
AcDbLine
 10
229.707804427
 20
202.6145312918
 30
0.0
 11
217.207804427
 21
202.6145312918
 31
0.0
  0
LINE
  5
25C
330
255
100
AcDbEntity
  8
アノテーション
 62
     7
100
AcDbLine
 10
218.207804427
 20
177.6145312918
 30
0.0
 11
218.207804427
 21
202.6145312918
 31
0.0
  0
MTEXT
  5
25D
330
255
100
AcDbEntity
  8
アノテーション
 62
     7
100
AcDbMText
 10
214.9851349612
 20
187.4387612803
 30
0.0
 40
2.5
 41
0.0
 71
     1
 72
     1
  1
%%c
  7
SLDTEXTSTYLE3
 11
5.053215498074303E-16
 21
1.0
 31
0.0
 73
     1
 44
1.0
  0
MTEXT
  5
25E
330
255
100
AcDbEntity
  8
アノテーション
 62
     7
100
AcDbMText
 10
214.9851349612
 20
190.2029974623
 30
0.0
 40
2.5
 41
0.0
 71
     1
 72
     1
  1
25
  7
SLDTEXTSTYLE3
 11
5.053215498074303E-16
 21
1.0
 31
0.0
 73
     1
 44
1.0
  0
ENDBLK
  5
257
330
255
100
AcDbEntity
  8
0
100
AcDbBlockEnd
  0
BLOCK
  5
261
330
260
100
AcDbEntity
  8
0
100
AcDbBlockBegin
  2
_D_8
 70
     0
 10
0.0
 20
0.0
 30
0.0
  3
_D_8
  1

  0
INSERT
  5
263
330
260
100
AcDbEntity
  8
アノテーション
 62
     7
100
AcDbBlockReference
  2
_OPEN30
 10
234.9738114018
 20
199.1145312918
 30
0.0
 41
2.5
 42
2.5
 50
90.0
  0
INSERT
  5
264
330
260
100
AcDbEntity
  8
アノテーション
 62
     7
100
AcDbBlockReference
  2
_OPEN30
 10
234.9738114018
 20
181.1145312918
 30
0.0
 41
2.5
 42
2.5
 50
270.0
  0
LINE
  5
265
330
260
100
AcDbEntity
  8
アノテーション
 62
     7
100
AcDbLine
 10
234.9738114018
 20
199.1145312918
 30
0.0
 11
234.9738114018
 21
181.1145312918
 31
0.0
  0
MTEXT
  5
266
330
260
100
AcDbEntity
  8
アノテーション
 62
     7
100
AcDbMText
 10
231.7511419359
 20
187.3102985124
 30
0.0
 40
2.5
 41
0.0
 71
     1
 72
     1
  1
%%c
  7
SLDTEXTSTYLE3
 11
-6.156016597943509E-15
 21
1.0
 31
0.0
 73
     1
 44
1.0
  0
MTEXT
  5
267
330
260
100
AcDbEntity
  8
アノテーション
 62
     7
100
AcDbMText
 10
231.7511419359
 20
190.0745346944
 30
0.0
 40
2.5
 41
0.0
 71
     1
 72
     1
  1
18
  7
SLDTEXTSTYLE3
 11
-6.156016597943509E-15
 21
1.0
 31
0.0
 73
     1
 44
1.0
  0
ENDBLK
  5
262
330
260
100
AcDbEntity
  8
0
100
AcDbBlockEnd
  0
BLOCK
  5
26A
330
269
100
AcDbEntity
  8
0
100
AcDbBlockBegin
  2
_D_9
 70
     0
 10
0.0
 20
0.0
 30
0.0
  3
_D_9
  1

  0
INSERT
  5
26C
330
269
100
AcDbEntity
  8
アノテーション
 62
     7
100
AcDbBlockReference
  2
_OPEN30
 10
230.207804427
 20
209.2092200659
 30
0.0
 41
2.5
 42
2.5
 50
180.0
  0
INSERT
  5
26D
330
269
100
AcDbEntity
  8
アノテーション
 62
     7
100
AcDbBlockReference
  2
_OPEN30
 10
228.207804427
 20
209.2092200659
 30
0.0
 41
2.5
 42
2.5
 50
0.0
  0
LINE
  5
26E
330
269
100
AcDbEntity
  8
アノテーション
 62
     7
100
AcDbLine
 10
230.207804427
 20
202.1145312918
 30
0.0
 11
230.207804427
 21
210.2092200659
 31
0.0
  0
LINE
  5
26F
330
269
100
AcDbEntity
  8
アノテーション
 62
     7
100
AcDbLine
 10
228.207804427
 20
202.1145312918
 30
0.0
 11
228.207804427
 21
210.2092200659
 31
0.0
  0
LINE
  5
270
330
269
100
AcDbEntity
  8
アノテーション
 62
     7
100
AcDbLine
 10
230.207804427
 20
209.2092200659
 30
0.0
 11
236.3409044718
 21
209.2092200659
 31
0.0
  0
LINE
  5
271
330
269
100
AcDbEntity
  8
アノテーション
 62
     7
100
AcDbLine
 10
230.207804427
 20
209.2092200659
 30
0.0
 11
228.207804427
 21
209.2092200659
 31
0.0
  0
LINE
  5
272
330
269
100
AcDbEntity
  8
アノテーション
 62
     7
100
AcDbLine
 10
228.207804427
 20
209.2092200659
 30
0.0
 11
225.207804427
 21
209.2092200659
 31
0.0
  0
MTEXT
  5
273
330
269
100
AcDbEntity
  8
アノテーション
 62
     7
100
AcDbMText
 10
234.8860433357
 20
212.4318895317
 30
0.0
 40
2.5
 41
0.0
 71
     1
 72
     1
  1
2
  7
SLDTEXTSTYLE3
 73
     1
 44
1.0
  0
ENDBLK
  5
26B
330
269
100
AcDbEntity
  8
0
100
AcDbBlockEnd
  0
BLOCK
  5
276
330
275
100
AcDbEntity
  8
0
100
AcDbBlockBegin
  2
_D_10
 70
     0
 10
0.0
 20
0.0
 30
0.0
  3
_D_10
  1

  0
INSERT
  5
278
330
275
100
AcDbEntity
  8
アノテーション
 62
     7
100
AcDbBlockReference
  2
_OPEN30
 10
288.1641984784
 20
231.8938557626
 30
0.0
 41
2.5
 42
2.5
 50
0.0
  0
INSERT
  5
279
330
275
100
AcDbEntity
  8
アノテーション
 62
     7
100
AcDbBlockReference
  2
_OPEN30
 10
293.1641984784
 20
231.8938557626
 30
0.0
 41
2.5
 42
2.5
 50
180.0
  0
LINE
  5
27A
330
275
100
AcDbEntity
  8
アノテーション
 62
     7
100
AcDbLine
 10
288.1641984784
 20
221.1145312918
 30
0.0
 11
288.1641984784
 21
232.8938557626
 31
0.0
  0
LINE
  5
27B
330
275
100
AcDbEntity
  8
アノテーション
 62
     7
100
AcDbLine
 10
293.1641984784
 20
204.1145312918
 30
0.0
 11
293.1641984784
 21
232.8938557626
 31
0.0
  0
LINE
  5
27C
330
275
100
AcDbEntity
  8
アノテーション
 62
     7
100
AcDbLine
 10
288.1641984784
 20
231.8938557626
 30
0.0
 11
281.6214438068
 21
231.8938557626
 31
0.0
  0
LINE
  5
27D
330
275
100
AcDbEntity
  8
アノテーション
 62
     7
100
AcDbLine
 10
288.1641984784
 20
231.8938557626
 30
0.0
 11
293.1641984784
 21
231.8938557626
 31
0.0
  0
LINE
  5
27E
330
275
100
AcDbEntity
  8
アノテーション
 62
     7
100
AcDbLine
 10
293.1641984784
 20
231.8938557626
 30
0.0
 11
296.1641984784
 21
231.8938557626
 31
0.0
  0
MTEXT
  5
27F
330
275
100
AcDbEntity
  8
アノテーション
 62
     7
100
AcDbMText
 10
281.6214438068
 20
235.1165252284
 30
0.0
 40
2.5
 41
0.0
 71
     1
 72
     1
  1
5
  7
SLDTEXTSTYLE3
 73
     1
 44
1.0
  0
ENDBLK
  5
277
330
275
100
AcDbEntity
  8
0
100
AcDbBlockEnd
  0
ENDSEC
  0
SECTION
  2
ENTITIES
  0
LINE
  5
D4
330
1F
100
AcDbEntity
  8
アノテーション
100
AcDbLine
 10
210.2482779499
 20
282.7736059047
 30
0.0
 11
210.2482779499
 21
287.4846289306
 31
0.0
  0
LINE
  5
D5
330
1F
100
AcDbEntity
  8
アノテーション
100
AcDbLine
 10
401.7482779499
 20
147.2736059047
 30
0.0
 11
405.9693657871
 21
147.2736059047
 31
0.0
  0
LINE
  5
D6
330
1F
100
AcDbEntity
  8
アノテーション
100
AcDbLine
 10
12.3984532218
 20
147.2736059047
 30
0.0
 11
18.7482779499
 21
147.2736059047
 31
0.0
  0
LINE
  5
D7
330
1F
100
AcDbEntity
  8
アノテーション
100
AcDbLine
 10
210.2482779499
 20
11.7736059047
 30
0.0
 11
210.2482779499
 21
6.5531446441
 31
0.0
  0
LINE
  5
D8
330
1F
100
AcDbEntity
  8
アノテーション
100
AcDbLine
 10
401.7482779499
 20
11.7736059047
 30
0.0
 11
401.7482779499
 21
282.7736059047
 31
0.0
  0
LINE
  5
D9
330
1F
100
AcDbEntity
  8
アノテーション
100
AcDbLine
 10
18.7482779499
 20
11.7736059047
 30
0.0
 11
401.7482779499
 21
11.7736059047
 31
0.0
  0
LINE
  5
DA
330
1F
100
AcDbEntity
  8
アノテーション
100
AcDbLine
 10
18.7482779499
 20
11.7736059047
 30
0.0
 11
18.7482779499
 21
282.7736059047
 31
0.0
  0
LINE
  5
DB
330
1F
100
AcDbEntity
  8
アノテーション
100
AcDbLine
 10
18.7482779499
 20
282.7736059047
 30
0.0
 11
401.7482779499
 21
282.7736059047
 31
0.0
  0
INSERT
  5
DC
330
1F
100
AcDbEntity
  8
アノテーション
100
AcDbBlockReference
  2
承认图块
 10
226.7482779499
 20
11.7736059047
 30
0.0
  0
INSERT
  5
DD
330
1F
100
AcDbEntity
  8
アノテーション
100
AcDbBlockReference
  2
社外密
 10
26.4741484249
 20
-295.6636942251
 30
0.0
  0
MTEXT
  5
DE
330
1F
100
AcDbEntity
  8
アノテーション
 62
     7
100
AcDbMText
 10
229.5927485571
 20
32.4597475266
 30
0.0
 40
2.6458333333
 41
0.0
 71
     1
 72
     1
  1
\M+19176\M+1FB67
  7
SLDTEXTSTYLE2
 73
     1
 44
1.0
  0
MTEXT
  5
E0
330
1F
100
AcDbEntity
  8
アノテーション
 62
     7
100
AcDbMText
 10
277.8313449285
 20
32.6033766393
 30
0.0
 40
2.6458333333
 41
0.0
 71
     1
 72
     1
  1
2022.01.25
  7
SLDTEXTSTYLE3
 73
     1
 44
1.0
  0
MTEXT
  5
E2
330
1F
100
AcDbEntity
  8
アノテーション
 62
     7
100
AcDbMText
 10
302.8705117719
 20
32.6033766393
 30
0.0
 40
2.6458333333
 41
0.0
 71
     1
 72
     1
  1
1  1
  7
SLDTEXTSTYLE4
 73
     1
 44
1.0
  0
INSERT
  5
E8
330
1F
100
AcDbEntity
  8
アノテーション
 62
     7
100
AcDbBlockReference
  2
SW_NOTE_0
 10
331.9065658067
 20
40.2886842814
 30
0.0
  0
MTEXT
  5
E9
330
1F
100
AcDbEntity
  8
アノテーション
 62
     7
100
AcDbMText
 10
339.1925041429
 20
23.538527669
 30
0.0
 40
4.7625
 41
0.0
 71
     1
 72
     1
  1
TBW08008C
  7
SLDTEXTSTYLE3
 73
     1
 44
1.0
  0
MTEXT
  5
EA
330
1F
100
AcDbEntity
  8
0
  6
Continuous
 62
     7
370
     0
100
AcDbMText
 10
397.2381436906
 20
11.0704957669
 30
0.0
 40
3.5
 41
0.0
 71
     1
 72
     1
  1
A3
  7
SLDTEXTSTYLE3
 73
     1
 44
1.0
  0
INSERT
  5
11B
330
1F
100
AcDbEntity
  8
アノテーション
100
AcDbBlockReference
  2
SW_TABLEANNOTATION_0
 10
591.6264806332
 20
64.5018516919
 30
0.0
  0
INSERT
  5
131
330
1F
100
AcDbEntity
  8
アノテーション
100
AcDbBlockReference
  2
SW_TABLEANNOTATION_1
 10
591.6799747221
 20
4.6982625308
 30
0.0
  0
LWPOLYLINE
  5
132
330
1F
100
AcDbEntity
  8
0
  6
Continuous
 62
     7
370
    25
100
AcDbPolyline
 90
        3
 70
   128
 43
0.0
 10
130.8831642653
 20
186.1180910823
 10
130.550950327
 20
185.6186171976
 10
130.4764859649
 20
185.5179654417
  0
LWPOLYLINE
  5
133
330
1F
100
AcDbEntity
  8
0
  6
Continuous
 62
     7
370
    25
100
AcDbPolyline
 90
        3
 70
   128
 43
0.0
 10
130.8831642653
 20
186.1180910823
 10
130.550950327
 20
185.6186171976
 10
130.4764859649
 20
185.5179654417
  0
CIRCLE
  5
134
330
1F
100
AcDbEntity
  8
0
  6
Continuous
 62
     7
370
    25
100
AcDbCircle
 10
125.1971316795
 20
190.1145312918
 30
0.0
 40
13.70000000000002
  0
CIRCLE
  5
135
330
1F
100
AcDbEntity
  8
0
  6
Continuous
 62
     7
370
    25
100
AcDbCircle
 10
125.1971316795
 20
190.1145312918
 30
0.0
 40
12.55000000000001
  0
ARC
  5
136
330
1F
100
AcDbEntity
  8
0
  6
Continuous
 62
     7
370
    25
100
AcDbCircle
 10
174.3971316795
 20
140.9145312918
 30
0.0
 40
0.799999999999983
100
AcDbArc
 50
270.0
 51
360.0
  0
ARC
  5
137
330
1F
100
AcDbEntity
  8
0
  6
Continuous
 62
     7
370
    25
100
AcDbCircle
 10
174.3971316795
 20
239.3145312918
 30
0.0
 40
0.8000000000000398
100
AcDbArc
 50
0.0
 51
90.0
  0
LINE
  5
138
330
1F
100
AcDbEntity
  8
0
  6
Continuous
 62
     7
370
    25
100
AcDbLine
 10
175.1971324245
 20
239.3145296705
 30
0.0
 11
175.1971324245
 21
140.914532913
 31
0.0
  0
LINE
  5
139
330
1F
100
AcDbEntity
  8
0
  6
Continuous
 62
     7
370
    25
100
AcDbLine
 10
174.3971300582
 20
140.1145305467
 30
0.0
 11
75.9971333007
 21
140.1145305467
 31
0.0
  0
CIRCLE
  5
13A
330
1F
100
AcDbEntity
  8
0
  6
Continuous
 62
     7
370
    25
100
AcDbCircle
 10
125.1971316795
 20
190.1145312918
 30
0.0
 40
14.50000000000001
  0
LINE
  5
13B
330
1F
100
AcDbEntity
  8
0
  6
Continuous
 62
     7
370
    25
100
AcDbLine
 10
75.9971333007
 20
240.1145320368
 30
0.0
 11
174.3971300582
 21
240.1145320368
 31
0.0
  0
LINE
  5
13C
330
1F
100
AcDbEntity
  8
0
  6
Continuous
 62
     7
370
    25
100
AcDbLine
 10
75.1971309344
 20
239.3145296705
 30
0.0
 11
75.1971309344
 21
140.914532913
 31
0.0
  0
ARC
  5
13D
330
1F
100
AcDbEntity
  8
0
  6
Continuous
 62
     7
370
    25
100
AcDbCircle
 10
75.9971316795
 20
239.3145312918
 30
0.0
 40
0.7999999999999972
100
AcDbArc
 50
90.0
 51
180.0
  0
ARC
  5
13E
330
1F
100
AcDbEntity
  8
0
  6
Continuous
 62
     7
370
    25
100
AcDbCircle
 10
75.9971316795
 20
140.9145312918
 30
0.0
 40
0.8000000000000114
100
AcDbArc
 50
180.0
 51
270.0
  0
LINE
  5
13F
330
1F
100
AcDbEntity
  8
0
  6
Continuous
 62
     7
370
    25
100
AcDbLine
 10
126.2561703605
 20
190.5824061
 30
0.0
 11
127.9837042364
 21
190.6941775565
 31
0.0
  0
LINE
  5
140
330
1F
100
AcDbEntity
  8
0
  6
Continuous
 62
     7
370
    25
100
AcDbLine
 10
128.4307644508
 20
189.7210115026
 30
0.0
 11
128.4674171164
 21
189.7247431375
 31
0.0
  0
LINE
  5
141
330
1F
100
AcDbEntity
  8
0
  6
Continuous
 62
     7
370
    25
100
AcDbLine
 10
123.1831449821
 20
189.3814904947
 30
0.0
 11
125.1109451021
 21
189.5062191511
 31
0.0
  0
LINE
  5
142
330
1F
100
AcDbEntity
  8
0
  6
Continuous
 62
     7
370
    25
100
AcDbLine
 10
126.2518137499
 20
189.5800333919
 30
0.0
 11
128.4307644508
 21
189.7210115026
 31
0.0
  0
CIRCLE
  5
143
330
1F
100
AcDbEntity
  8
0
  6
Continuous
 62
     7
370
    25
100
AcDbCircle
 10
125.3049501423
 20
190.0198167188
 30
0.0
 40
3.999999999999996
  0
CIRCLE
  5
144
330
1F
100
AcDbEntity
  8
0
  6
Continuous
 62
     7
370
    25
100
AcDbCircle
 10
127.1190991409
 20
189.657375812
 30
0.0
 40
1.350000000000014
  0
SPLINE
  5
145
330
1F
100
AcDbEntity
  8
0
  6
Continuous
 62
     7
370
    25
100
AcDbSpline
210
0.0
220
0.0
230
1.0
 70
     8
 71
     3
 72
    21
 73
    17
 74
     0
 42
0.000000001
 43
0.00000001
 40
0.0
 40
0.0
 40
0.0
 40
0.0
 40
0.0737525541133274
 40
0.1403229989557829
 40
0.2068791111826707
 40
0.2734243203565257
 40
0.33996265171593
 40
0.4064970452168643
 40
0.4730321806679733
 40
0.5395739635904307
 40
0.6061341965768838
 40
0.6681849423907488
 40
0.7660481070759081
 40
0.8289288525902898
 40
0.891637397844746
 40
1.0
 40
1.0
 40
1.0
 40
1.0
 10
128.2941988009026
 20
189.0488941903659
 30
0.0
 10
128.2182971773021
 20
188.9963631883168
 30
0.0
 10
128.0738853182516
 20
188.8964167141328
 30
0.0
 10
127.8312549378502
 20
188.8260811133617
 30
0.0
 10
127.5956430840989
 20
188.7891775390347
 30
0.0
 10
127.3597356209266
 20
188.7932200025223
 30
0.0
 10
127.130623638975
 20
188.8340829983964
 30
0.0
 10
126.9132203491527
 20
188.9108085659255
 30
0.0
 10
126.7125210452636
 20
189.0212098710661
 30
0.0
 10
126.5331294061887
 20
189.1631850896479
 30
0.0
 10
126.3828588328648
 20
189.3312816951375
 30
0.0
 10
126.2422632050975
 20
189.55702376084
 30
0.0
 10
126.1504206539813
 20
189.8228946749324
 30
0.0
 10
126.1317712720672
 20
190.122390864424
 30
0.0
 10
126.1714362130541
 20
190.4258747538943
 30
0.0
 10
126.2574570633676
 20
190.6105804911251
 30
0.0
 10
126.3119457560589
 20
190.7275797316306
 30
0.0
  0
CIRCLE
  5
146
330
1F
100
AcDbEntity
  8
0
  6
Continuous
 62
     7
370
    25
100
AcDbCircle
 10
124.0839926103
 20
188.6299380532
 30
0.0
 40
1.349999999999984
  0
CIRCLE
  5
147
330
1F
100
AcDbEntity
  8
0
  6
Continuous
 62
     7
370
    25
100
AcDbCircle
 10
124.7117586757
 20
191.7721362913
 30
0.0
 40
1.350000000000033
  0
SPLINE
  5
148
330
1F
100
AcDbEntity
  8
0
  6
Continuous
 62
     7
370
    25
100
AcDbSpline
210
0.0
220
0.0
230
1.0
 70
     8
 71
     3
 72
    22
 73
    18
 74
     0
 42
0.000000001
 43
0.00000001
 40
0.0
 40
0.0
 40
0.0
 40
0.0
 40
0.0998786986084648
 40
0.1673103392798425
 40
0.235228754562281
 40
0.3181696414074341
 40
0.381206055182678
 40
0.4441759484889919
 40
0.5071223557744733
 40
0.5700597389760063
 40
0.6329940205594932
 40
0.6959290436636979
 40
0.7588681299732288
 40
0.8218135874937695
 40
0.8847682977094905
 40
0.947734897532209
 40
1.0
 40
1.0
 40
1.0
 40
1.0
 10
125.8559350661
 20
191.100716915118
 30
0.0
 10
125.7561109783228
 20
191.0362647089647
 30
0.0
 10
125.5888921195772
 20
190.9282985397104
 30
0.0
 10
125.2896752940423
 20
190.8499845991118
 30
0.0
 10
124.9963693497879
 20
190.835183437885
 30
0.0
 10
124.7334532498164
 20
190.8890479715334
 30
0.0
 10
124.5070595215317
 20
190.9870869779491
 30
0.0
 10
124.3240030691456
 20
191.1068132435296
 30
0.0
 10
124.1643676260458
 20
191.2533355430243
 30
0.0
 10
124.0299035097391
 20
191.4231861662948
 30
0.0
 10
123.9228741367291
 20
191.6127482909403
 30
0.0
 10
123.8454932663089
 20
191.8182134134597
 30
0.0
 10
123.799956413887
 20
192.0354070760352
 30
0.0
 10
123.7877530798335
 20
192.2599591985643
 30
0.0
 10
123.8116348275957
 20
192.4864409720208
 30
0.0
 10
123.8645688507216
 20
192.6985489823792
 30
0.0
 10
123.9269683869788
 20
192.8276406900754
 30
0.0
 10
123.9552706518209
 20
192.8861922101551
 30
0.0
  0
SPLINE
  5
149
330
1F
100
AcDbEntity
  8
0
  6
Continuous
 62
     7
370
    25
100
AcDbSpline
210
0.0
220
0.0
230
1.0
 70
     8
 71
     3
 72
    24
 73
    20
 74
     0
 42
0.000000001
 43
0.00000001
 40
0.0
 40
0.0
 40
0.0
 40
0.0
 40
0.0602701207311817
 40
0.1239034606743579
 40
0.1870047378129937
 40
0.2497159619583603
 40
0.3121530089116724
 40
0.374408186298235
 40
0.4365545173444573
 40
0.4986514798225872
 40
0.5607485181127365
 40
0.6228451924649661
 40
0.6849411140257259
 40
0.7470358254517931
 40
0.8091287690540129
 40
0.8712190408583649
 40
0.9333060308013641
 40
0.9953886930109446
 40
0.9999999999999999
 40
0.9999999999999999
 40
0.9999999999999999
 40
0.9999999999999999
 10
125.2330329314629
 20
187.9684183263653
 30
0.0
 10
125.1740223610063
 20
187.9336449890629
 30
0.0
 10
125.0527082868474
 20
187.8621578777266
 30
0.0
 10
124.8470056593551
 20
187.7943053187387
 30
0.0
 10
124.6294546277172
 20
187.758107659148
 30
0.0
 10
124.4080800332156
 20
187.7588422017533
 30
0.0
 10
124.1893733221812
 20
187.7954888996909
 30
0.0
 10
123.9789791256123
 20
187.867196976968
 30
0.0
 10
123.782533854939
 20
187.971950310758
 30
0.0
 10
123.6052647886812
 20
188.1069475535712
 30
0.0
 10
123.4519564152546
 20
188.2685209807841
 30
0.0
 10
123.3267530749674
 20
188.4522187760961
 30
0.0
 10
123.2330255482703
 20
188.6528763876048
 30
0.0
 10
123.1730921488729
 20
188.8648960520282
 30
0.0
 10
123.1485948201791
 20
189.0821244607826
 30
0.0
 10
123.1587432073164
 20
189.2991897790167
 30
0.0
 10
123.2066846998189
 20
189.5074784243663
 30
0.0
 10
123.2544476529584
 20
189.6483071389307
 30
0.0
 10
123.2933277060247
 20
189.7123142806839
 30
0.0
 10
123.2960159230044
 20
189.7167398169604
 30
0.0
  0
CIRCLE
  5
14A
330
1F
100
AcDbEntity
  8
0
  6
Continuous
 62
     7
370
    25
100
AcDbCircle
 10
125.1971316795
 20
190.1145312918
 30
0.0
 40
12.49999999999998
  0
CIRCLE
  5
14B
330
1F
100
AcDbEntity
  8
0
  6
Continuous
 62
     7
370
    25
100
AcDbCircle
 10
125.1971316795
 20
190.1145312918
 30
0.0
 40
6.99999999999998
  0
CIRCLE
  5
14C
330
1F
100
AcDbEntity
  8
0
  6
Continuous
 62
     7
370
    25
100
AcDbCircle
 10
125.1971316795
 20
190.1145312918
 30
0.0
 40
6.545454545454549
  0
CIRCLE
  5
14D
330
1F
100
AcDbEntity
  8
0
  6
Continuous
 62
     7
370
    25
100
AcDbCircle
 10
125.1971316795
 20
190.1145312918
 30
0.0
 40
6.000000000000008
  0
CIRCLE
  5
14E
330
1F
100
AcDbEntity
  8
0
  6
Continuous
 62
     7
370
    25
100
AcDbCircle
 10
125.1971316795
 20
190.1145312918
 30
0.0
 40
4.417949192431096
  0
ARC
  5
14F
330
1F
100
AcDbEntity
  8
0
  6
Continuous
 62
     7
370
    25
100
AcDbCircle
 10
125.1971316795
 20
190.1145312918
 30
0.0
 40
4.149999999999994
100
AcDbArc
 50
32.957930301
 51
244.4458255289
  0
LINE
  5
150
330
1F
100
AcDbEntity
  8
アノテーション
  6
CENTERX2
 62
     7
100
AcDbLine
 10
125.1971316795
 20
190.1145312918
 30
0.0
 11
181.3862682246
 21
190.1145312918
 31
0.0
  0
LINE
  5
151
330
1F
100
AcDbEntity
  8
アノテーション
  6
CENTERX2
 62
     7
100
AcDbLine
 10
125.1971316795
 20
190.1145312918
 30
0.0
 11
62.9187012867
 21
190.1145312918
 31
0.0
  0
LINE
  5
152
330
1F
100
AcDbEntity
  8
アノテーション
  6
CENTERX2
 62
     7
100
AcDbLine
 10
125.1971316795
 20
190.1145312918
 30
0.0
 11
125.11421775
 21
247.3753806738
 31
0.0
  0
LINE
  5
153
330
1F
100
AcDbEntity
  8
アノテーション
  6
CENTERX2
 62
     7
100
AcDbLine
 10
125.1971316795
 20
190.1145312918
 30
0.0
 11
125.11421775
 21
134.7936080338
 31
0.0
  0
DIMENSION
  5
154
330
1F
100
AcDbEntity
  8
アノテーション
 62
     7
100
AcDbDimension
  2
_D
 10
75.1971316795
 20
250.1145312918
 30
0.0
 11
124.8212546091
 21
250.1145312918
 31
0.0
 70
   160
  1
{\fGDT;o}<>
 71
     2
 42
-1.0
  3
SLDDIMSTYLE0
100
AcDbAlignedDimension
 13
175.1971316795
 23
239.3145312918
 33
0.0
 14
75.1971316795
 24
239.3145312918
 34
0.0
 50
0.0
100
AcDbRotatedDimension
  0
DIMENSION
  5
16D
330
1F
100
AcDbEntity
  8
アノテーション
 62
     7
100
AcDbDimension
  2
_D_1
 10
174.3971316795
 20
239.3145312918
 30
0.0
 11
183.6163876404
 21
248.5337872527
 31
0.0
 70
   164
  1
<>
 71
     1
 42
-1.0
  3
SLDDIMSTYLE1
100
AcDbRadialDimension
 15
174.9628171044
 25
239.8802167167
 35
0.0
 40
0.0
  0
LINE
  5
175
330
1F
100
AcDbEntity
  8
0
  6
Continuous
 62
     7
370
    25
100
AcDbLine
 10
114.7196316431
 20
37.9311411112
 30
0.0
 11
115.8816316436
 21
36.7691411108
 31
0.0
  0
LINE
  5
176
330
1F
100
AcDbEntity
  8
0
  6
Continuous
 62
     7
370
    25
100
AcDbLine
 10
134.5126317154
 20
36.7691411108
 30
0.0
 11
135.6746317158
 21
37.9311411112
 31
0.0
  0
LINE
  5
177
330
1F
100
AcDbEntity
  8
0
  6
Continuous
 62
     7
370
    25
100
AcDbLine
 10
114.7196316431
 20
51.7817853421
 30
0.0
 11
114.7196316431
 21
37.9311411112
 31
0.0
  0
LINE
  5
178
330
1F
100
AcDbEntity
  8
0
  6
Continuous
 62
     7
370
    25
100
AcDbLine
 10
135.6746317158
 20
37.9311411112
 30
0.0
 11
135.6746317158
 21
51.7817853421
 31
0.0
  0
LINE
  5
179
330
1F
100
AcDbEntity
  8
0
  6
Continuous
 62
     7
370
    25
100
AcDbLine
 10
114.7196316431
 20
52.7691400081
 30
0.0
 11
114.7196316431
 21
51.7817853421
 31
0.0
  0
LINE
  5
17A
330
1F
100
AcDbEntity
  8
0
  6
Continuous
 62
     7
370
    25
100
AcDbLine
 10
135.6746317158
 20
51.7817853421
 30
0.0
 11
135.6746317158
 21
52.7691400081
 31
0.0
  0
LINE
  5
17B
330
1F
100
AcDbEntity
  8
0
  6
Continuous
 62
     7
370
    25
100
AcDbLine
 10
139.1971321116
 20
52.7691400081
 30
0.0
 11
140.9471319328
 21
53.7795057922
 31
0.0
  0
LINE
  5
17C
330
1F
100
AcDbEntity
  8
0
  6
Continuous
 62
     7
370
    25
100
AcDbLine
 10
140.9471319328
 20
56.7587787688
 30
0.0
 11
139.1971321116
 21
57.7691426903
 31
0.0
  0
LINE
  5
17D
330
1F
100
AcDbEntity
  8
0
  6
Continuous
 62
     7
370
    25
100
AcDbLine
 10
109.4471314262
 20
53.7795057922
 30
0.0
 11
111.1971312474
 21
52.7691400081
 31
0.0
  0
LINE
  5
17E
330
1F
100
AcDbEntity
  8
0
  6
Continuous
 62
     7
370
    25
100
AcDbLine
 10
111.1971312474
 20
57.7691426903
 30
0.0
 11
109.4471314262
 21
56.7587787688
 31
0.0
  0
LINE
  5
17F
330
1F
100
AcDbEntity
  8
0
  6
Continuous
 62
     7
370
    25
100
AcDbLine
 10
140.9471319328
 20
53.7795057922
 30
0.0
 11
140.9471319328
 21
56.7587787688
 31
0.0
  0
LINE
  5
180
330
1F
100
AcDbEntity
  8
0
  6
Continuous
 62
     7
370
    25
100
AcDbLine
 10
109.4471314262
 20
56.7587787688
 30
0.0
 11
109.4471314262
 21
53.7795057922
 31
0.0
  0
LINE
  5
181
330
1F
100
AcDbEntity
  8
0
  6
Continuous
 62
     7
370
    25
100
AcDbLine
 10
92.7946944992
 20
92.269141826
 30
0.0
 11
94.1971321861
 21
57.7691426903
 31
0.0
  0
LINE
  5
182
330
1F
100
AcDbEntity
  8
0
  6
Continuous
 62
     7
370
    25
100
AcDbLine
 10
157.5384293954
 20
90.7650623873
 30
0.0
 11
157.5995688598
 21
92.269141826
 31
0.0
  0
LINE
  5
183
330
1F
100
AcDbEntity
  8
0
  6
Continuous
 62
     7
370
    25
100
AcDbLine
 10
156.1971311728
 20
57.7691426903
 30
0.0
 11
157.3351775567
 21
85.7650623826
 31
0.0
  0
LINE
  5
184
330
1F
100
AcDbEntity
  8
0
  6
Continuous
 62
     7
370
    25
100
AcDbLine
 10
157.3351775567
 20
85.7650623826
 30
0.0
 11
157.5384293954
 21
90.7650623873
 31
0.0
  0
LINE
  5
185
330
1F
100
AcDbEntity
  8
0
  6
Continuous
 62
     7
370
    25
100
AcDbLine
 10
88.1971312026
 20
92.769141908
 30
0.0
 11
88.1971312026
 21
92.269141826
 31
0.0
  0
LINE
  5
186
330
1F
100
AcDbEntity
  8
0
  6
Continuous
 62
     7
370
    25
100
AcDbLine
 10
162.1971321563
 20
92.269141826
 30
0.0
 11
162.1971321563
 21
92.769141908
 31
0.0
  0
LINE
  5
187
330
1F
100
AcDbEntity
  8
0
  6
Continuous
 62
     7
370
    25
100
AcDbLine
 10
116.1971320669
 20
108.2091598242
 30
0.0
 11
115.6854345734
 21
107.7691415727
 31
0.0
  0
LINE
  5
188
330
1F
100
AcDbEntity
  8
0
  6
Continuous
 62
     7
370
    25
100
AcDbLine
 10
134.7088287855
 20
107.7691415727
 30
0.0
 11
134.1971312921
 21
108.2091598242
 31
0.0
  0
ARC
  5
189
330
1F
100
AcDbEntity
  8
0
  6
Continuous
 62
     7
370
    25
100
AcDbCircle
 10
113.1971316795
 20
116.2255359072
 30
0.0
 40
0.5
100
AcDbArc
 50
180.0
 51
270.0
  0
ARC
  5
18A
330
1F
100
AcDbEntity
  8
0
  6
Continuous
 62
     7
370
    25
100
AcDbCircle
 10
137.1971316795
 20
116.2255359072
 30
0.0
 40
0.5
100
AcDbArc
 50
270.0
 51
0.0
  0
LINE
  5
18B
330
1F
100
AcDbEntity
  8
0
  6
Continuous
 62
     7
370
    25
100
AcDbLine
 10
112.6971314932
 20
117.225535813
 30
0.0
 11
112.6971314932
 21
116.225535649
 31
0.0
  0
LINE
  5
18C
330
1F
100
AcDbEntity
  8
0
  6
Continuous
 62
     7
370
    25
100
AcDbLine
 10
137.6971318658
 20
116.225535649
 30
0.0
 11
137.6971318658
 21
117.225535813
 31
0.0
  0
ARC
  5
18D
330
1F
100
AcDbEntity
  8
0
  6
Continuous
 62
     7
370
    25
100
AcDbCircle
 10
137.1971316795
 20
117.2255359072
 30
0.0
 40
0.5
100
AcDbArc
 50
0.0
 51
90.0
  0
ARC
  5
18E
330
1F
100
AcDbEntity
  8
0
  6
Continuous
 62
     7
370
    25
100
AcDbCircle
 10
113.1971316795
 20
117.2255359072
 30
0.0
 40
0.5
100
AcDbArc
 50
90.0
 51
180.0
  0
ARC
  5
18F
330
1F
100
AcDbEntity
  8
0
  6
Continuous
 62
     7
370
    25
100
AcDbCircle
 10
114.6971316795
 20
114.2255359072
 30
0.0
 40
1.5
100
AcDbArc
 50
0.0
 51
90.0
  0
ARC
  5
190
330
1F
100
AcDbEntity
  8
0
  6
Continuous
 62
     7
370
    25
100
AcDbCircle
 10
135.6971316795
 20
114.2255359072
 30
0.0
 40
1.5
100
AcDbArc
 50
90.0
 51
180.0
  0
LINE
  5
191
330
1F
100
AcDbEntity
  8
0
  6
Continuous
 62
     7
370
    25
100
AcDbLine
 10
116.1971320669
 20
114.2255353212
 30
0.0
 11
116.1971320669
 21
108.2091598242
 31
0.0
  0
LINE
  5
192
330
1F
100
AcDbEntity
  8
0
  6
Continuous
 62
     7
370
    25
100
AcDbLine
 10
134.1971312921
 20
108.2091598242
 30
0.0
 11
134.1971312921
 21
114.2255353212
 31
0.0
  0
LINE
  5
193
330
1F
100
AcDbEntity
  8
0
  6
Continuous
 62
     7
370
    25
100
AcDbLine
 10
125.1971316795
 20
36.7691411108
 30
0.0
 11
134.5126317154
 21
36.7691411108
 31
0.0
  0
LINE
  5
194
330
1F
100
AcDbEntity
  8
0
  6
Continuous
 62
     7
370
    25
100
AcDbLine
 10
115.8816316436
 20
36.7691411108
 30
0.0
 11
125.1971316795
 21
36.7691411108
 31
0.0
  0
LINE
  5
195
330
1F
100
AcDbEntity
  8
0
  6
Continuous
 62
     7
370
    25
100
AcDbLine
 10
125.1971316795
 20
37.9311411112
 30
0.0
 11
135.6746317158
 21
37.9311411112
 31
0.0
  0
LINE
  5
196
330
1F
100
AcDbEntity
  8
0
  6
Continuous
 62
     7
370
    25
100
AcDbLine
 10
114.7196316431
 20
37.9311411112
 30
0.0
 11
125.1971316795
 21
37.9311411112
 31
0.0
  0
LINE
  5
197
330
1F
100
AcDbEntity
  8
0
  6
Continuous
 62
     7
370
    25
100
AcDbLine
 10
125.1971316795
 20
51.7817853421
 30
0.0
 11
135.6746317158
 21
51.7817853421
 31
0.0
  0
LINE
  5
198
330
1F
100
AcDbEntity
  8
0
  6
Continuous
 62
     7
370
    25
100
AcDbLine
 10
114.7196316431
 20
51.7817853421
 30
0.0
 11
125.1971316795
 21
51.7817853421
 31
0.0
  0
SPLINE
  5
199
330
1F
100
AcDbEntity
  8
0
  6
Continuous
 62
     7
370
    25
100
AcDbSpline
210
0.0
220
0.0
230
1.0
 70
     8
 71
     3
 72
    10
 73
     6
 74
     0
 42
0.000000001
 43
0.00000001
 40
0.0
 40
0.0
 40
0.0
 40
0.0
 40
0.1720767792514415
 40
0.583637466785898
 40
0.9999999999999999
 40
0.9999999999999999
 40
0.9999999999999999
 40
0.9999999999999999
 10
113.0727757970801
 20
52.76914000806858
 30
0.0
 10
113.2822263776927
 20
52.77599830794799
 30
0.0
 10
113.9926255774996
 20
52.79925978916289
 30
0.0
 10
115.2067058438255
 20
53.07386116356262
 30
0.0
 10
116.1873348680333
 20
53.54338319402492
 30
0.0
 10
116.6804931397548
 20
53.77950579223683
 30
0.0
  0
LINE
  5
19A
330
1F
100
AcDbEntity
  8
0
  6
Continuous
 62
     7
370
    25
100
AcDbLine
 10
116.6804931398
 20
53.7795057922
 30
0.0
 11
117.9816969941
 21
53.7795057922
 31
0.0
  0
SPLINE
  5
19B
330
1F
100
AcDbEntity
  8
0
  6
Continuous
 62
     7
370
    25
100
AcDbSpline
210
0.0
220
0.0
230
1.0
 70
     8
 71
     3
 72
    10
 73
     6
 74
     0
 42
0.000000001
 43
0.00000001
 40
0.0
 40
0.0
 40
0.0
 40
0.0
 40
0.2509721097556196
 40
0.6235736757221265
 40
1.0
 40
1.0
 40
1.0
 40
1.0
 10
117.9816969941368
 20
53.77950579223683
 30
0.0
 10
118.5746872795161
 20
53.63228533319779
 30
0.0
 10
120.0480507232928
 20
53.26649646975054
 30
0.0
 10
122.4561882086469
 20
52.86173767057671
 30
0.0
 10
124.2803789031687
 20
52.80011079060677
 30
0.0
 10
125.1971316794861
 20
52.76914000806858
 30
0.0
  0
LINE
  5
19C
330
1F
100
AcDbEntity
  8
0
  6
Continuous
 62
     7
370
    25
100
AcDbLine
 10
125.1971316795
 20
52.7691400081
 30
0.0
 11
113.0727757971
 21
52.7691400081
 31
0.0
  0
SPLINE
  5
19D
330
1F
100
AcDbEntity
  8
0
  6
Continuous
 62
     7
370
    25
100
AcDbSpline
210
0.0
220
0.0
230
1.0
 70
     8
 71
     3
 72
    10
 73
     6
 74
     0
 42
0.000000001
 43
0.00000001
 40
0.0
 40
0.0
 40
0.0
 40
0.0
 40
0.372908825475826
 40
0.7500303648098243
 40
1.0
 40
1.0
 40
1.0
 40
1.0
 10
125.1971316794861
 20
57.7691426902776
 30
0.0
 10
124.2889540912154
 20
57.73871408239794
 30
0.0
 10
122.4623393229172
 20
57.67751311768624
 30
0.0
 10
120.0539585290459
 20
57.27336750002754
 30
0.0
 10
118.5723087899923
 20
56.90544084281432
 30
0.0
 10
117.9816969941368
 20
56.7587787687545
 30
0.0
  0
SPLINE
  5
19E
330
1F
100
AcDbEntity
  8
0
  6
Continuous
 62
     7
370
    25
100
AcDbSpline
210
0.0
220
0.0
230
1.0
 70
     8
 71
     3
 72
    10
 73
     6
 74
     0
 42
0.000000001
 43
0.00000001
 40
0.0
 40
0.0
 40
0.0
 40
0.0
 40
0.3146268598746046
 40
0.6309191066903198
 40
0.9999999999999999
 40
0.9999999999999999
 40
0.9999999999999999
 40
0.9999999999999999
 10
132.4125663648358
 20
56.7587787687545
 30
0.0
 10
131.6684099604955
 20
56.94095091275627
 30
0.0
 10
130.1761581735649
 20
57.30625947669535
 30
0.0
 10
127.7652169032835
 20
57.68458152512955
 30
0.0
 10
126.0960150432367
 20
57.73954451967695
 30
0.0
 10
125.1971316794861
 20
57.7691426902776
 30
0.0
  0
LINE
  5
19F
330
1F
100
AcDbEntity
  8
0
  6
Continuous
 62
     7
370
    25
100
AcDbLine
 10
132.4125663648
 20
56.7587787688
 30
0.0
 11
132.4125663648
 21
53.7795057922
 31
0.0
  0
SPLINE
  5
1A0
330
1F
100
AcDbEntity
  8
0
  6
Continuous
 62
     7
370
    25
100
AcDbSpline
210
0.0
220
0.0
230
1.0
 70
     8
 71
     3
 72
    10
 73
     6
 74
     0
 42
0.000000001
 43
0.00000001
 40
0.0
 40
0.0
 40
0.0
 40
0.0
 40
0.3698933281034361
 40
0.684003830222532
 40
1.0
 40
1.0
 40
1.0
 40
1.0
 10
125.1971316794861
 20
52.76914000806858
 30
0.0
 10
126.0979959061732
 20
52.79885486683816
 30
0.0
 10
127.7638669418143
 20
52.8538033497349
 30
0.0
 10
130.1747933787965
 20
53.2318446741445
 30
0.0
 10
131.665155342194
 20
53.59658824032777
 30
0.0
 10
132.4125663648358
 20
53.77950579223683
 30
0.0
  0
LINE
  5
1A1
330
1F
100
AcDbEntity
  8
0
  6
Continuous
 62
     7
370
    25
100
AcDbLine
 10
117.9816969941
 20
53.7795057922
 30
0.0
 11
117.9816969941
 21
56.7587787688
 31
0.0
  0
LINE
  5
1A2
330
1F
100
AcDbEntity
  8
0
  6
Continuous
 62
     7
370
    25
100
AcDbLine
 10
132.4125663648
 20
53.7795057922
 30
0.0
 11
133.7137702192
 21
53.7795057922
 31
0.0
  0
SPLINE
  5
1A3
330
1F
100
AcDbEntity
  8
0
  6
Continuous
 62
     7
370
    25
100
AcDbSpline
210
0.0
220
0.0
230
1.0
 70
     8
 71
     3
 72
    11
 73
     7
 74
     0
 42
0.000000001
 43
0.00000001
 40
0.0
 40
0.0
 40
0.0
 40
0.0
 40
0.2476345605570122
 40
0.4960218892092488
 40
0.747356516158484
 40
1.0
 40
1.0
 40
1.0
 40
1.0
 10
133.7137702192178
 20
53.77950579223683
 30
0.0
 10
134.0063484760454
 20
53.63311809006014
 30
0.0
 10
134.5923943791969
 20
53.33989769131063
 30
0.0
 10
135.4891186381161
 20
53.02380719370323
 30
0.0
 10
136.4000100705608
 20
52.80963288517063
 30
0.0
 10
137.0137970527355
 20
52.78266098290516
 30
0.0
 10
137.3214875618925
 20
52.76914000806858
 30
0.0
  0
LINE
  5
1A4
330
1F
100
AcDbEntity
  8
0
  6
Continuous
 62
     7
370
    25
100
AcDbLine
 10
137.3214875619
 20
52.7691400081
 30
0.0
 11
125.1971316795
 21
52.7691400081
 31
0.0
  0
LINE
  5
1A5
330
1F
100
AcDbEntity
  8
0
  6
Continuous
 62
     7
370
    25
100
AcDbLine
 10
117.9816969941
 20
56.7587787688
 30
0.0
 11
116.6804931398
 21
56.7587787688
 31
0.0
  0
LINE
  5
1A6
330
1F
100
AcDbEntity
  8
0
  6
Continuous
 62
     7
370
    25
100
AcDbLine
 10
116.6804931398
 20
56.7587787688
 30
0.0
 11
116.6804931398
 21
53.7795057922
 31
0.0
  0
LINE
  5
1A7
330
1F
100
AcDbEntity
  8
0
  6
Continuous
 62
     7
370
    25
100
AcDbLine
 10
133.7137702192
 20
56.7587787688
 30
0.0
 11
132.4125663648
 21
56.7587787688
 31
0.0
  0
LINE
  5
1A8
330
1F
100
AcDbEntity
  8
0
  6
Continuous
 62
     7
370
    25
100
AcDbLine
 10
133.7137702192
 20
53.7795057922
 30
0.0
 11
133.7137702192
 21
56.7587787688
 31
0.0
  0
SPLINE
  5
1A9
330
1F
100
AcDbEntity
  8
0
  6
Continuous
 62
     7
370
    25
100
AcDbSpline
210
0.0
220
0.0
230
1.0
 70
     8
 71
     3
 72
     9
 73
     5
 74
     0
 42
0.000000001
 43
0.00000001
 40
0.0
 40
0.0
 40
0.0
 40
0.0
 40
0.4960882501747017
 40
1.0
 40
1.0
 40
1.0
 40
1.0
 10
116.6804931397548
 20
56.7587787687545
 30
0.0
 10
116.092165909035
 20
57.04331954797807
 30
0.0
 10
114.9062333042765
 20
57.6168884223132
 30
0.0
 10
113.6871075760485
 20
57.71812725363565
 30
0.0
 10
113.0727757970801
 20
57.7691426902776
 30
0.0
  0
SPLINE
  5
1AA
330
1F
100
AcDbEntity
  8
0
  6
Continuous
 62
     7
370
    25
100
AcDbSpline
210
0.0
220
0.0
230
1.0
 70
     8
 71
     3
 72
    10
 73
     6
 74
     0
 42
0.000000001
 43
0.00000001
 40
0.0
 40
0.0
 40
0.0
 40
0.0
 40
0.1720767840802383
 40
0.5836374551019855
 40
1.0
 40
1.0
 40
1.0
 40
1.0
 10
137.3214875618925
 20
57.7691426902776
 30
0.0
 10
137.1120369841366
 20
57.76228433889159
 30
0.0
 10
136.4016378281754
 20
57.73902268409883
 30
0.0
 10
135.1875574434503
 20
57.46442407503742
 30
0.0
 10
134.2069284780701
 20
56.99490159903281
 30
0.0
 10
133.7137702192178
 20
56.7587787687545
 30
0.0
  0
SPLINE
  5
1AB
330
1F
100
AcDbEntity
  8
0
  6
Continuous
 62
     7
370
    25
100
AcDbSpline
210
0.0
220
0.0
230
1.0
 70
     8
 71
     3
 72
     9
 73
     5
 74
     0
 42
0.000000001
 43
0.00000001
 40
0.0
 40
0.0
 40
0.0
 40
0.0
 40
0.4960882357407013
 40
1.0
 40
1.0
 40
1.0
 40
1.0
 10
140.9292039732447
 20
56.7587787687545
 30
0.0
 10
140.3408771212674
 20
57.0433195481337
 30
0.0
 10
139.1549452454612
 20
57.61688843947083
 30
0.0
 10
137.9358194116583
 20
57.71812725841295
 30
0.0
 10
137.3214875618925
 20
57.7691426902776
 30
0.0
  0
LINE
  5
1AC
330
1F
100
AcDbEntity
  8
0
  6
Continuous
 62
     7
370
    25
100
AcDbLine
 10
140.9292039732
 20
56.7587787688
 30
0.0
 11
140.9292039732
 21
53.7795057922
 31
0.0
  0
SPLINE
  5
1AD
330
1F
100
AcDbEntity
  8
0
  6
Continuous
 62
     7
370
    25
100
AcDbSpline
210
0.0
220
0.0
230
1.0
 70
     8
 71
     3
 72
    10
 73
     6
 74
     0
 42
0.000000001
 43
0.00000001
 40
0.0
 40
0.0
 40
0.0
 40
0.0
 40
0.1720768391507108
 40
0.5836375379336035
 40
1.0
 40
1.0
 40
1.0
 40
1.0
 10
137.3214875618925
 20
52.76914000806858
 30
0.0
 10
137.5309381281437
 20
52.77599830609546
 30
0.0
 10
138.241337118554
 20
52.79925977576549
 30
0.0
 10
139.4554177287213
 20
53.0738611002576
 30
0.0
 10
140.4360460856759
 20
53.54338318832207
 30
0.0
 10
140.9292039732447
 20
53.77950579223683
 30
0.0
  0
SPLINE
  5
1AE
330
1F
100
AcDbEntity
  8
0
  6
Continuous
 62
     7
370
    25
100
AcDbSpline
210
0.0
220
0.0
230
1.0
 70
     8
 71
     3
 72
    10
 73
     6
 74
     0
 42
0.000000001
 43
0.00000001
 40
0.0
 40
0.0
 40
0.0
 40
0.0
 40
0.1720768439795093
 40
0.5836375262496926
 40
0.9999999999999999
 40
0.9999999999999999
 40
0.9999999999999999
 40
0.9999999999999999
 10
113.07277579708
 20
57.7691426902776
 30
0.0
 10
112.8633252336855
 20
57.76228434074409
 30
0.0
 10
112.1529262871211
 20
57.73902269749612
 30
0.0
 10
110.9388455585546
 20
57.46442413834226
 30
0.0
 10
109.9582172604276
 20
56.9949016047356
 30
0.0
 10
109.4650593857279
 20
56.7587787687545
 30
0.0
  0
SPLINE
  5
1AF
330
1F
100
AcDbEntity
  8
0
  6
Continuous
 62
     7
370
    25
100
AcDbSpline
210
0.0
220
0.0
230
1.0
 70
     8
 71
     3
 72
    11
 73
     7
 74
     0
 42
0.000000001
 43
0.00000001
 40
0.0
 40
0.0
 40
0.0
 40
0.0
 40
0.2476344853010985
 40
0.4960218752158277
 40
0.7473565176541644
 40
1.0
 40
1.0
 40
1.0
 40
1.0
 10
109.4650593857279
 20
53.77950579223683
 30
0.0
 10
109.7576373289462
 20
53.63311807424142
 30
0.0
 10
110.3436827654914
 20
53.3398975629691
 30
0.0
 10
111.2404064134972
 20
53.02380724246314
 30
0.0
 10
112.1512997700881
 20
52.80963288120052
 30
0.0
 10
112.7650857837846
 20
52.78266098127609
 30
0.0
 10
113.0727757970801
 20
52.76914000806858
 30
0.0
  0
LINE
  5
1B0
330
1F
100
AcDbEntity
  8
0
  6
Continuous
 62
     7
370
    25
100
AcDbLine
 10
109.4650593857
 20
53.7795057922
 30
0.0
 11
109.4650593857
 21
56.7587787688
 31
0.0
  0
LINE
  5
1B1
330
1F
100
AcDbEntity
  8
0
  6
Continuous
 62
     7
370
    25
100
AcDbLine
 10
140.9292039732
 20
53.7795057922
 30
0.0
 11
140.9471319328
 21
53.7795057922
 31
0.0
  0
LINE
  5
1B2
330
1F
100
AcDbEntity
  8
0
  6
Continuous
 62
     7
370
    25
100
AcDbLine
 10
139.1971321116
 20
52.7691400081
 30
0.0
 11
137.3214875619
 21
52.7691400081
 31
0.0
  0
LINE
  5
1B3
330
1F
100
AcDbEntity
  8
0
  6
Continuous
 62
     7
370
    25
100
AcDbLine
 10
140.9471319328
 20
56.7587787688
 30
0.0
 11
140.9292039732
 21
56.7587787688
 31
0.0
  0
LINE
  5
1B4
330
1F
100
AcDbEntity
  8
0
  6
Continuous
 62
     7
370
    25
100
AcDbLine
 10
109.4471314262
 20
53.7795057922
 30
0.0
 11
109.4650593857
 21
53.7795057922
 31
0.0
  0
LINE
  5
1B5
330
1F
100
AcDbEntity
  8
0
  6
Continuous
 62
     7
370
    25
100
AcDbLine
 10
113.0727757971
 20
52.7691400081
 30
0.0
 11
111.1971312474
 21
52.7691400081
 31
0.0
  0
LINE
  5
1B6
330
1F
100
AcDbEntity
  8
0
  6
Continuous
 62
     7
370
    25
100
AcDbLine
 10
109.4650593857
 20
56.7587787688
 30
0.0
 11
109.4471314262
 21
56.7587787688
 31
0.0
  0
LINE
  5
1B7
330
1F
100
AcDbEntity
  8
0
  6
Continuous
 62
     7
370
    25
100
AcDbLine
 10
156.1971311728
 20
57.7691426903
 30
0.0
 11
94.1971321861
 21
57.7691426903
 31
0.0
  0
CIRCLE
  5
1B8
330
1F
100
AcDbEntity
  8
0
  6
Continuous
 62
     7
370
    25
100
AcDbCircle
 10
125.1971316795
 20
96.3191418558
 30
0.0
 40
1.480384757729369
  0
LINE
  5
1B9
330
1F
100
AcDbEntity
  8
0
  6
Continuous
 62
     7
370
    25
100
AcDbLine
 10
125.5431779116
 20
95.5252578884
 30
0.0
 11
126.0576786279
 21
96.2218843803
 31
0.0
  0
LINE
  5
1BA
330
1F
100
AcDbEntity
  8
0
  6
Continuous
 62
     7
370
    25
100
AcDbLine
 10
126.0576786279
 20
96.2218843803
 30
0.0
 11
125.7116323957
 21
97.0157688886
 31
0.0
  0
LINE
  5
1BB
330
1F
100
AcDbEntity
  8
0
  6
Continuous
 62
     7
370
    25
100
AcDbLine
 10
125.7116323957
 20
97.0157688886
 30
0.0
 11
124.8510854473
 21
97.1130259737
 31
0.0
  0
LINE
  5
1BC
330
1F
100
AcDbEntity
  8
0
  6
Continuous
 62
     7
370
    25
100
AcDbLine
 10
124.8510854473
 20
97.1130259737
 30
0.0
 11
124.3365847311
 21
96.4163994819
 31
0.0
  0
LINE
  5
1BD
330
1F
100
AcDbEntity
  8
0
  6
Continuous
 62
     7
370
    25
100
AcDbLine
 10
124.3365847311
 20
96.4163994819
 30
0.0
 11
124.6826309633
 21
95.6225149736
 31
0.0
  0
LINE
  5
1BE
330
1F
100
AcDbEntity
  8
0
  6
Continuous
 62
     7
370
    25
100
AcDbLine
 10
124.6826309633
 20
95.6225149736
 30
0.0
 11
125.5431779116
 21
95.5252578884
 31
0.0
  0
CIRCLE
  5
1BF
330
1F
100
AcDbEntity
  8
0
  6
Continuous
 62
     7
370
    25
100
AcDbCircle
 10
125.1971316795
 20
96.3191418558
 30
0.0
 40
1.621000000000018
  0
LINE
  5
1C0
330
1F
100
AcDbEntity
  8
0
  6
Continuous
 62
     7
370
    25
100
AcDbLine
 10
175.1971324245
 20
106.969141069
 30
0.0
 11
175.1971324245
 21
92.769141908
 31
0.0
  0
LINE
  5
1C1
330
1F
100
AcDbEntity
  8
0
  6
Continuous
 62
     7
370
    25
100
AcDbLine
 10
175.1971324245
 20
92.769141908
 30
0.0
 11
174.3971300582
 21
92.769141908
 31
0.0
  0
CIRCLE
  5
1C2
330
1F
100
AcDbEntity
  8
0
  6
Continuous
 62
     7
370
    25
100
AcDbCircle
 10
125.1971316795
 20
96.3191418558
 30
0.0
 40
2.0
  0
LINE
  5
1C3
330
1F
100
AcDbEntity
  8
0
  6
Continuous
 62
     7
370
    25
100
AcDbLine
 10
174.3971300582
 20
92.769141908
 30
0.0
 11
75.9971333007
 21
92.769141908
 31
0.0
  0
ARC
  5
1C4
330
1F
100
AcDbEntity
  8
0
  6
Continuous
 62
     7
370
    25
100
AcDbCircle
 10
174.3971316795
 20
106.9691418558
 30
0.0
 40
0.7999999999999972
100
AcDbArc
 50
0.0
 51
90.0
  0
LINE
  5
1C5
330
1F
100
AcDbEntity
  8
0
  6
Continuous
 62
     7
370
    25
100
AcDbLine
 10
75.9971333007
 20
107.7691415727
 30
0.0
 11
174.3971300582
 21
107.7691415727
 31
0.0
  0
LINE
  5
1C6
330
1F
100
AcDbEntity
  8
0
  6
Continuous
 62
     7
370
    25
100
AcDbLine
 10
75.1971309344
 20
106.969141069
 30
0.0
 11
75.1971309344
 21
92.769141908
 31
0.0
  0
LINE
  5
1C7
330
1F
100
AcDbEntity
  8
0
  6
Continuous
 62
     7
370
    25
100
AcDbLine
 10
75.1971309344
 20
92.769141908
 30
0.0
 11
75.9971333007
 21
92.769141908
 31
0.0
  0
ARC
  5
1C8
330
1F
100
AcDbEntity
  8
0
  6
Continuous
 62
     7
370
    25
100
AcDbCircle
 10
75.9971316795
 20
106.9691418558
 30
0.0
 40
0.7999999999999972
100
AcDbArc
 50
90.0
 51
180.0
  0
CIRCLE
  5
1C9
330
1F
100
AcDbEntity
  8
0
  6
Continuous
 62
     7
370
    25
100
AcDbCircle
 10
125.1971316795
 20
96.3191418558
 30
0.0
 40
1.62111388584448
  0
LINE
  5
1CA
330
1F
100
AcDbEntity
  8
0
  6
Continuous
 62
     7
370
    25
100
AcDbLine
 10
125.1971316795
 20
92.269141826
 30
0.0
 11
162.1971321563
 21
92.269141826
 31
0.0
  0
LINE
  5
1CB
330
1F
100
AcDbEntity
  8
0
  6
Continuous
 62
     7
370
    25
100
AcDbLine
 10
88.1971312026
 20
92.269141826
 30
0.0
 11
125.1971316795
 21
92.269141826
 31
0.0
  0
LINE
  5
1CC
330
1F
100
AcDbEntity
  8
0
  6
Continuous
 62
     7
370
    25
100
AcDbLine
 10
116.1971320669
 20
108.2091598242
 30
0.0
 11
134.1971312921
 21
108.2091598242
 31
0.0
  0
LINE
  5
1CD
330
1F
100
AcDbEntity
  8
0
  6
Continuous
 62
     7
370
    25
100
AcDbLine
 10
137.1971317838
 20
115.7255364984
 30
0.0
 11
113.1971315752
 21
115.7255364984
 31
0.0
  0
LINE
  5
1CE
330
1F
100
AcDbEntity
  8
0
  6
Continuous
 62
     7
370
    25
100
AcDbLine
 10
134.2125605131
 20
117.7255368262
 30
0.0
 11
137.1971317838
 21
117.7255368262
 31
0.0
  0
LINE
  5
1CF
330
1F
100
AcDbEntity
  8
0
  6
Continuous
 62
     7
370
    25
100
AcDbLine
 10
113.1971315752
 20
117.7255368262
 30
0.0
 11
134.2125605131
 21
117.7255368262
 31
0.0
  0
LINE
  5
1D0
330
1F
100
AcDbEntity
  8
アノテーション
 62
     7
100
AcDbLine
 10
114.7196316795
 20
43.8643888874
 30
0.0
 11
114.7196316795
 21
47.5536544659
 31
0.0
  0
INSERT
  5
1D1
330
1F
100
AcDbEntity
  8
アノテーション
100
AcDbBlockReference
  2
块17
 10
120.3915509448
 20
134.3833503548
 30
0.0
  0
INSERT
  5
1D7
330
1F
100
AcDbEntity
  8
アノテーション
 62
     7
100
AcDbBlockReference
  2
SW_NOTE_1
 10
175.4142496847
 20
83.2591423888
 30
0.0
  0
LEADER
  5
1D9
330
1F
100
AcDbEntity
  8
アノテーション
 62
     7
100
AcDbLeader
  3
SLDDIMSTYLE2
 76
     2
 10
165.8764065272
 20
94.6980818547
 30
0.0
 10
175.4142496847
 20
83.2591423888
 30
0.0
  0
LINE
  5
1DA
330
1F
100
AcDbEntity
  8
アノテーション
  6
CENTERX2
 62
     7
370
    18
100
AcDbLine
 10
125.1971316795
 20
119.1849109708
 30
0.0
 11
125.1971316795
 21
32.3820245015
 31
0.0
  0
LINE
  5
1DB
330
1F
100
AcDbEntity
  8
0
  6
Continuous
 62
     7
370
    25
100
AcDbLine
 10
308.002199223
 20
179.6370312554
 30
0.0
 11
309.1641992235
 21
180.7990312559
 31
0.0
  0
LINE
  5
1DC
330
1F
100
AcDbEntity
  8
0
  6
Continuous
 62
     7
370
    25
100
AcDbLine
 10
309.1641992235
 20
199.4300313277
 30
0.0
 11
308.002199223
 21
200.5920313281
 31
0.0
  0
LINE
  5
1DD
330
1F
100
AcDbEntity
  8
0
  6
Continuous
 62
     7
370
    25
100
AcDbLine
 10
294.1515549922
 20
179.6370312554
 30
0.0
 11
308.002199223
 21
179.6370312554
 31
0.0
  0
LINE
  5
1DE
330
1F
100
AcDbEntity
  8
0
  6
Continuous
 62
     7
370
    25
100
AcDbLine
 10
308.002199223
 20
200.5920313281
 30
0.0
 11
294.1515549922
 21
200.5920313281
 31
0.0
  0
LINE
  5
1DF
330
1F
100
AcDbEntity
  8
0
  6
Continuous
 62
     7
370
    25
100
AcDbLine
 10
293.1642003262
 20
179.6370312554
 30
0.0
 11
294.1515549922
 21
179.6370312554
 31
0.0
  0
LINE
  5
1E0
330
1F
100
AcDbEntity
  8
0
  6
Continuous
 62
     7
370
    25
100
AcDbLine
 10
294.1515549922
 20
200.5920313281
 30
0.0
 11
293.1642003262
 21
200.5920313281
 31
0.0
  0
LINE
  5
1E1
330
1F
100
AcDbEntity
  8
0
  6
Continuous
 62
     7
370
    25
100
AcDbLine
 10
253.6641985082
 20
157.7120941115
 30
0.0
 11
288.164197644
 21
159.1145317984
 31
0.0
  0
LINE
  5
1E2
330
1F
100
AcDbEntity
  8
0
  6
Continuous
 62
     7
370
    25
100
AcDbLine
 10
288.164197644
 20
221.1145307851
 30
0.0
 11
253.6641985082
 21
222.5169684721
 31
0.0
  0
LINE
  5
1E3
330
1F
100
AcDbEntity
  8
0
  6
Continuous
 62
     7
370
    25
100
AcDbLine
 10
253.1641984263
 20
153.1145308149
 30
0.0
 11
253.6641985082
 21
153.1145308149
 31
0.0
  0
LINE
  5
1E4
330
1F
100
AcDbEntity
  8
0
  6
Continuous
 62
     7
370
    25
100
AcDbLine
 10
253.6641985082
 20
227.1145317686
 30
0.0
 11
253.1641984263
 21
227.1145317686
 31
0.0
  0
LINE
  5
1E5
330
1F
100
AcDbEntity
  8
0
  6
Continuous
 62
     7
370
    25
100
AcDbLine
 10
237.72418051
 20
181.1145316792
 30
0.0
 11
238.1641987615
 21
180.6028341857
 31
0.0
  0
LINE
  5
1E6
330
1F
100
AcDbEntity
  8
0
  6
Continuous
 62
     7
370
    25
100
AcDbLine
 10
238.1641987615
 20
199.6262283978
 30
0.0
 11
237.72418051
 21
199.1145309044
 31
0.0
  0
ARC
  5
1E7
330
1F
100
AcDbEntity
  8
0
  6
Continuous
 62
     7
370
    25
100
AcDbCircle
 10
229.707804427
 20
178.1145312918
 30
0.0
 40
0.5
100
AcDbArc
 50
270.0
 51
0.0
  0
ARC
  5
1E8
330
1F
100
AcDbEntity
  8
0
  6
Continuous
 62
     7
370
    25
100
AcDbCircle
 10
229.707804427
 20
202.1145312918
 30
0.0
 40
0.5
100
AcDbArc
 50
0.0
 51
90.0
  0
LINE
  5
1E9
330
1F
100
AcDbEntity
  8
0
  6
Continuous
 62
     7
370
    25
100
AcDbLine
 10
228.7078045213
 20
177.6145311055
 30
0.0
 11
229.7078046852
 21
177.6145311055
 31
0.0
  0
LINE
  5
1EA
330
1F
100
AcDbEntity
  8
0
  6
Continuous
 62
     7
370
    25
100
AcDbLine
 10
229.7078046852
 20
202.614531478
 30
0.0
 11
228.7078045213
 21
202.614531478
 31
0.0
  0
ARC
  5
1EB
330
1F
100
AcDbEntity
  8
0
  6
Continuous
 62
     7
370
    25
100
AcDbCircle
 10
228.707804427
 20
202.1145312918
 30
0.0
 40
0.5
100
AcDbArc
 50
90.0
 51
180.0
  0
ARC
  5
1EC
330
1F
100
AcDbEntity
  8
0
  6
Continuous
 62
     7
370
    25
100
AcDbCircle
 10
228.707804427
 20
178.1145312918
 30
0.0
 40
0.5
100
AcDbArc
 50
180.0
 51
270.0
  0
ARC
  5
1ED
330
1F
100
AcDbEntity
  8
0
  6
Continuous
 62
     7
370
    25
100
AcDbCircle
 10
231.707804427
 20
179.6145312918
 30
0.0
 40
1.5
100
AcDbArc
 50
90.0
 51
180.0
  0
ARC
  5
1EE
330
1F
100
AcDbEntity
  8
0
  6
Continuous
 62
     7
370
    25
100
AcDbCircle
 10
231.707804427
 20
200.6145312918
 30
0.0
 40
1.5
100
AcDbArc
 50
180.0
 51
270.0
  0
LINE
  5
1EF
330
1F
100
AcDbEntity
  8
0
  6
Continuous
 62
     7
370
    25
100
AcDbLine
 10
231.707805013
 20
181.1145316792
 30
0.0
 11
237.72418051
 21
181.1145316792
 31
0.0
  0
LINE
  5
1F0
330
1F
100
AcDbEntity
  8
0
  6
Continuous
 62
     7
370
    25
100
AcDbLine
 10
237.72418051
 20
199.1145309044
 30
0.0
 11
231.707805013
 21
199.1145309044
 31
0.0
  0
LINE
  5
1F1
330
1F
100
AcDbEntity
  8
0
  6
Continuous
 62
     7
370
    25
100
AcDbLine
 10
309.1641992235
 20
180.7990312559
 30
0.0
 11
309.1641992235
 21
199.4300313277
 31
0.0
  0
LINE
  5
1F2
330
1F
100
AcDbEntity
  8
0
  6
Continuous
 62
     7
370
    25
100
AcDbLine
 10
308.002199223
 20
179.6370312554
 30
0.0
 11
308.002199223
 21
200.5920313281
 31
0.0
  0
LINE
  5
1F3
330
1F
100
AcDbEntity
  8
0
  6
Continuous
 62
     7
370
    25
100
AcDbLine
 10
294.1515549922
 20
179.6370312554
 30
0.0
 11
294.1515549922
 21
200.5920313281
 31
0.0
  0
SPLINE
  5
1F4
330
1F
100
AcDbEntity
  8
0
  6
Continuous
 62
     7
370
    25
100
AcDbSpline
210
0.0
220
0.0
230
1.0
 70
     8
 71
     3
 72
    10
 73
     6
 74
     0
 42
0.000000001
 43
0.00000001
 40
0.0
 40
0.0
 40
0.0
 40
0.0
 40
0.1720768391507108
 40
0.5836375379336035
 40
1.0
 40
1.0
 40
1.0
 40
1.0
 10
293.1642003261692
 20
183.1145310757183
 30
0.0
 10
293.1573420281424
 20
183.4773101266854
 30
0.0
 10
293.1340805584724
 20
184.7077573685414
 30
0.0
 10
292.8594792339803
 20
186.8106061276562
 30
0.0
 10
292.3899571459157
 20
188.5091058466309
 30
0.0
 10
292.153834542001
 20
189.3632811593325
 30
0.0
  0
LINE
  5
1F5
330
1F
100
AcDbEntity
  8
0
  6
Continuous
 62
     7
370
    25
100
AcDbLine
 10
292.153834542
 20
189.3632811593
 30
0.0
 11
292.153834542
 21
190.8657814242
 31
0.0
  0
SPLINE
  5
1F6
330
1F
100
AcDbEntity
  8
0
  6
Continuous
 62
     7
370
    25
100
AcDbSpline
210
0.0
220
0.0
230
1.0
 70
     8
 71
     3
 72
    11
 73
     7
 74
     0
 42
0.000000001
 43
0.00000001
 40
0.0
 40
0.0
 40
0.0
 40
0.0
 40
0.2476344853010985
 40
0.4960218752158277
 40
0.7473565176541644
 40
1.0
 40
1.0
 40
1.0
 40
1.0
 10
292.153834542001
 20
190.8657814242379
 30
0.0
 10
292.3002222599964
 20
191.3725417678083
 30
0.0
 10
292.5934427712688
 20
192.3876032023947
 30
0.0
 10
292.9095330917747
 20
193.9407751212838
 30
0.0
 10
293.1237074530373
 20
195.5184868635176
 30
0.0
 10
293.1506793529617
 20
196.5815963218565
 30
0.0
 10
293.1642003261692
 20
197.114531507852
 30
0.0
  0
LINE
  5
1F7
330
1F
100
AcDbEntity
  8
0
  6
Continuous
 62
     7
370
    25
100
AcDbLine
 10
293.1642003262
 20
197.1145315079
 30
0.0
 11
293.1642003262
 21
183.1145310757
 31
0.0
  0
LINE
  5
1F8
330
1F
100
AcDbEntity
  8
0
  6
Continuous
 62
     7
370
    25
100
AcDbLine
 10
289.1745615655
 20
190.8657814242
 30
0.0
 11
289.1745615655
 21
189.3632811593
 31
0.0
  0
LINE
  5
1F9
330
1F
100
AcDbEntity
  8
0
  6
Continuous
 62
     7
370
    25
100
AcDbLine
 10
292.153834542
 20
190.8657814242
 30
0.0
 11
289.1745615655
 21
190.8657814242
 31
0.0
  0
LINE
  5
1FA
330
1F
100
AcDbEntity
  8
0
  6
Continuous
 62
     7
370
    25
100
AcDbLine
 10
289.1745615655
 20
189.3632811593
 30
0.0
 11
292.153834542
 21
189.3632811593
 31
0.0
  0
SPLINE
  5
1FB
330
1F
100
AcDbEntity
  8
0
  6
Continuous
 62
     7
370
    25
100
AcDbSpline
210
0.0
220
0.0
230
1.0
 70
     8
 71
     3
 72
     9
 73
     5
 74
     0
 42
0.000000001
 43
0.00000001
 40
0.0
 40
0.0
 40
0.0
 40
0.0
 40
0.4960882357407013
 40
1.0
 40
1.0
 40
1.0
 40
1.0
 10
289.1745615654833
 20
189.3632811593325
 30
0.0
 10
288.8900207861042
 20
188.3442683378169
 30
0.0
 10
288.316451894767
 20
186.2901724167676
 30
0.0
 10
288.2152130758249
 20
184.1785848778449
 30
0.0
 10
288.1641976439602
 20
183.1145310757183
 30
0.0
  0
SPLINE
  5
1FC
330
1F
100
AcDbEntity
  8
0
  6
Continuous
 62
     7
370
    25
100
AcDbSpline
210
0.0
220
0.0
230
1.0
 70
     8
 71
     3
 72
    10
 73
     6
 74
     0
 42
0.000000001
 43
0.00000001
 40
0.0
 40
0.0
 40
0.0
 40
0.0
 40
0.1720768439795093
 40
0.5836375262496926
 40
0.9999999999999999
 40
0.9999999999999999
 40
0.9999999999999999
 40
0.9999999999999999
 10
288.1641976439602
 20
197.114531507852
 30
0.0
 10
288.1710559934937
 20
196.7517524618329
 30
0.0
 10
288.1943176367417
 20
195.52130529592
 30
0.0
 10
288.4689161958956
 20
193.4184563317318
 30
0.0
 10
288.9384387295023
 20
191.7199567146495
 30
0.0
 10
289.1745615654833
 20
190.8657814242379
 30
0.0
  0
SPLINE
  5
1FD
330
1F
100
AcDbEntity
  8
0
  6
Continuous
 62
     7
370
    25
100
AcDbSpline
210
0.0
220
0.0
230
1.0
 70
     8
 71
     3
 72
     9
 73
     5
 74
     0
 42
0.000000001
 43
0.00000001
 40
0.0
 40
0.0
 40
0.0
 40
0.0
 40
0.4960882501747017
 40
1.0
 40
1.0
 40
1.0
 40
1.0
 10
289.1745615654833
 20
203.3632813004278
 30
0.0
 10
288.8900207862598
 20
202.3442686150599
 30
0.0
 10
288.3164519119246
 20
200.290173028218
 30
0.0
 10
288.2152130806022
 20
198.1785853497955
 30
0.0
 10
288.1641976439602
 20
197.114531507852
 30
0.0
  0
LINE
  5
1FE
330
1F
100
AcDbEntity
  8
0
  6
Continuous
 62
     7
370
    25
100
AcDbLine
 10
289.1745615655
 20
203.3632813004
 30
0.0
 11
292.153834542
 21
203.3632813004
 31
0.0
  0
SPLINE
  5
1FF
330
1F
100
AcDbEntity
  8
0
  6
Continuous
 62
     7
370
    25
100
AcDbSpline
210
0.0
220
0.0
230
1.0
 70
     8
 71
     3
 72
    10
 73
     6
 74
     0
 42
0.000000001
 43
0.00000001
 40
0.0
 40
0.0
 40
0.0
 40
0.0
 40
0.1720767792514415
 40
0.583637466785898
 40
0.9999999999999999
 40
0.9999999999999999
 40
0.9999999999999999
 40
0.9999999999999999
 10
293.1642003261692
 20
197.114531507852
 30
0.0
 10
293.1573420262898
 20
197.4773103954348
 30
0.0
 10
293.1340805450749
 20
198.7077573614537
 30
0.0
 10
292.8594791706752
 20
200.8106063845974
 30
0.0
 10
292.3899571402129
 20
202.5091059704906
 30
0.0
 10
292.153834542001
 20
203.3632813004278
 30
0.0
  0
SPLINE
  5
200
330
1F
100
AcDbEntity
  8
0
  6
Continuous
 62
     7
370
    25
100
AcDbSpline
210
0.0
220
0.0
230
1.0
 70
     8
 71
     3
 72
    10
 73
     6
 74
     0
 42
0.000000001
 43
0.00000001
 40
0.0
 40
0.0
 40
0.0
 40
0.0
 40
0.1720767840802383
 40
0.5836374551019855
 40
1.0
 40
1.0
 40
1.0
 40
1.0
 10
288.1641976439602
 20
183.1145310757183
 30
0.0
 10
288.1710559953463
 20
182.7517521930835
 30
0.0
 10
288.1943176501391
 20
181.5213053030077
 30
0.0
 10
288.4689162592004
 20
179.4184560747906
 30
0.0
 10
288.938438735205
 20
177.7199565907898
 30
0.0
 10
289.1745615654833
 20
176.8657812831425
 30
0.0
  0
SPLINE
  5
201
330
1F
100
AcDbEntity
  8
0
  6
Continuous
 62
     7
370
    25
100
AcDbSpline
210
0.0
220
0.0
230
1.0
 70
     8
 71
     3
 72
    11
 73
     7
 74
     0
 42
0.000000001
 43
0.00000001
 40
0.0
 40
0.0
 40
0.0
 40
0.0
 40
0.2476345605570122
 40
0.4960218892092488
 40
0.747356516158484
 40
1.0
 40
1.0
 40
1.0
 40
1.0
 10
292.153834542001
 20
176.8657812831425
 30
0.0
 10
292.3002222441777
 20
177.3725416870283
 30
0.0
 10
292.5934426429272
 20
178.3876029625889
 30
0.0
 10
292.9095331405346
 20
179.9407745436126
 30
0.0
 10
293.1237074490672
 20
181.5184872543863
 30
0.0
 10
293.1506793513327
 20
182.5815961525736
 30
0.0
 10
293.1642003261692
 20
183.1145310757183
 30
0.0
  0
LINE
  5
202
330
1F
100
AcDbEntity
  8
0
  6
Continuous
 62
     7
370
    25
100
AcDbLine
 10
292.153834542
 20
176.8657812831
 30
0.0
 11
289.1745615655
 21
176.8657812831
 31
0.0
  0
SPLINE
  5
203
330
1F
100
AcDbEntity
  8
0
  6
Continuous
 62
     7
370
    25
100
AcDbSpline
210
0.0
220
0.0
230
1.0
 70
    24
 71
     3
 72
    10
 73
     6
 74
     0
 42
0.000000001
 43
0.00000001
 40
0.0
 40
0.0
 40
0.0
 40
0.0
 40
0.3142241649307888
 40
0.6301065472400643
 40
1.0
 40
1.0
 40
1.0
 40
1.0
 10
292.153834542001
 20
204.1145317239188
 30
0.0
 10
292.3357892975115
 20
204.1145317239188
 30
0.0
 10
292.700659016471
 20
204.1145317239188
 30
0.0
 10
293.0793715547006
 20
204.1145317239188
 30
0.0
 10
293.1344773745463
 20
204.1145317239188
 30
0.0
 10
293.1642003261692
 20
204.1145317239188
 30
0.0
  0
LINE
  5
204
330
1F
100
AcDbEntity
  8
0
  6
Continuous
 62
     7
370
    25
100
AcDbLine
 10
292.153834542
 20
203.3632813004
 30
0.0
 11
292.153834542
 21
204.1145317239
 31
0.0
  0
LINE
  5
205
330
1F
100
AcDbEntity
  8
0
  6
Continuous
 62
     7
370
    25
100
AcDbLine
 10
293.1642003262
 20
204.1145317239
 30
0.0
 11
293.1642003262
 21
197.1145315079
 31
0.0
  0
SPLINE
  5
206
330
1F
100
AcDbEntity
  8
0
  6
Continuous
 62
     7
370
    25
100
AcDbSpline
210
0.0
220
0.0
230
1.0
 70
    24
 71
     3
 72
    10
 73
     6
 74
     0
 42
0.000000001
 43
0.00000001
 40
0.0
 40
0.0
 40
0.0
 40
0.0
 40
0.3690807686686003
 40
0.683593392212241
 40
0.9999999999999999
 40
0.9999999999999999
 40
0.9999999999999999
 40
0.9999999999999999
 10
288.1641976439602
 20
204.1145317239188
 30
0.0
 10
288.1937877037402
 20
204.1145317239188
 30
0.0
 10
288.2485929687604
 20
204.1145317239188
 30
0.0
 10
288.6262412109339
 20
204.1145317239188
 30
0.0
 10
288.991422695836
 20
204.1145317239188
 30
0.0
 10
289.1745615654833
 20
204.1145317239188
 30
0.0
  0
LINE
  5
207
330
1F
100
AcDbEntity
  8
0
  6
Continuous
 62
     7
370
    25
100
AcDbLine
 10
289.1745615655
 20
204.1145317239
 30
0.0
 11
289.1745615655
 21
203.3632813004
 31
0.0
  0
SPLINE
  5
208
330
1F
100
AcDbEntity
  8
0
  6
Continuous
 62
     7
370
    25
100
AcDbSpline
210
0.0
220
0.0
230
1.0
 70
    24
 71
     3
 72
    10
 73
     6
 74
     0
 42
0.000000001
 43
0.00000001
 40
0.0
 40
0.0
 40
0.0
 40
0.0
 40
0.3146268598746046
 40
0.6309191066903198
 40
0.9999999999999999
 40
0.9999999999999999
 40
0.9999999999999999
 40
0.9999999999999999
 10
289.1745615654833
 20
176.1145308596515
 30
0.0
 10
288.9923894214816
 20
176.1145308596515
 30
0.0
 10
288.6270808575425
 20
176.1145308596515
 30
0.0
 10
288.2487588091083
 20
176.1145308596515
 30
0.0
 10
288.1937958145609
 20
176.1145308596515
 30
0.0
 10
288.1641976439602
 20
176.1145308596515
 30
0.0
  0
LINE
  5
209
330
1F
100
AcDbEntity
  8
0
  6
Continuous
 62
     7
370
    25
100
AcDbLine
 10
289.1745615655
 20
176.8657812831
 30
0.0
 11
289.1745615655
 21
176.1145308597
 31
0.0
  0
SPLINE
  5
20A
330
1F
100
AcDbEntity
  8
0
  6
Continuous
 62
     7
370
    25
100
AcDbSpline
210
0.0
220
0.0
230
1.0
 70
    24
 71
     3
 72
    10
 73
     6
 74
     0
 42
0.000000001
 43
0.00000001
 40
0.0
 40
0.0
 40
0.0
 40
0.0
 40
0.3698933281034361
 40
0.684003830222532
 40
1.0
 40
1.0
 40
1.0
 40
1.0
 10
293.1642003261692
 20
176.1145308596515
 30
0.0
 10
293.1344854673997
 20
176.1145308596515
 30
0.0
 10
293.079536984503
 20
176.1145308596515
 30
0.0
 10
292.7014956600934
 20
176.1145308596515
 30
0.0
 10
292.3367520939101
 20
176.1145308596515
 30
0.0
 10
292.153834542001
 20
176.1145308596515
 30
0.0
  0
LINE
  5
20B
330
1F
100
AcDbEntity
  8
0
  6
Continuous
 62
     7
370
    25
100
AcDbLine
 10
292.153834542
 20
176.1145308597
 30
0.0
 11
292.153834542
 21
176.8657812831
 31
0.0
  0
LINE
  5
20C
330
1F
100
AcDbEntity
  8
0
  6
Continuous
 62
     7
370
    25
100
AcDbLine
 10
293.1642003262
 20
183.1145310757
 30
0.0
 11
293.1642003262
 21
176.1145308597
 31
0.0
  0
LINE
  5
20D
330
1F
100
AcDbEntity
  8
0
  6
Continuous
 62
     7
370
    25
100
AcDbLine
 10
292.153834542
 20
204.1145317239
 30
0.0
 11
289.1745615655
 21
204.1145317239
 31
0.0
  0
LINE
  5
20E
330
1F
100
AcDbEntity
  8
0
  6
Continuous
 62
     7
370
    25
100
AcDbLine
 10
289.1745615655
 20
176.1145308597
 30
0.0
 11
292.153834542
 21
176.1145308597
 31
0.0
  0
LINE
  5
20F
330
1F
100
AcDbEntity
  8
0
  6
Continuous
 62
     7
370
    25
100
AcDbLine
 10
288.164197644
 20
221.1145307851
 30
0.0
 11
288.164197644
 21
159.1145317984
 31
0.0
  0
LINE
  5
210
330
1F
100
AcDbEntity
  8
0
  6
Continuous
 62
     7
370
    25
100
AcDbLine
 10
238.9641992652
 20
240.1145320368
 30
0.0
 11
253.1641984263
 21
240.1145320368
 31
0.0
  0
LINE
  5
211
330
1F
100
AcDbEntity
  8
0
  6
Continuous
 62
     7
370
    25
100
AcDbLine
 10
253.1641984263
 20
240.1145320368
 30
0.0
 11
253.1641984263
 21
239.3145296705
 31
0.0
  0
LINE
  5
212
330
1F
100
AcDbEntity
  8
0
  6
Continuous
 62
     7
370
    25
100
AcDbLine
 10
253.1641984263
 20
239.3145296705
 30
0.0
 11
253.1641984263
 21
140.914532913
 31
0.0
  0
ARC
  5
213
330
1F
100
AcDbEntity
  8
0
  6
Continuous
 62
     7
370
    25
100
AcDbCircle
 10
238.9641984784
 20
239.3145312918
 30
0.0
 40
0.8000000000000398
100
AcDbArc
 50
90.0
 51
180.0
  0
LINE
  5
214
330
1F
100
AcDbEntity
  8
0
  6
Continuous
 62
     7
370
    25
100
AcDbLine
 10
238.1641987615
 20
140.914532913
 30
0.0
 11
238.1641987615
 21
239.3145296705
 31
0.0
  0
LINE
  5
215
330
1F
100
AcDbEntity
  8
0
  6
Continuous
 62
     7
370
    25
100
AcDbLine
 10
253.1641984263
 20
140.1145305467
 30
0.0
 11
238.9641992652
 21
140.1145305467
 31
0.0
  0
LINE
  5
216
330
1F
100
AcDbEntity
  8
0
  6
Continuous
 62
     7
370
    25
100
AcDbLine
 10
253.1641984263
 20
140.914532913
 30
0.0
 11
253.1641984263
 21
140.1145305467
 31
0.0
  0
ARC
  5
217
330
1F
100
AcDbEntity
  8
0
  6
Continuous
 62
     7
370
    25
100
AcDbCircle
 10
238.9641984784
 20
140.9145312918
 30
0.0
 40
0.799999999999983
100
AcDbArc
 50
180.0
 51
270.0
  0
LINE
  5
218
330
1F
100
AcDbEntity
  8
0
  6
Continuous
 62
     7
370
    25
100
AcDbLine
 10
253.6641985082
 20
153.1145308149
 30
0.0
 11
253.6641985082
 21
227.1145317686
 31
0.0
  0
LINE
  5
219
330
1F
100
AcDbEntity
  8
0
  6
Continuous
 62
     7
370
    25
100
AcDbLine
 10
237.72418051
 20
181.1145316792
 30
0.0
 11
237.72418051
 21
199.1145309044
 31
0.0
  0
LINE
  5
21A
330
1F
100
AcDbEntity
  8
0
  6
Continuous
 62
     7
370
    25
100
AcDbLine
 10
230.2078038358
 20
202.1145313961
 30
0.0
 11
230.2078038358
 21
178.1145311875
 31
0.0
  0
LINE
  5
21B
330
1F
100
AcDbEntity
  8
0
  6
Continuous
 62
     7
370
    25
100
AcDbLine
 10
228.207803508
 20
182.1948071924
 30
0.0
 11
228.207803508
 21
202.1145313961
 31
0.0
  0
LINE
  5
21C
330
1F
100
AcDbEntity
  8
0
  6
Continuous
 62
     7
370
    25
100
AcDbLine
 10
228.207803508
 20
178.1145311875
 30
0.0
 11
228.207803508
 21
182.1948071924
 31
0.0
  0
LINE
  5
21D
330
1F
100
AcDbEntity
  8
アノテーション
 62
     7
100
AcDbLine
 10
253.1641984784
 20
148.3326456369
 30
0.0
 11
253.1641984784
 21
136.1926004199
 31
0.0
  0
LINE
  5
21E
330
1F
100
AcDbEntity
  8
アノテーション
 62
     7
100
AcDbLine
 10
253.1641984784
 20
134.7841254232
 30
0.0
 11
253.1641984784
 21
133.1322938035
 31
0.0
  0
LINE
  5
21F
330
1F
100
AcDbEntity
  8
アノテーション
 62
     7
100
AcDbLine
 10
253.1641984784
 20
131.9064927171
 30
0.0
 11
253.1641984784
 21
127.0755778643
 31
0.0
  0
DIMENSION
  5
220
330
1F
100
AcDbEntity
  8
アノテーション
 62
     7
100
AcDbDimension
  2
_D_2
 10
238.1641984784
 20
249.8820165229
 30
0.0
 11
245.4988764268
 21
249.8820165229
 31
0.0
 70
   160
  1
<>
 71
     2
 42
-1.0
  3
SLDDIMSTYLE0
100
AcDbAlignedDimension
 13
253.1641984784
 23
240.1145312918
 33
0.0
 14
238.1641984784
 24
239.3145312918
 34
0.0
100
AcDbRotatedDimension
  0
DIMENSION
  5
22A
330
1F
100
AcDbEntity
  8
アノテーション
 62
     7
100
AcDbDimension
  2
_D_3
 10
238.1641984784
 20
249.8820165229
 30
0.0
 11
232.9371810214
 21
249.8820165229
 31
0.0
 70
   160
  1
<>
 71
     2
 42
-1.0
  3
SLDDIMSTYLE3
100
AcDbAlignedDimension
 13
228.207804427
 23
202.1145312918
 33
0.0
 14
238.1641984784
 24
239.3145312918
 34
0.0
100
AcDbRotatedDimension
  0
DIMENSION
  5
235
330
1F
100
AcDbEntity
  8
アノテーション
 62
     7
100
AcDbDimension
  2
_D_4
 10
293.1641984784
 20
249.8820165229
 30
0.0
 11
272.0310877724
 21
249.8820165229
 31
0.0
 70
   160
  1
<>
 71
     2
 42
-1.0
  3
SLDDIMSTYLE0
100
AcDbAlignedDimension
 13
253.1641984784
 23
240.1145312918
 33
0.0
 14
293.1641984784
 24
204.1145312918
 34
0.0
100
AcDbRotatedDimension
  0
DIMENSION
  5
23F
330
1F
100
AcDbEntity
  8
アノテーション
 62
     7
100
AcDbDimension
  2
_D_5
 10
323.3754641657
 20
179.6370312918
 30
0.0
 11
323.3754641657
 21
190.2757402746
 31
0.0
 70
   160
  1
<>
 71
     2
 42
-1.0
  3
SLDDIMSTYLE4
100
AcDbAlignedDimension
 13
308.0021984784
 23
200.5920312918
 33
0.0
 14
308.0021984784
 24
179.6370312918
 34
0.0
 50
90.0
100
AcDbRotatedDimension
  0
DIMENSION
  5
24A
330
1F
100
AcDbEntity
  8
アノテーション
 62
     7
100
AcDbDimension
  2
_D_6
 10
293.1641984784
 20
249.8820165229
 30
0.0
 11
301.0720098477
 21
249.8820165229
 31
0.0
 70
   160
  1
<>
 71
     2
 42
-1.0
  3
SLDDIMSTYLE0
100
AcDbAlignedDimension
 13
309.1641984784
 23
199.4300312918
 33
0.0
 14
293.1641984784
 24
204.1145312918
 34
0.0
100
AcDbRotatedDimension
  0
DIMENSION
  5
254
330
1F
100
AcDbEntity
  8
アノテーション
 62
     7
100
AcDbDimension
  2
_D_7
 10
218.207804427
 20
202.6145312918
 30
0.0
 11
218.207804427
 21
190.2757402746
 31
0.0
 70
   160
  1
%%c<>
 71
     2
 42
-1.0
  3
SLDDIMSTYLE0
100
AcDbAlignedDimension
 13
229.707804427
 23
177.6145312918
 33
0.0
 14
229.707804427
 24
202.6145312918
 34
0.0
 50
90.0
100
AcDbRotatedDimension
  0
DIMENSION
  5
25F
330
1F
100
AcDbEntity
  8
アノテーション
 62
     7
100
AcDbDimension
  2
_D_8
 10
234.9738114018
 20
181.1145312918
 30
0.0
 11
234.9738114018
 21
190.1472775067
 31
0.0
 70
   160
  1
%%c<>
 71
     2
 42
-1.0
  3
SLDDIMSTYLE0
100
AcDbAlignedDimension
 13
237.7241802528
 23
199.1145312918
 33
0.0
 14
237.7241802528
 24
181.1145312918
 34
0.0
 50
90.0
100
AcDbRotatedDimension
  0
DIMENSION
  5
268
330
1F
100
AcDbEntity
  8
アノテーション
 62
     7
100
AcDbDimension
  2
_D_9
 10
228.207804427
 20
209.2092200659
 30
0.0
 11
235.6134739038
 21
209.2092200659
 31
0.0
 70
   160
  1
<>
 71
     2
 42
-1.0
  3
SLDDIMSTYLE3
100
AcDbAlignedDimension
 13
230.207804427
 23
202.1145312918
 33
0.0
 14
228.207804427
 24
202.1145312918
 34
0.0
100
AcDbRotatedDimension
  0
DIMENSION
  5
274
330
1F
100
AcDbEntity
  8
アノテーション
 62
     7
100
AcDbDimension
  2
_D_10
 10
293.1641984784
 20
231.8938557626
 30
0.0
 11
282.3488743749
 21
231.8938557626
 31
0.0
 70
   160
  1
<>
 71
     2
 42
-1.0
  3
SLDDIMSTYLE3
100
AcDbAlignedDimension
 13
288.1641984784
 23
221.1145312918
 33
0.0
 14
293.1641984784
 24
204.1145312918
 34
0.0
100
AcDbRotatedDimension
  0
MTEXT
  5
280
330
1F
100
AcDbEntity
  8
アノテーション
 62
     7
100
AcDbMText
 10
253.7373061918
 20
130.0011840613
 30
0.0
 40
2.6458333333
 41
0.0
 71
     1
 72
     1
  1
\M+18AAE\M+190AC墙\M+196CA
  7
SLDTEXTSTYLE2
 73
     1
 44
1.0
  0
LINE
  5
281
330
1F
100
AcDbEntity
  8
アノテーション
  6
CENTERX2
 62
     7
370
    18
100
AcDbLine
 10
222.4537560275
 20
190.1145312918
 30
0.0
 11
317.0475140487
 21
190.1145312918
 31
0.0
  0
ENDSEC
  0
SECTION
  2
OBJECTS
  0
DICTIONARY
  5
C
330
0
100
AcDbDictionary
281
     1
  3
ACAD_GROUP
350
D
  3
ACAD_LAYOUT
350
1A
  3
ACAD_MLINESTYLE
350
17
  3
ACAD_PLOTSETTINGS
350
19
  3
ACAD_PLOTSTYLENAME
350
E
  3
ACAD_SCALELIST
350
47
  0
DICTIONARY
  5
D
102
{ACAD_REACTORS
330
C
102
}
330
C
100
AcDbDictionary
281
     1
  0
DICTIONARY
  5
1A
102
{ACAD_REACTORS
330
C
102
}
330
C
100
AcDbDictionary
281
     1
  3
Layout1
350
1E
  3
Layout2
350
26
  3
Model
350
22
  0
DICTIONARY
  5
17
102
{ACAD_REACTORS
330
C
102
}
330
C
100
AcDbDictionary
281
     1
  3
Standard
350
18
  0
DICTIONARY
  5
19
102
{ACAD_REACTORS
330
C
102
}
330
C
100
AcDbDictionary
281
     1
  0
ACDBDICTIONARYWDFLT
  5
E
102
{ACAD_REACTORS
330
C
102
}
330
C
100
AcDbDictionary
281
     1
  3
Normal
350
F
100
AcDbDictionaryWithDefault
340
F
  0
DICTIONARY
  5
47
102
{ACAD_REACTORS
330
C
102
}
330
C
100
AcDbDictionary
281
     1
  3
A0
350
48
  3
A1
350
49
  3
A2
350
4A
  3
A3
350
4B
  3
A4
350
4C
  3
A5
350
4D
  3
A6
350
4E
  3
A7
350
4F
  3
A8
350
50
  3
A9
350
51
  3
B0
350
52
  3
B1
350
53
  3
B2
350
54
  3
B3
350
55
  3
B4
350
56
  3
B5
350
57
  3
B6
350
58
  3
B7
350
59
  3
B8
350
5A
  3
B9
350
5B
  3
C0
350
5C
  3
C1
350
5D
  3
C2
350
5E
  3
C3
350
5F
  3
C4
350
60
  3
C5
350
61
  3
C6
350
62
  3
C7
350
63
  3
C8
350
64
  3
C9
350
65
  3
D0
350
66
  3
D1
350
67
  3
D2
350
68
  0
LAYOUT
  5
1E
102
{ACAD_REACTORS
330
1A
102
}
330
1A
100
AcDbPlotSettings
  1

  2
none_device
  4

  6

 40
0.0
 41
0.0
 42
0.0
 43
0.0
 44
0.0
 45
0.0
 46
0.0
 47
0.0
 48
0.0
 49
0.0
140
0.0
141
0.0
142
1.0
143
1.0
 70
   688
 72
     1
 73
     0
 74
     5
  7

 75
    16
147
1.0
148
0.0
149
0.0
100
AcDbLayout
  1
Layout1
 70
     1
 71
     1
 10
0.0
 20
0.0
 11
420.0
 21
297.0
 12
0.0
 22
0.0
 32
0.0
 14
1.0000000000E+20
 24
1.0000000000E+20
 34
1.0000000000E+20
 15
-1.0000000000E+20
 25
-1.0000000000E+20
 35
-1.0000000000E+20
146
0.0
 13
0.0
 23
0.0
 33
0.0
 16
1.0
 26
0.0
 36
0.0
 17
0.0
 27
1.0
 37
0.0
 76
     0
330
1B
  0
LAYOUT
  5
26
102
{ACAD_REACTORS
330
1A
102
}
330
1A
100
AcDbPlotSettings
  1

  2
none_device
  4

  6

 40
0.0
 41
0.0
 42
0.0
 43
0.0
 44
0.0
 45
0.0
 46
0.0
 47
0.0
 48
0.0
 49
0.0
140
0.0
141
0.0
142
1.0
143
1.0
 70
   688
 72
     1
 73
     0
 74
     5
  7

 75
    16
147
1.0
148
0.0
149
0.0
100
AcDbLayout
  1
Layout2
 70
     1
 71
     2
 10
0.0
 20
0.0
 11
0.0
 21
0.0
 12
0.0
 22
0.0
 32
0.0
 14
0.0
 24
0.0
 34
0.0
 15
0.0
 25
0.0
 35
0.0
146
0.0
 13
0.0
 23
0.0
 33
0.0
 16
1.0
 26
0.0
 36
0.0
 17
0.0
 27
1.0
 37
0.0
 76
     0
330
23
  0
LAYOUT
  5
22
102
{ACAD_REACTORS
330
1A
102
}
330
1A
100
AcDbPlotSettings
  1

  2
none_device
  4
Letter_(8.50_x_11.00_Inches)
  6

 40
6.35
 41
6.35
 42
6.35000508
 43
6.35000508
 44
215.9
 45
279.4
 46
0.0
 47
0.0
 48
0.0
 49
0.0
140
0.0
141
0.0
142
1.0
143
1.0
 70
  1712
 72
     1
 73
     0
 74
     0
  7

 75
     0
147
1.0
148
0.0
149
0.0
100
AcDbLayout
  1
Model
 70
     1
 71
     0
 10
0.0
 20
0.0
 11
420.0
 21
297.0
 12
0.0
 22
0.0
 32
0.0
 14
0.0
 24
0.0
 34
0.0
 15
420.0
 25
297.0
 35
0.0
146
0.0
 13
0.0
 23
0.0
 33
0.0
 16
1.0
 26
0.0
 36
0.0
 17
0.0
 27
1.0
 37
0.0
 76
     0
330
1F
331
29
  0
MLINESTYLE
  5
18
102
{ACAD_REACTORS
330
17
102
}
330
17
100
AcDbMlineStyle
  2
Standard
 70
     0
  3

 62
   256
 51
90.0
 52
90.0
 71
     2
 49
0.5
 62
   256
  6
BYLAYER
 49
-0.5
 62
   256
  6
BYLAYER
  0
ACDBPLACEHOLDER
  5
F
102
{ACAD_REACTORS
330
E
102
}
330
E
  0
SCALE
  5
48
102
{ACAD_REACTORS
330
47
102
}
330
47
100
AcDbScale
 70
     0
300
1:1
140
1.0
141
1.0
290
     1
  0
SCALE
  5
49
102
{ACAD_REACTORS
330
47
102
}
330
47
100
AcDbScale
 70
     0
300
1:2
140
1.0
141
2.0
290
     0
  0
SCALE
  5
4A
102
{ACAD_REACTORS
330
47
102
}
330
47
100
AcDbScale
 70
     0
300
1:4
140
1.0
141
4.0
290
     0
  0
SCALE
  5
4B
102
{ACAD_REACTORS
330
47
102
}
330
47
100
AcDbScale
 70
     0
300
1:5
140
1.0
141
5.0
290
     0
  0
SCALE
  5
4C
102
{ACAD_REACTORS
330
47
102
}
330
47
100
AcDbScale
 70
     0
300
1:8
140
1.0
141
8.0
290
     0
  0
SCALE
  5
4D
102
{ACAD_REACTORS
330
47
102
}
330
47
100
AcDbScale
 70
     0
300
1:10
140
1.0
141
10.0
290
     0
  0
SCALE
  5
4E
102
{ACAD_REACTORS
330
47
102
}
330
47
100
AcDbScale
 70
     0
300
1:16
140
1.0
141
16.0
290
     0
  0
SCALE
  5
4F
102
{ACAD_REACTORS
330
47
102
}
330
47
100
AcDbScale
 70
     0
300
1:20
140
1.0
141
20.0
290
     0
  0
SCALE
  5
50
102
{ACAD_REACTORS
330
47
102
}
330
47
100
AcDbScale
 70
     0
300
1:30
140
1.0
141
30.0
290
     0
  0
SCALE
  5
51
102
{ACAD_REACTORS
330
47
102
}
330
47
100
AcDbScale
 70
     0
300
1:40
140
1.0
141
40.0
290
     0
  0
SCALE
  5
52
102
{ACAD_REACTORS
330
47
102
}
330
47
100
AcDbScale
 70
     0
300
1:50
140
1.0
141
50.0
290
     0
  0
SCALE
  5
53
102
{ACAD_REACTORS
330
47
102
}
330
47
100
AcDbScale
 70
     0
300
1:100
140
1.0
141
100.0
290
     0
  0
SCALE
  5
54
102
{ACAD_REACTORS
330
47
102
}
330
47
100
AcDbScale
 70
     0
300
2:1
140
2.0
141
1.0
290
     0
  0
SCALE
  5
55
102
{ACAD_REACTORS
330
47
102
}
330
47
100
AcDbScale
 70
     0
300
4:1
140
4.0
141
1.0
290
     0
  0
SCALE
  5
56
102
{ACAD_REACTORS
330
47
102
}
330
47
100
AcDbScale
 70
     0
300
8:1
140
8.0
141
1.0
290
     0
  0
SCALE
  5
57
102
{ACAD_REACTORS
330
47
102
}
330
47
100
AcDbScale
 70
     0
300
10:1
140
10.0
141
1.0
290
     0
  0
SCALE
  5
58
102
{ACAD_REACTORS
330
47
102
}
330
47
100
AcDbScale
 70
     0
300
100:1
140
100.0
141
1.0
290
     0
  0
SCALE
  5
59
102
{ACAD_REACTORS
330
47
102
}
330
47
100
AcDbScale
 70
     0
300
1/128" = 1'-0"
140
0.0078125
141
12.0
290
     0
  0
SCALE
  5
5A
102
{ACAD_REACTORS
330
47
102
}
330
47
100
AcDbScale
 70
     0
300
1/64" = 1'-0"
140
0.015625
141
12.0
290
     0
  0
SCALE
  5
5B
102
{ACAD_REACTORS
330
47
102
}
330
47
100
AcDbScale
 70
     0
300
1/32" = 1'-0"
140
0.03125
141
12.0
290
     0
  0
SCALE
  5
5C
102
{ACAD_REACTORS
330
47
102
}
330
47
100
AcDbScale
 70
     0
300
1/16" = 1'-0"
140
0.0625
141
12.0
290
     0
  0
SCALE
  5
5D
102
{ACAD_REACTORS
330
47
102
}
330
47
100
AcDbScale
 70
     0
300
3/32" = 1'-0"
140
0.09375
141
12.0
290
     0
  0
SCALE
  5
5E
102
{ACAD_REACTORS
330
47
102
}
330
47
100
AcDbScale
 70
     0
300
1/8" = 1'-0"
140
0.125
141
12.0
290
     0
  0
SCALE
  5
5F
102
{ACAD_REACTORS
330
47
102
}
330
47
100
AcDbScale
 70
     0
300
3/16" = 1'-0"
140
0.1875
141
12.0
290
     0
  0
SCALE
  5
60
102
{ACAD_REACTORS
330
47
102
}
330
47
100
AcDbScale
 70
     0
300
1/4" = 1'-0"
140
0.25
141
12.0
290
     0
  0
SCALE
  5
61
102
{ACAD_REACTORS
330
47
102
}
330
47
100
AcDbScale
 70
     0
300
3/8" = 1'-0"
140
0.375
141
12.0
290
     0
  0
SCALE
  5
62
102
{ACAD_REACTORS
330
47
102
}
330
47
100
AcDbScale
 70
     0
300
1/2" = 1'-0"
140
0.5
141
12.0
290
     0
  0
SCALE
  5
63
102
{ACAD_REACTORS
330
47
102
}
330
47
100
AcDbScale
 70
     0
300
3/4" = 1'-0"
140
0.75
141
12.0
290
     0
  0
SCALE
  5
64
102
{ACAD_REACTORS
330
47
102
}
330
47
100
AcDbScale
 70
     0
300
1" = 1'-0"
140
1.0
141
12.0
290
     0
  0
SCALE
  5
65
102
{ACAD_REACTORS
330
47
102
}
330
47
100
AcDbScale
 70
     0
300
1-1/2" = 1'-0"
140
1.5
141
12.0
290
     0
  0
SCALE
  5
66
102
{ACAD_REACTORS
330
47
102
}
330
47
100
AcDbScale
 70
     0
300
3" = 1'-0"
140
3.0
141
12.0
290
     0
  0
SCALE
  5
67
102
{ACAD_REACTORS
330
47
102
}
330
47
100
AcDbScale
 70
     0
300
6" = 1'-0"
140
6.0
141
12.0
290
     0
  0
SCALE
  5
68
102
{ACAD_REACTORS
330
47
102
}
330
47
100
AcDbScale
 70
     0
300
1'-0" = 1'-0"
140
12.0
141
12.0
290
     0
  0
ENDSEC
  0
EOF
