  0
SECTION
  2
HEADER
  9
$ACADVER
  1
AC1015
  9
$ACADMAINTVER
 70
     6
  9
$DWGCODEPAGE
  3
DOS932
  9
$INSBASE
 10
0.0
 20
0.0
 30
0.0
  9
$EXTMIN
 10
0.0
 20
0.0
 30
0.0
  9
$EXTMAX
 10
420.0
 20
297.0
 30
0.0
  9
$LIMMIN
 10
0.0
 20
0.0
  9
$LIMMAX
 10
420.0
 20
297.0
  9
$ORTHOMODE
 70
     0
  9
$REGENMODE
 70
     1
  9
$FILLMODE
 70
     1
  9
$QTEXTMODE
 70
     0
  9
$MIRRTEXT
 70
     1
  9
$LTSCALE
 40
1.0
  9
$ATTMODE
 70
     1
  9
$TEXTSIZE
 40
2.8222222222
  9
$TRACEWID
 40
1.0
  9
$TEXTSTYLE
  7
Standard
  9
$CLAYER
  8
0
  9
$CELTYPE
  6
ByLayer
  9
$CECOLOR
 62
   256
  9
$CELTSCALE
 40
1.0
  9
$DISPSILH
 70
     0
  9
$DIMSCALE
 40
1.0
  9
$DIMASZ
 40
2.5
  9
$DIMEXO
 40
0.0
  9
$DIMDLI
 40
3.75
  9
$DIMRND
 40
0.0
  9
$DIMDLE
 40
0.0
  9
$DIMEXE
 40
1.0
  9
$DIMTP
 40
0.0
  9
$DIMTM
 40
0.0
  9
$DIMTXT
 40
2.8222222222
  9
$DIMCEN
 40
2.5
  9
$DIMTSZ
 40
0.0
  9
$DIMTOL
 70
     0
  9
$DIMLIM
 70
     0
  9
$DIMTIH
 70
     1
  9
$DIMTOH
 70
     1
  9
$DIMSE1
 70
     0
  9
$DIMSE2
 70
     0
  9
$DIMTAD
 70
     1
  9
$DIMZIN
 70
     0
  9
$DIMBLK
  1

  9
$DIMASO
 70
     1
  9
$DIMSHO
 70
     1
  9
$DIMPOST
  1

  9
$DIMAPOST
  1

  9
$DIMALT
 70
     0
  9
$DIMALTD
 70
     3
  9
$DIMALTF
 40
0.0393700787
  9
$DIMLFAC
 40
1.0
  9
$DIMTOFL
 70
     1
  9
$DIMTVP
 40
0.0
  9
$DIMTIX
 70
     0
  9
$DIMSOXD
 70
     0
  9
$DIMSAH
 70
     0
  9
$DIMBLK1
  1

  9
$DIMBLK2
  1

  9
$DIMSTYLE
  2
ISO-25
  9
$DIMCLRD
 70
     0
  9
$DIMCLRE
 70
     0
  9
$DIMCLRT
 70
     0
  9
$DIMTFAC
 40
1.0
  9
$DIMGAP
 40
1.524
  9
$DIMJUST
 70
     0
  9
$DIMSD1
 70
     0
  9
$DIMSD2
 70
     0
  9
$DIMTOLJ
 70
     0
  9
$DIMTZIN
 70
     0
  9
$DIMALTZ
 70
     0
  9
$DIMALTTZ
 70
     0
  9
$DIMUPT
 70
     0
  9
$DIMDEC
 70
     1
  9
$DIMTDEC
 70
     1
  9
$DIMALTU
 70
     2
  9
$DIMALTTD
 70
     3
  9
$DIMTXSTY
  7
Standard
  9
$DIMAUNIT
 70
     0
  9
$DIMADEC
 70
     2
  9
$DIMALTRND
 40
0.0
  9
$DIMAZIN
 70
     0
  9
$DIMDSEP
 70
    44
  9
$DIMATFIT
 70
     3
  9
$DIMFRAC
 70
     0
  9
$DIMLDRBLK
  1

  9
$DIMLUNIT
 70
     2
  9
$DIMLWD
 70
    -2
  9
$DIMLWE
 70
    -2
  9
$DIMTMOVE
 70
     0
  9
$LUNITS
 70
     2
  9
$LUPREC
 70
     1
  9
$SKETCHINC
 40
1.0
  9
$FILLETRAD
 40
10.0
  9
$AUNITS
 70
     0
  9
$AUPREC
 70
     2
  9
$MENU
  1
.
  9
$ELEVATION
 40
0.0
  9
$PELEVATION
 40
0.0
  9
$THICKNESS
 40
0.0
  9
$LIMCHECK
 70
     0
  9
$CHAMFERA
 40
0.0
  9
$CHAMFERB
 40
0.0
  9
$CHAMFERC
 40
0.0
  9
$CHAMFERD
 40
0.0
  9
$SKPOLY
 70
     0
  9
$TDCREATE
 40
2459571.437100486
  9
$TDUCREATE
 40
2459571.062100486
  9
$TDUPDATE
 40
2459571.437105937
  9
$TDUUPDATE
 40
2459571.062105937
  9
$TDINDWG
 40
0.0000000116
  9
$TDUSRTIMER
 40
0.0000000116
  9
$USRTIMER
 70
     1
  9
$ANGBASE
 50
0.0
  9
$ANGDIR
 70
     0
  9
$PDMODE
 70
     0
  9
$PDSIZE
 40
-1.0
  9
$PLINEWID
 40
0.0
  9
$SPLFRAME
 70
     0
  9
$SPLINETYPE
 70
     6
  9
$SPLINESEGS
 70
     8
  9
$HANDSEED
  5
337
  9
$SURFTAB1
 70
     6
  9
$SURFTAB2
 70
     6
  9
$SURFTYPE
 70
     6
  9
$SURFU
 70
     6
  9
$SURFV
 70
     6
  9
$UCSBASE
  2

  9
$UCSNAME
  2

  9
$UCSORG
 10
0.0
 20
0.0
 30
0.0
  9
$UCSXDIR
 10
1.0
 20
0.0
 30
0.0
  9
$UCSYDIR
 10
0.0
 20
1.0
 30
0.0
  9
$UCSORTHOREF
  2

  9
$UCSORTHOVIEW
 70
     0
  9
$UCSORGTOP
 10
0.0
 20
0.0
 30
0.0
  9
$UCSORGBOTTOM
 10
0.0
 20
0.0
 30
0.0
  9
$UCSORGLEFT
 10
0.0
 20
0.0
 30
0.0
  9
$UCSORGRIGHT
 10
0.0
 20
0.0
 30
0.0
  9
$UCSORGFRONT
 10
0.0
 20
0.0
 30
0.0
  9
$UCSORGBACK
 10
0.0
 20
0.0
 30
0.0
  9
$PUCSBASE
  2

  9
$PUCSNAME
  2

  9
$PUCSORG
 10
0.0
 20
0.0
 30
0.0
  9
$PUCSXDIR
 10
1.0
 20
0.0
 30
0.0
  9
$PUCSYDIR
 10
0.0
 20
1.0
 30
0.0
  9
$PUCSORTHOREF
  2

  9
$PUCSORTHOVIEW
 70
     0
  9
$PUCSORGTOP
 10
0.0
 20
0.0
 30
0.0
  9
$PUCSORGBOTTOM
 10
0.0
 20
0.0
 30
0.0
  9
$PUCSORGLEFT
 10
0.0
 20
0.0
 30
0.0
  9
$PUCSORGRIGHT
 10
0.0
 20
0.0
 30
0.0
  9
$PUCSORGFRONT
 10
0.0
 20
0.0
 30
0.0
  9
$PUCSORGBACK
 10
0.0
 20
0.0
 30
0.0
  9
$USERI1
 70
     0
  9
$USERI2
 70
     0
  9
$USERI3
 70
     0
  9
$USERI4
 70
     0
  9
$USERI5
 70
     0
  9
$USERR1
 40
0.0
  9
$USERR2
 40
0.0
  9
$USERR3
 40
0.0
  9
$USERR4
 40
0.0
  9
$USERR5
 40
0.0
  9
$WORLDVIEW
 70
     1
  9
$SHADEDGE
 70
     3
  9
$SHADEDIF
 70
    70
  9
$TILEMODE
 70
     1
  9
$MAXACTVP
 70
    64
  9
$PINSBASE
 10
0.0
 20
0.0
 30
0.0
  9
$PLIMCHECK
 70
     0
  9
$PEXTMIN
 10
1.0000000000E+20
 20
1.0000000000E+20
 30
1.0000000000E+20
  9
$PEXTMAX
 10
-1.0000000000E+20
 20
-1.0000000000E+20
 30
-1.0000000000E+20
  9
$PLIMMIN
 10
0.0
 20
0.0
  9
$PLIMMAX
 10
420.0
 20
297.0
  9
$UNITMODE
 70
     0
  9
$VISRETAIN
 70
     1
  9
$PLINEGEN
 70
     0
  9
$PSLTSCALE
 70
     1
  9
$TREEDEPTH
 70
  3020
  9
$CMLSTYLE
  2
Standard
  9
$CMLJUST
 70
     0
  9
$CMLSCALE
 40
20.0
  9
$PROXYGRAPHICS
 70
     1
  9
$MEASUREMENT
 70
     1
  9
$CELWEIGHT
370
    -1
  9
$ENDCAPS
280
     0
  9
$JOINSTYLE
280
     0
  9
$LWDISPLAY
290
     1
  9
$INSUNITS
 70
     4
  9
$HYPERLINKBASE
  1

  9
$STYLESHEET
  1

  9
$XEDIT
290
     1
  9
$CEPSNTYPE
380
     0
  9
$PSTYLEMODE
290
     1
  9
$FINGERPRINTGUID
  2
{4020CF79-CE30-40A9-83EF-E33CE6A7EE2B}
  9
$VERSIONGUID
  2
{FAEB1C32-E019-11D5-929B-00C0DF256EC4}
  9
$EXTNAMES
290
     1
  9
$PSVPSCALE
 40
0.0
  9
$OLESTARTUP
290
     0
  0
ENDSEC
  0
SECTION
  2
CLASSES
  0
CLASS
  1
ACDBDICTIONARYWDFLT
  2
AcDbDictionaryWithDefault
  3
ObjectDBX Classes
 90
        0
280
     0
281
     0
  0
CLASS
  1
VISUALSTYLE
  2
AcDbVisualStyle
  3
ObjectDBX Classes
 90
     4095
280
     0
281
     0
  0
CLASS
  1
MATERIAL
  2
AcDbMaterial
  3
ObjectDBX Classes
 90
     1153
280
     0
281
     0
  0
CLASS
  1
SCALE
  2
AcDbScale
  3
ObjectDBX Classes
 90
     1153
280
     0
281
     0
  0
CLASS
  1
TABLESTYLE
  2
AcDbTableStyle
  3
ObjectDBX Classes
 90
     4095
280
     0
281
     0
  0
CLASS
  1
MLEADERSTYLE
  2
AcDbMLeaderStyle
  3
ACDB_MLEADERSTYLE_CLASS
 90
     4095
280
     0
281
     0
  0
CLASS
  1
SUN
  2
AcDbSun
  3
SCENEOE
 90
     1153
280
     0
281
     0
  0
CLASS
  1
ACDBPLACEHOLDER
  2
AcDbPlaceHolder
  3
ObjectDBX Classes
 90
        0
280
     0
281
     0
  0
CLASS
  1
LAYOUT
  2
AcDbLayout
  3
ObjectDBX Classes
 90
        0
280
     0
281
     0
  0
ENDSEC
  0
SECTION
  2
TABLES
  0
TABLE
  2
VPORT
  5
8
330
0
100
AcDbSymbolTable
 70
     1
  0
VPORT
  5
29
330
8
100
AcDbSymbolTableRecord
100
AcDbViewportTableRecord
  2
*Active
 70
     0
 10
0.0
 20
0.0
 11
1.0
 21
1.0
 12
210.0
 22
148.5
 13
0.0
 23
0.0
 14
10.0
 24
10.0
 15
10.0
 25
10.0
 16
0.0
 26
0.0
 36
1.0
 17
0.0
 27
0.0
 37
0.0
 40
297.0
 41
1.4141414141
 42
50.0
 43
0.0
 44
0.0
 50
0.0
 51
0.0
 71
     0
 72
  2000
 73
     1
 74
     3
 75
     0
 76
     0
 77
     0
 78
     0
281
     0
 65
     1
110
0.0
120
0.0
130
0.0
111
1.0
121
0.0
131
0.0
112
0.0
122
1.0
132
0.0
 79
     0
146
0.0
  0
ENDTAB
  0
TABLE
  2
LTYPE
  5
5
330
0
100
AcDbSymbolTable
 70
     6
  0
LTYPE
  5
14
330
5
100
AcDbSymbolTableRecord
100
AcDbLinetypeTableRecord
  2
ByBlock
 70
     0
  3

 72
    65
 73
     0
 40
0.0
  0
LTYPE
  5
15
330
5
100
AcDbSymbolTableRecord
100
AcDbLinetypeTableRecord
  2
ByLayer
 70
     0
  3

 72
    65
 73
     0
 40
0.0
  0
LTYPE
  5
16
330
5
100
AcDbSymbolTableRecord
100
AcDbLinetypeTableRecord
  2
Continuous
 70
     0
  3
Solid line
 72
    65
 73
     0
 40
0.0
  0
LTYPE
  5
6E
330
5
100
AcDbSymbolTableRecord
100
AcDbLinetypeTableRecord
  2
HIDDEN
 70
     0
  3
Hidden __ __ __ __ __ __ __ __ __ __ __ __ __ __
 72
    65
 73
     2
 40
1.905
 49
1.27
 74
     0
 49
-0.635
 74
     0
  0
LTYPE
  5
6F
330
5
100
AcDbSymbolTableRecord
100
AcDbLinetypeTableRecord
  2
PHANTOM
 70
     0
  3
Phantom ______  __  __  ______  __  __  ______
 72
    65
 73
     6
 40
12.7
 49
6.35
 74
     0
 49
-1.27
 74
     0
 49
1.27
 74
     0
 49
-1.27
 74
     0
 49
1.27
 74
     0
 49
-1.27
 74
     0
  0
LTYPE
  5
70
330
5
100
AcDbSymbolTableRecord
100
AcDbLinetypeTableRecord
  2
CENTER
 70
     0
  3
Center ____ _ ____ _ ____ _ ____ _ ____ _ ____
 72
    65
 73
     4
 40
10.16
 49
6.35
 74
     0
 49
-1.27
 74
     0
 49
1.27
 74
     0
 49
-1.27
 74
     0
  0
LTYPE
  5
71
330
5
100
AcDbSymbolTableRecord
100
AcDbLinetypeTableRecord
  2
CENTERX2
 70
     0
  3
Center (2x) ________  __  ________  __  _____
 72
    65
 73
     4
 40
20.32
 49
12.7
 74
     0
 49
-2.54
 74
     0
 49
2.54
 74
     0
 49
-2.54
 74
     0
  0
LTYPE
  5
72
330
5
100
AcDbSymbolTableRecord
100
AcDbLinetypeTableRecord
  2
DOT2
 70
     0
  3
Dot (.5x) ........................................
 72
    65
 73
     2
 40
0.635
 49
0.0
 74
     0
 49
-0.635
 74
     0
  0
ENDTAB
  0
TABLE
  2
LAYER
  5
2
330
0
100
AcDbSymbolTable
 70
    11
  0
LAYER
  5
10
330
2
100
AcDbSymbolTableRecord
100
AcDbLayerTableRecord
  2
0
 70
     0
 62
     7
  6
Continuous
370
    -3
390
F
  0
LAYER
  5
73
330
2
100
AcDbSymbolTableRecord
100
AcDbLayerTableRecord
  2
DEFAULT_LAYER
 70
     0
 62
     7
  6
Continuous
370
    -3
390
F
  0
LAYER
  5
74
330
2
100
AcDbSymbolTableRecord
100
AcDbLayerTableRecord
  2
新図枠仮線
 70
     0
 62
     7
  6
Continuous
370
    -3
390
F
  0
LAYER
  5
75
330
2
100
AcDbSymbolTableRecord
100
AcDbLayerTableRecord
  2
LOGO
 70
     0
 62
     7
  6
Continuous
370
    25
390
F
  0
LAYER
  5
76
330
2
100
AcDbSymbolTableRecord
100
AcDbLayerTableRecord
  2
DRAW1
 70
     0
 62
     7
  6
Continuous
370
    -3
390
F
  0
LAYER
  5
77
330
2
100
AcDbSymbolTableRecord
100
AcDbLayerTableRecord
  2
PIC06
 70
     0
 62
     7
  6
Continuous
370
    -3
390
F
  0
LAYER
  5
78
330
2
100
AcDbSymbolTableRecord
100
AcDbLayerTableRecord
  2
PIC02
 70
     0
 62
     7
  6
Continuous
370
    -3
390
F
  0
LAYER
  5
79
330
2
100
AcDbSymbolTableRecord
100
AcDbLayerTableRecord
  2
PIC04
 70
     0
 62
     7
  6
Continuous
370
    -3
390
F
  0
LAYER
  5
7A
330
2
100
AcDbSymbolTableRecord
100
AcDbLayerTableRecord
  2
PIC05
 70
     0
 62
     7
  6
Continuous
370
    -3
390
F
  0
LAYER
  5
7B
330
2
100
AcDbSymbolTableRecord
100
AcDbLayerTableRecord
  2
PIC01
 70
     0
 62
     7
  6
Continuous
370
    -3
390
F
  0
LAYER
  5
7C
330
2
100
AcDbSymbolTableRecord
100
AcDbLayerTableRecord
  2
PIC03
 70
     0
 62
     7
  6
Continuous
370
    -3
390
F
  0
ENDTAB
  0
TABLE
  2
STYLE
  5
3
330
0
100
AcDbSymbolTable
 70
     2
  0
STYLE
  5
11
330
3
100
AcDbSymbolTableRecord
100
AcDbTextStyleTableRecord
  2
Standard
 70
     0
 40
0.0
 41
1.0
 50
0.0
 71
     0
 42
2.8222222222
  3
txt
  4
bigfont
  0
STYLE
  5
125
330
3
100
AcDbSymbolTableRecord
100
AcDbTextStyleTableRecord
  2
SLDTEXTSTYLE0
 70
     0
 40
0.0
 41
0.7
 50
0.0
 71
     0
 42
2.8222222222
  3
TXT
  4
bigfont
  0
ENDTAB
  0
TABLE
  2
VIEW
  5
6
330
0
100
AcDbSymbolTable
 70
     0
  0
ENDTAB
  0
TABLE
  2
UCS
  5
7
330
0
100
AcDbSymbolTable
 70
     0
  0
ENDTAB
  0
TABLE
  2
APPID
  5
9
330
0
100
AcDbSymbolTable
 70
     1
  0
APPID
  5
12
330
9
100
AcDbSymbolTableRecord
100
AcDbRegAppTableRecord
  2
ACAD
 70
     0
  0
ENDTAB
  0
TABLE
  2
DIMSTYLE
  5
A
330
0
100
AcDbSymbolTable
 70
     5
100
AcDbDimStyleTable
  0
DIMSTYLE
105
27
330
A
100
AcDbSymbolTableRecord
100
AcDbDimStyleTableRecord
  2
ISO-25
 70
     0
 41
2.5
 42
0.625
 43
3.75
 44
1.25
 73
     0
 74
     0
 77
     1
 78
     8
140
2.5
141
2.5
143
0.0393700787
147
0.625
171
     3
172
     1
178
     0
271
     2
272
     2
274
     3
278
    44
283
     0
284
     8
340
11
  0
DIMSTYLE
105
16C
102
{ACAD_REACTORS
330
16B
330
1A7
330
1B0
330
1BA
102
}
330
A
100
AcDbSymbolTableRecord
100
AcDbDimStyleTableRecord
  2
SLDDIMSTYLE0
 70
     0
 41
2.5
 44
0.0
 45
0.000000001
 73
     0
 74
     0
 77
     3
 78
    12
 79
     3
140
2.4253472222
147
0.6063368056
173
     1
178
     0
271
     1
272
     1
276
     2
284
    12
340
125
341
16D
343
16D
344
16D
  0
DIMSTYLE
105
1C5
102
{ACAD_REACTORS
330
1C4
102
}
330
A
100
AcDbSymbolTableRecord
100
AcDbDimStyleTableRecord
  2
SLDDIMSTYLE1
 70
     0
 41
2.5
 44
0.0
 45
0.000000001
 47
4.0
 48
4.0
 71
     1
 73
     0
 74
     0
 77
     3
 78
    12
 79
     3
140
2.4253472222
147
0.6063368056
173
     1
178
     0
271
     1
272
     0
276
     2
284
     8
340
125
341
16D
343
16D
344
16D
  0
DIMSTYLE
105
1D7
330
A
100
AcDbSymbolTableRecord
100
AcDbDimStyleTableRecord
  2
SLDDIMSTYLE2
 70
     0
 41
2.5
 44
0.0
 45
0.000000001
146
2.5
147
0.0
173
     1
178
     0
271
     0
272
     0
276
     2
340
11
341
16D
343
16D
344
16D
  0
DIMSTYLE
105
314
102
{ACAD_REACTORS
330
313
102
}
330
A
100
AcDbSymbolTableRecord
100
AcDbDimStyleTableRecord
  2
SLDDIMSTYLE3
 70
     0
 41
2.5
 44
0.0
 45
0.000000001
 47
4.0
 48
4.0
 71
     1
 73
     0
 74
     0
 77
     3
 78
    12
 79
     3
140
2.4253472222
147
0.6063368056
173
     1
178
     0
271
     0
272
     0
276
     2
284
     8
340
125
341
16D
343
16D
344
16D
  0
ENDTAB
  0
TABLE
  2
BLOCK_RECORD
  5
1
330
0
100
AcDbSymbolTable
 70
    17
  0
BLOCK_RECORD
  5
1F
330
1
100
AcDbSymbolTableRecord
100
AcDbBlockTableRecord
  2
*Model_Space
340
22
  0
BLOCK_RECORD
  5
1B
330
1
100
AcDbSymbolTableRecord
100
AcDbBlockTableRecord
  2
*Paper_Space
340
1E
  0
BLOCK_RECORD
  5
23
330
1
100
AcDbSymbolTableRecord
100
AcDbBlockTableRecord
  2
*Paper_Space0
340
26
  0
BLOCK_RECORD
  5
7D
330
1
100
AcDbSymbolTableRecord
100
AcDbBlockTableRecord
  2
ﾌﾞﾛｯｸ7
340
0
102
{BLKREFS
331
121
102
}
  0
BLOCK_RECORD
  5
88
330
1
100
AcDbSymbolTableRecord
100
AcDbBlockTableRecord
  2
ﾌﾞﾛｯｸ5
340
0
102
{BLKREFS
331
120
102
}
  0
BLOCK_RECORD
  5
122
330
1
100
AcDbSymbolTableRecord
100
AcDbBlockTableRecord
  2
SW_NOTE_0
340
0
102
{BLKREFS
331
128
102
}
  0
BLOCK_RECORD
  5
132
330
1
100
AcDbSymbolTableRecord
100
AcDbBlockTableRecord
  2
SW_NOTE_1
340
0
102
{BLKREFS
331
13E
102
}
  0
BLOCK_RECORD
  5
16D
330
1
100
AcDbSymbolTableRecord
100
AcDbBlockTableRecord
  2
_OPEN30
340
0
102
{BLKREFS
331
176
331
177
331
182
331
1AB
331
1AC
331
1B4
331
1B5
331
1BE
331
1BF
331
1C9
331
1CA
331
318
331
319
102
}
  0
BLOCK_RECORD
  5
173
330
1
100
AcDbSymbolTableRecord
100
AcDbBlockTableRecord
  2
_D
340
0
  0
BLOCK_RECORD
  5
17C
330
1
100
AcDbSymbolTableRecord
100
AcDbBlockTableRecord
  2
SW_NOTE_2
340
0
102
{BLKREFS
331
180
102
}
  0
BLOCK_RECORD
  5
1A8
330
1
100
AcDbSymbolTableRecord
100
AcDbBlockTableRecord
  2
_D_1
340
0
  0
BLOCK_RECORD
  5
1B1
330
1
100
AcDbSymbolTableRecord
100
AcDbBlockTableRecord
  2
_D_2
340
0
  0
BLOCK_RECORD
  5
1BB
330
1
100
AcDbSymbolTableRecord
100
AcDbBlockTableRecord
  2
_D_3
340
0
  0
BLOCK_RECORD
  5
1C6
330
1
100
AcDbSymbolTableRecord
100
AcDbBlockTableRecord
  2
_D_4
340
0
  0
BLOCK_RECORD
  5
1D1
330
1
100
AcDbSymbolTableRecord
100
AcDbBlockTableRecord
  2
SW_NOTE_3
340
0
102
{BLKREFS
331
1D6
102
}
  0
BLOCK_RECORD
  5
24B
330
1
100
AcDbSymbolTableRecord
100
AcDbBlockTableRecord
  2
SW_NOTE_4
340
0
102
{BLKREFS
331
250
102
}
  0
BLOCK_RECORD
  5
315
330
1
100
AcDbSymbolTableRecord
100
AcDbBlockTableRecord
  2
_D_5
340
0
  0
BLOCK_RECORD
  5
320
330
1
100
AcDbSymbolTableRecord
100
AcDbBlockTableRecord
  2
SW_NOTE_5
340
0
102
{BLKREFS
331
325
102
}
  0
BLOCK_RECORD
  5
32A
330
1
100
AcDbSymbolTableRecord
100
AcDbBlockTableRecord
  2
SW_CENTERMARKSYMBOL_0
340
0
102
{BLKREFS
331
335
102
}
  0
ENDTAB
  0
ENDSEC
  0
SECTION
  2
BLOCKS
  0
BLOCK
  5
20
330
1F
100
AcDbEntity
  8
0
100
AcDbBlockBegin
  2
*Model_Space
 70
     0
 10
0.0
 20
0.0
 30
0.0
  3
*Model_Space
  1

  0
ENDBLK
  5
21
330
1F
100
AcDbEntity
  8
0
100
AcDbBlockEnd
  0
BLOCK
  5
1C
330
1B
100
AcDbEntity
 67
     1
  8
0
100
AcDbBlockBegin
  2
*Paper_Space
 70
     0
 10
0.0
 20
0.0
 30
0.0
  3
*Paper_Space
  1

  0
ENDBLK
  5
1D
330
1B
100
AcDbEntity
 67
     1
  8
0
100
AcDbBlockEnd
  0
BLOCK
  5
24
330
23
100
AcDbEntity
  8
0
100
AcDbBlockBegin
  2
*Paper_Space0
 70
     0
 10
0.0
 20
0.0
 30
0.0
  3
*Paper_Space0
  1

  0
ENDBLK
  5
25
330
23
100
AcDbEntity
  8
0
100
AcDbBlockEnd
  0
BLOCK
  5
7E
330
7D
100
AcDbEntity
  8
0
100
AcDbBlockBegin
  2
ﾌﾞﾛｯｸ7
 70
     0
 10
0.0
 20
0.0
 30
0.0
  3
ﾌﾞﾛｯｸ7
  1

  0
CIRCLE
  5
80
330
7D
100
AcDbEntity
  8
0
  6
Continuous
 62
     7
370
    25
100
AcDbCircle
 10
2.6
 20
2.6
 30
0.0
 40
0.7499999999999729
  0
CIRCLE
  5
81
330
7D
100
AcDbEntity
  8
0
  6
Continuous
 62
     7
370
    25
100
AcDbCircle
 10
2.6
 20
2.6
 30
0.0
 40
1.600000000000101
  0
LINE
  5
82
330
7D
100
AcDbEntity
  8
0
  6
CENTER
 62
     7
370
    25
100
AcDbLine
 10
2.6
 20
5.2
 30
0.0
 11
2.6
 21
0.0
 31
0.0
  0
LINE
  5
83
330
7D
100
AcDbEntity
  8
0
  6
Continuous
 62
     7
370
    25
100
AcDbLine
 10
6.7
 20
3.35
 30
0.0
 11
6.7
 21
1.85
 31
0.0
  0
LINE
  5
84
330
7D
100
AcDbEntity
  8
0
  6
Continuous
 62
     7
370
    25
100
AcDbLine
 10
10.7
 20
4.2
 30
0.0
 11
6.7
 21
3.35
 31
0.0
  0
LINE
  5
85
330
7D
100
AcDbEntity
  8
0
  6
CENTER
 62
     7
370
    25
100
AcDbLine
 10
0.0
 20
2.6
 30
0.0
 11
11.7
 21
2.6
 31
0.0
  0
LINE
  5
86
330
7D
100
AcDbEntity
  8
0
  6
Continuous
 62
     7
370
    25
100
AcDbLine
 10
10.7
 20
1.0
 30
0.0
 11
10.7
 21
4.2
 31
0.0
  0
LINE
  5
87
330
7D
100
AcDbEntity
  8
0
  6
Continuous
 62
     7
370
    25
100
AcDbLine
 10
6.7
 20
1.85
 30
0.0
 11
10.7
 21
1.0
 31
0.0
  0
ENDBLK
  5
7F
330
7D
100
AcDbEntity
  8
0
100
AcDbBlockEnd
  0
BLOCK
  5
89
330
88
100
AcDbEntity
  8
0
100
AcDbBlockBegin
  2
ﾌﾞﾛｯｸ5
 70
     0
 10
0.0
 20
0.0
 30
0.0
  3
ﾌﾞﾛｯｸ5
  1

  0
LINE
  5
8B
330
88
100
AcDbEntity
  8
0
  6
Continuous
 62
     7
370
    25
100
AcDbLine
 10
4.6054066828
 20
0.2149741001
 30
0.0
 11
4.6054066828
 21
0.8722987523
 31
0.0
  0
LINE
  5
8C
330
88
100
AcDbEntity
  8
0
  6
Continuous
 62
     7
370
    25
100
AcDbLine
 10
4.6054066828
 20
0.8722987523
 30
0.0
 11
3.8605765476
 21
0.8722987523
 31
0.0
  0
LINE
  5
8D
330
88
100
AcDbEntity
  8
0
  6
Continuous
 62
     7
370
    25
100
AcDbLine
 10
3.5098655958
 20
1.2230097041
 30
0.0
 11
3.5098655958
 21
4.8231368611
 31
0.0
  0
LINE
  5
8E
330
88
100
AcDbEntity
  8
0
  6
Continuous
 62
     7
370
    25
100
AcDbLine
 10
3.5098655958
 20
4.8231368611
 30
0.0
 11
4.107245547
 21
4.8231368611
 31
0.0
  0
LINE
  5
8F
330
88
100
AcDbEntity
  8
0
  6
Continuous
 62
     7
370
    25
100
AcDbLine
 10
5.0022819446
 20
3.7234616568
 30
0.0
 11
5.0022819446
 21
3.5071095176
 31
0.0
  0
LINE
  5
90
330
88
100
AcDbEntity
  8
0
  6
Continuous
 62
     7
370
    25
100
AcDbLine
 10
5.0022819446
 20
3.5071095176
 30
0.0
 11
5.7016367894
 21
3.5071095176
 31
0.0
  0
LINE
  5
91
330
88
100
AcDbEntity
  8
0
  6
Continuous
 62
     7
370
    25
100
AcDbLine
 10
5.7016367894
 20
3.5071095176
 30
0.0
 11
5.7016367894
 21
5.4783944547
 31
0.0
  0
LINE
  5
92
330
88
100
AcDbEntity
  8
0
  6
Continuous
 62
     7
370
    25
100
AcDbLine
 10
5.7016367894
 20
5.4783944547
 30
0.0
 11
0.0
 21
5.4783944547
 31
0.0
  0
LINE
  5
93
330
88
100
AcDbEntity
  8
0
  6
Continuous
 62
     7
370
    25
100
AcDbLine
 10
0.0
 20
5.4783944547
 30
0.0
 11
0.0
 21
3.5071095176
 31
0.0
  0
LINE
  5
94
330
88
100
AcDbEntity
  8
0
  6
Continuous
 62
     7
370
    25
100
AcDbLine
 10
0.0
 20
3.5071095176
 30
0.0
 11
0.700732884
 21
3.5071095176
 31
0.0
  0
LINE
  5
95
330
88
100
AcDbEntity
  8
0
  6
Continuous
 62
     7
370
    25
100
AcDbLine
 10
0.700732884
 20
3.5071095176
 30
0.0
 11
0.700732884
 21
3.7234616568
 31
0.0
  0
LINE
  5
96
330
88
100
AcDbEntity
  8
0
  6
Continuous
 62
     7
370
    25
100
AcDbLine
 10
1.5937022228
 20
4.8231368611
 30
0.0
 11
2.1917711936
 21
4.8231368611
 31
0.0
  0
LINE
  5
97
330
88
100
AcDbEntity
  8
0
  6
Continuous
 62
     7
370
    25
100
AcDbLine
 10
2.1917711936
 20
4.8231368611
 30
0.0
 11
2.1917711936
 21
1.2230097041
 31
0.0
  0
LINE
  5
98
330
88
100
AcDbEntity
  8
0
  6
Continuous
 62
     7
370
    25
100
AcDbLine
 10
1.8410602419
 20
0.8722987523
 30
0.0
 11
1.0962301066
 21
0.8722987523
 31
0.0
  0
LINE
  5
99
330
88
100
AcDbEntity
  8
0
  6
Continuous
 62
     7
370
    25
100
AcDbLine
 10
1.0962301066
 20
0.8722987523
 30
0.0
 11
1.0962301066
 21
0.2149741001
 31
0.0
  0
LINE
  5
9A
330
88
100
AcDbEntity
  8
0
  6
Continuous
 62
     7
370
    25
100
AcDbLine
 10
1.0962301066
 20
0.2149741001
 30
0.0
 11
4.6054066828
 21
0.2149741001
 31
0.0
  0
LINE
  5
9B
330
88
100
AcDbEntity
  8
0
  6
Continuous
 62
     7
370
    25
100
AcDbLine
 10
10.791424217
 20
2.9166197619
 30
0.0
 11
10.791424217
 21
2.7808829102
 31
0.0
  0
LINE
  5
9C
330
88
100
AcDbEntity
  8
0
  6
Continuous
 62
     7
370
    25
100
AcDbLine
 10
7.6357146707
 20
2.7808829102
 30
0.0
 11
7.6357146707
 21
2.9166197619
 31
0.0
  0
LINE
  5
9D
330
88
100
AcDbEntity
  8
0
  6
Continuous
 62
     7
370
    25
100
AcDbLine
 10
12.2817735071
 20
2.851851924
 30
0.0
 11
12.2817735071
 21
3.0020581863
 31
0.0
  0
LINE
  5
9E
330
88
100
AcDbEntity
  8
0
  6
Continuous
 62
     7
370
    25
100
AcDbLine
 10
6.1405422438
 20
3.0020581863
 30
0.0
 11
6.1405422438
 21
2.851851924
 31
0.0
  0
LINE
  5
9F
330
88
100
AcDbEntity
  8
0
  6
Continuous
 62
     7
370
    25
100
AcDbLine
 10
6.1405422438
 20
2.851851924
 30
0.0
 11
6.1405422438
 21
2.6947554663
 31
0.0
  0
LINE
  5
A0
330
88
100
AcDbEntity
  8
0
  6
Continuous
 62
     7
370
    25
100
AcDbLine
 10
12.2817735071
 20
2.6947554663
 30
0.0
 11
12.2817735071
 21
2.851851924
 31
0.0
  0
LINE
  5
A1
330
88
100
AcDbEntity
  8
0
  6
Continuous
 62
     7
370
    25
100
AcDbLine
 10
17.3233295661
 20
0.2149741001
 30
0.0
 11
17.3233295661
 21
0.8722987523
 31
0.0
  0
LINE
  5
A2
330
88
100
AcDbEntity
  8
0
  6
Continuous
 62
     7
370
    25
100
AcDbLine
 10
17.3233295661
 20
0.8722987523
 30
0.0
 11
16.5784994309
 21
0.8722987523
 31
0.0
  0
LINE
  5
A3
330
88
100
AcDbEntity
  8
0
  6
Continuous
 62
     7
370
    25
100
AcDbLine
 10
16.2291665182
 20
1.2230097041
 30
0.0
 11
16.2291665182
 21
4.8231368611
 31
0.0
  0
LINE
  5
A4
330
88
100
AcDbEntity
  8
0
  6
Continuous
 62
     7
370
    25
100
AcDbLine
 10
16.2291665182
 20
4.8231368611
 30
0.0
 11
16.8244794108
 21
4.8231368611
 31
0.0
  0
LINE
  5
A5
330
88
100
AcDbEntity
  8
0
  6
Continuous
 62
     7
370
    25
100
AcDbLine
 10
17.7195158083
 20
3.7234616568
 30
0.0
 11
17.7195158083
 21
3.5071095176
 31
0.0
  0
LINE
  5
A6
330
88
100
AcDbEntity
  8
0
  6
Continuous
 62
     7
370
    25
100
AcDbLine
 10
17.7195158083
 20
3.5071095176
 30
0.0
 11
18.4195596727
 21
3.5071095176
 31
0.0
  0
LINE
  5
A7
330
88
100
AcDbEntity
  8
0
  6
Continuous
 62
     7
370
    25
100
AcDbLine
 10
18.4195596727
 20
3.5071095176
 30
0.0
 11
18.4195596727
 21
5.4783944547
 31
0.0
  0
LINE
  5
A8
330
88
100
AcDbEntity
  8
0
  6
Continuous
 62
     7
370
    25
100
AcDbLine
 10
18.4195596727
 20
5.4783944547
 30
0.0
 11
12.7193009224
 21
5.4783944547
 31
0.0
  0
LINE
  5
A9
330
88
100
AcDbEntity
  8
0
  6
Continuous
 62
     7
370
    25
100
AcDbLine
 10
12.7193009224
 20
5.4783944547
 30
0.0
 11
12.7193009224
 21
3.5071095176
 31
0.0
  0
LINE
  5
AA
330
88
100
AcDbEntity
  8
0
  6
Continuous
 62
     7
370
    25
100
AcDbLine
 10
12.7193009224
 20
3.5071095176
 30
0.0
 11
13.4186557673
 21
3.5071095176
 31
0.0
  0
LINE
  5
AB
330
88
100
AcDbEntity
  8
0
  6
Continuous
 62
     7
370
    25
100
AcDbLine
 10
13.4186557673
 20
3.5071095176
 30
0.0
 11
13.4186557673
 21
3.7234616568
 31
0.0
  0
LINE
  5
AC
330
88
100
AcDbEntity
  8
0
  6
Continuous
 62
     7
370
    25
100
AcDbLine
 10
14.3136921648
 20
4.8231368611
 30
0.0
 11
14.911072116
 21
4.8231368611
 31
0.0
  0
LINE
  5
AD
330
88
100
AcDbEntity
  8
0
  6
Continuous
 62
     7
370
    25
100
AcDbLine
 10
14.911072116
 20
4.8231368611
 30
0.0
 11
14.911072116
 21
1.2230097041
 31
0.0
  0
LINE
  5
AE
330
88
100
AcDbEntity
  8
0
  6
Continuous
 62
     7
370
    25
100
AcDbLine
 10
14.5589831251
 20
0.8722987523
 30
0.0
 11
13.8175980876
 21
0.8722987523
 31
0.0
  0
LINE
  5
AF
330
88
100
AcDbEntity
  8
0
  6
Continuous
 62
     7
370
    25
100
AcDbLine
 10
13.8175980876
 20
0.8722987523
 30
0.0
 11
13.8175980876
 21
0.2149741001
 31
0.0
  0
LINE
  5
B0
330
88
100
AcDbEntity
  8
0
  6
Continuous
 62
     7
370
    25
100
AcDbLine
 10
13.8175980876
 20
0.2149741001
 30
0.0
 11
17.3233295661
 21
0.2149741001
 31
0.0
  0
LINE
  5
B1
330
88
100
AcDbEntity
  8
0
  6
Continuous
 62
     7
370
    25
100
AcDbLine
 10
23.5107251394
 20
2.9166197619
 30
0.0
 11
23.5107251394
 21
2.7808829102
 31
0.0
  0
LINE
  5
B2
330
88
100
AcDbEntity
  8
0
  6
Continuous
 62
     7
370
    25
100
AcDbLine
 10
20.3550155931
 20
2.7808829102
 30
0.0
 11
20.3550155931
 21
2.9166197619
 31
0.0
  0
LINE
  5
B3
330
88
100
AcDbEntity
  8
0
  6
Continuous
 62
     7
370
    25
100
AcDbLine
 10
24.9996963904
 20
2.851851924
 30
0.0
 11
24.9996963904
 21
3.0020581863
 31
0.0
  0
LINE
  5
B4
330
88
100
AcDbEntity
  8
0
  6
Continuous
 62
     7
370
    25
100
AcDbLine
 10
18.8619102248
 20
3.0020581863
 30
0.0
 11
18.8619102248
 21
2.851851924
 31
0.0
  0
LINE
  5
B5
330
88
100
AcDbEntity
  8
0
  6
Continuous
 62
     7
370
    25
100
AcDbLine
 10
18.8619102248
 20
2.851851924
 30
0.0
 11
18.8619102248
 21
2.6947554663
 31
0.0
  0
LINE
  5
B6
330
88
100
AcDbEntity
  8
0
  6
Continuous
 62
     7
370
    25
100
AcDbLine
 10
24.9996963904
 20
2.6947554663
 30
0.0
 11
24.9996963904
 21
2.851851924
 31
0.0
  0
SPLINE
  5
B7
330
88
100
AcDbEntity
  8
0
  6
Continuous
 62
     8
370
    25
100
AcDbSpline
210
0.0
220
0.0
230
1.0
 70
     8
 71
     3
 72
     8
 73
     4
 74
     0
 42
0.000000001
 43
0.00000001
 40
2.0
 40
2.0
 40
2.0
 40
2.0
 40
3.0
 40
3.0
 40
3.0
 40
3.0
 10
3.860576547571881
 20
0.8722987523158976
 30
0.0
 10
3.66765107312611
 20
0.8722987523158976
 30
0.0
 10
3.509865595811401
 20
1.030084229630496
 30
0.0
 10
3.509865595811401
 20
1.223009704076405
 30
0.0
  0
SPLINE
  5
B8
330
88
100
AcDbEntity
  8
0
  6
Continuous
 62
     8
370
    25
100
AcDbSpline
210
0.0
220
0.0
230
1.0
 70
     8
 71
     3
 72
     8
 73
     4
 74
     0
 42
0.000000001
 43
0.00000001
 40
5.0
 40
5.0
 40
5.0
 40
5.0
 40
6.0
 40
6.0
 40
6.0
 40
6.0
 10
4.107245547042004
 20
4.823136861146299
 30
0.0
 10
4.421438462568094
 20
4.823136861146299
 30
0.0
 10
5.002281944560371
 20
4.561309431541205
 30
0.0
 10
5.002281944560371
 20
3.723461656804983
 30
0.0
  0
SPLINE
  5
B9
330
88
100
AcDbEntity
  8
0
  6
Continuous
 62
     8
370
    25
100
AcDbSpline
210
0.0
220
0.0
230
1.0
 70
     8
 71
     3
 72
     8
 73
     4
 74
     0
 42
0.000000001
 43
0.00000001
 40
13.0
 40
13.0
 40
13.0
 40
13.0
 40
14.0
 40
14.0
 40
14.0
 40
14.0
 10
0.7007328839694904
 20
3.723461656804983
 30
0.0
 10
0.7007328839694904
 20
4.561309431541205
 30
0.0
 10
1.281576365961767
 20
4.823136861146299
 30
0.0
 10
1.593702222833115
 20
4.823136861146299
 30
0.0
  0
SPLINE
  5
BA
330
88
100
AcDbEntity
  8
0
  6
Continuous
 62
     8
370
    25
100
AcDbSpline
210
0.0
220
0.0
230
1.0
 70
     8
 71
     3
 72
     8
 73
     4
 74
     0
 42
0.000000001
 43
0.00000001
 40
16.0
 40
16.0
 40
16.0
 40
16.0
 40
17.0
 40
17.0
 40
17.0
 40
17.0
 10
2.191771193615299
 20
1.223009704076405
 30
0.0
 10
2.191771193615299
 20
1.030084229630496
 30
0.0
 10
2.03398571630059
 20
0.8722987523158976
 30
0.0
 10
1.841060241854764
 20
0.8722987523158976
 30
0.0
  0
SPLINE
  5
BB
330
88
100
AcDbEntity
  8
0
  6
Continuous
 62
     8
370
    25
100
AcDbSpline
210
0.0
220
0.0
230
1.0
 70
     8
 71
     3
 72
     8
 73
     4
 74
     0
 42
0.000000001
 43
0.00000001
 40
0.0
 40
0.0
 40
0.0
 40
0.0
 40
1.0
 40
1.0
 40
1.0
 40
1.0
 10
7.635714670746252
 20
2.916619761890421
 30
0.0
 10
7.635714670746252
 20
3.691077737880105
 30
0.0
 10
7.827951125640553
 20
4.182348678165498
 30
0.0
 10
8.076687183765364
 20
4.477938065798604
 30
0.0
  0
SPLINE
  5
BC
330
88
100
AcDbEntity
  8
0
  6
Continuous
 62
     8
370
    25
100
AcDbSpline
210
0.0
220
0.0
230
1.0
 70
     8
 71
     3
 72
     8
 73
     4
 74
     0
 42
0.000000001
 43
0.00000001
 40
1.0
 40
1.0
 40
1.0
 40
1.0
 40
2.0
 40
2.0
 40
2.0
 40
2.0
 10
8.076687183765364
 20
4.477938065798604
 30
0.0
 10
8.51421459902657
 20
5.000214885905574
 30
0.0
 10
9.105393374292781
 20
4.998147827250804
 30
0.0
 10
9.213569443892789
 20
4.998147827250804
 30
0.0
  0
SPLINE
  5
BD
330
88
100
AcDbEntity
  8
0
  6
Continuous
 62
     8
370
    25
100
AcDbSpline
210
0.0
220
0.0
230
1.0
 70
     8
 71
     3
 72
     8
 73
     4
 74
     0
 42
0.000000001
 43
0.00000001
 40
2.0
 40
2.0
 40
2.0
 40
2.0
 40
3.0
 40
3.0
 40
3.0
 40
3.0
 10
9.213569443892789
 20
4.998147827250804
 30
0.0
 10
9.332080806766674
 20
4.998147827250804
 30
0.0
 10
9.908790171449356
 20
5.000214885905574
 30
0.0
 10
10.35320778222648
 20
4.477938065798604
 30
0.0
  0
SPLINE
  5
BE
330
88
100
AcDbEntity
  8
0
  6
Continuous
 62
     8
370
    25
100
AcDbSpline
210
0.0
220
0.0
230
1.0
 70
     8
 71
     3
 72
     8
 73
     4
 74
     0
 42
0.000000001
 43
0.00000001
 40
3.0
 40
3.0
 40
3.0
 40
3.0
 40
4.0
 40
4.0
 40
4.0
 40
4.0
 10
10.35320778222648
 20
4.477938065798604
 30
0.0
 10
10.59780972304175
 20
4.182348678165498
 30
0.0
 10
10.79142421703921
 20
3.691077737880105
 30
0.0
 10
10.79142421703921
 20
2.916619761890421
 30
0.0
  0
SPLINE
  5
BF
330
88
100
AcDbEntity
  8
0
  6
Continuous
 62
     8
370
    25
100
AcDbSpline
210
0.0
220
0.0
230
1.0
 70
     8
 71
     3
 72
     8
 73
     4
 74
     0
 42
0.000000001
 43
0.00000001
 40
5.0
 40
5.0
 40
5.0
 40
5.0
 40
6.0
 40
6.0
 40
6.0
 40
6.0
 10
10.79142421703921
 20
2.780882910226684
 30
0.0
 10
10.79142421703921
 20
2.005735914685308
 30
0.0
 10
10.59780972304175
 20
1.517910072157902
 30
0.0
 10
10.35320778222648
 20
1.223009704076405
 30
0.0
  0
SPLINE
  5
C0
330
88
100
AcDbEntity
  8
0
  6
Continuous
 62
     8
370
    25
100
AcDbSpline
210
0.0
220
0.0
230
1.0
 70
     8
 71
     3
 72
     8
 73
     4
 74
     0
 42
0.000000001
 43
0.00000001
 40
6.0
 40
6.0
 40
6.0
 40
6.0
 40
7.0
 40
7.0
 40
7.0
 40
7.0
 10
10.35320778222648
 20
1.223009704076405
 30
0.0
 10
9.908790171449356
 20
0.6952207275567057
 30
0.0
 10
9.327257669905498
 20
0.6993548448661902
 30
0.0
 10
9.213569443892789
 20
0.6993548448661902
 30
0.0
  0
SPLINE
  5
C1
330
88
100
AcDbEntity
  8
0
  6
Continuous
 62
     8
370
    25
100
AcDbSpline
210
0.0
220
0.0
230
1.0
 70
     8
 71
     3
 72
     8
 73
     4
 74
     0
 42
0.000000001
 43
0.00000001
 40
7.0
 40
7.0
 40
7.0
 40
7.0
 40
8.0
 40
8.0
 40
8.0
 40
8.0
 10
9.213569443892789
 20
0.6993548448661902
 30
0.0
 10
9.105393374292781
 20
0.6993548448661902
 30
0.0
 10
8.51421459902657
 20
0.6952207275567057
 30
0.0
 10
8.076687183765364
 20
1.223009704076405
 30
0.0
  0
SPLINE
  5
C2
330
88
100
AcDbEntity
  8
0
  6
Continuous
 62
     8
370
    25
100
AcDbSpline
210
0.0
220
0.0
230
1.0
 70
     8
 71
     3
 72
     8
 73
     4
 74
     0
 42
0.000000001
 43
0.00000001
 40
8.0
 40
8.0
 40
8.0
 40
8.0
 40
9.0
 40
9.0
 40
9.0
 40
9.0
 10
8.076687183765364
 20
1.223009704076405
 30
0.0
 10
7.827951125640553
 20
1.517910072157902
 30
0.0
 10
7.635714670746252
 20
2.005735914685308
 30
0.0
 10
7.635714670746252
 20
2.780882910226684
 30
0.0
  0
SPLINE
  5
C3
330
88
100
AcDbEntity
  8
0
  6
Continuous
 62
     8
370
    25
100
AcDbSpline
210
0.0
220
0.0
230
1.0
 70
     8
 71
     3
 72
     8
 73
     4
 74
     0
 42
0.000000001
 43
0.00000001
 40
1.0
 40
1.0
 40
1.0
 40
1.0
 40
2.0
 40
2.0
 40
2.0
 40
2.0
 10
12.2817735071335
 20
3.002058186287793
 30
0.0
 10
12.2817735071335
 20
3.822680472234302
 30
0.0
 10
11.90487981241239
 20
4.540638844993506
 30
0.0
 10
11.36331044486089
 20
5.000214885905574
 30
0.0
  0
SPLINE
  5
C4
330
88
100
AcDbEntity
  8
0
  6
Continuous
 62
     8
370
    25
100
AcDbSpline
210
0.0
220
0.0
230
1.0
 70
     8
 71
     3
 72
     8
 73
     4
 74
     0
 42
0.000000001
 43
0.00000001
 40
2.0
 40
2.0
 40
2.0
 40
2.0
 40
3.0
 40
3.0
 40
3.0
 40
3.0
 10
11.36331044486089
 20
5.000214885905574
 30
0.0
 10
10.81002774493217
 20
5.46599210278198
 30
0.0
 10
10.04177094490677
 20
5.700258750323401
 30
0.0
 10
9.213569443892789
 20
5.700258750323401
 30
0.0
  0
SPLINE
  5
C5
330
88
100
AcDbEntity
  8
0
  6
Continuous
 62
     8
370
    25
100
AcDbSpline
210
0.0
220
0.0
230
1.0
 70
     8
 71
     3
 72
     8
 73
     4
 74
     0
 42
0.000000001
 43
0.00000001
 40
3.0
 40
3.0
 40
3.0
 40
3.0
 40
4.0
 40
4.0
 40
4.0
 40
4.0
 10
9.213569443892789
 20
5.700258750323401
 30
0.0
 10
8.383300884223955
 20
5.700258750323401
 30
0.0
 10
7.61297702554381
 20
5.46599210278198
 30
0.0
 10
7.065895501579488
 20
5.000214885905574
 30
0.0
  0
SPLINE
  5
C6
330
88
100
AcDbEntity
  8
0
  6
Continuous
 62
     8
370
    25
100
AcDbSpline
210
0.0
220
0.0
230
1.0
 70
     8
 71
     3
 72
     8
 73
     4
 74
     0
 42
0.000000001
 43
0.00000001
 40
4.0
 40
4.0
 40
4.0
 40
4.0
 40
5.0
 40
5.0
 40
5.0
 40
5.0
 10
7.065895501579488
 20
5.000214885905574
 30
0.0
 10
6.517435938512007
 20
4.540638844993506
 30
0.0
 10
6.140542243790903
 20
3.822680472234302
 30
0.0
 10
6.140542243790903
 20
3.002058186287793
 30
0.0
  0
SPLINE
  5
C7
330
88
100
AcDbEntity
  8
0
  6
Continuous
 62
     8
370
    25
100
AcDbSpline
210
0.0
220
0.0
230
1.0
 70
     8
 71
     3
 72
     8
 73
     4
 74
     0
 42
0.000000001
 43
0.00000001
 40
7.0
 40
7.0
 40
7.0
 40
7.0
 40
8.0
 40
8.0
 40
8.0
 40
8.0
 10
6.140542243790903
 20
2.694755466277593
 30
0.0
 10
6.140542243790903
 20
1.876889258537517
 30
0.0
 10
6.517435938512007
 20
1.156863827123517
 30
0.0
 10
7.065895501579488
 20
0.6952207275567057
 30
0.0
  0
SPLINE
  5
C8
330
88
100
AcDbEntity
  8
0
  6
Continuous
 62
     8
370
    25
100
AcDbSpline
210
0.0
220
0.0
230
1.0
 70
     8
 71
     3
 72
     8
 73
     4
 74
     0
 42
0.000000001
 43
0.00000001
 40
8.0
 40
8.0
 40
8.0
 40
8.0
 40
9.0
 40
9.0
 40
9.0
 40
9.0
 10
7.065895501579488
 20
0.6952207275567057
 30
0.0
 10
7.61297702554381
 20
0.2349556670930009
 30
0.0
 10
8.383300884223955
 20
0.0
 30
0.0
 10
9.213569443892789
 20
0.0
 30
0.0
  0
SPLINE
  5
C9
330
88
100
AcDbEntity
  8
0
  6
Continuous
 62
     8
370
    25
100
AcDbSpline
210
0.0
220
0.0
230
1.0
 70
     8
 71
     3
 72
     8
 73
     4
 74
     0
 42
0.000000001
 43
0.00000001
 40
9.0
 40
9.0
 40
9.0
 40
9.0
 40
10.0
 40
10.0
 40
10.0
 40
10.0
 10
9.213569443892789
 20
0.0
 30
0.0
 10
10.04177094490677
 20
0.0
 30
0.0
 10
10.81002774493217
 20
0.2349556670930009
 30
0.0
 10
11.36331044486089
 20
0.6952207275567057
 30
0.0
  0
SPLINE
  5
CA
330
88
100
AcDbEntity
  8
0
  6
Continuous
 62
     8
370
    25
100
AcDbSpline
210
0.0
220
0.0
230
1.0
 70
     8
 71
     3
 72
     8
 73
     4
 74
     0
 42
0.000000001
 43
0.00000001
 40
10.0
 40
10.0
 40
10.0
 40
10.0
 40
11.0
 40
11.0
 40
11.0
 40
11.0
 10
11.36331044486089
 20
0.6952207275567057
 30
0.0
 10
11.90487981241239
 20
1.156863827123517
 30
0.0
 10
12.2817735071335
 20
1.876889258537517
 30
0.0
 10
12.2817735071335
 20
2.694755466277593
 30
0.0
  0
SPLINE
  5
CB
330
88
100
AcDbEntity
  8
0
  6
Continuous
 62
     8
370
    25
100
AcDbSpline
210
0.0
220
0.0
230
1.0
 70
     8
 71
     3
 72
     8
 73
     4
 74
     0
 42
0.000000001
 43
0.00000001
 40
2.0
 40
2.0
 40
2.0
 40
2.0
 40
3.0
 40
3.0
 40
3.0
 40
3.0
 10
16.57849943086326
 20
0.8722987523158976
 30
0.0
 10
16.38626297596896
 20
0.8722987523158976
 30
0.0
 10
16.229166518206
 20
1.030084229630496
 30
0.0
 10
16.229166518206
 20
1.223009704076405
 30
0.0
  0
SPLINE
  5
CC
330
88
100
AcDbEntity
  8
0
  6
Continuous
 62
     8
370
    25
100
AcDbSpline
210
0.0
220
0.0
230
1.0
 70
     8
 71
     3
 72
     8
 73
     4
 74
     0
 42
0.000000001
 43
0.00000001
 40
5.0
 40
5.0
 40
5.0
 40
5.0
 40
6.0
 40
6.0
 40
6.0
 40
6.0
 10
16.8244794107818
 20
4.823136861146299
 30
0.0
 10
17.14142840451422
 20
4.823136861146299
 30
0.0
 10
17.71951580830017
 20
4.561309431541205
 30
0.0
 10
17.71951580830017
 20
3.723461656804983
 30
0.0
  0
SPLINE
  5
CD
330
88
100
AcDbEntity
  8
0
  6
Continuous
 62
     8
370
    25
100
AcDbSpline
210
0.0
220
0.0
230
1.0
 70
     8
 71
     3
 72
     8
 73
     4
 74
     0
 42
0.000000001
 43
0.00000001
 40
13.0
 40
13.0
 40
13.0
 40
13.0
 40
14.0
 40
14.0
 40
14.0
 40
14.0
 10
13.41865576726081
 20
3.723461656804983
 30
0.0
 10
13.41865576726081
 20
4.561309431541205
 30
0.0
 10
14.00087728835625
 20
4.823136861146299
 30
0.0
 10
14.31369216477929
 20
4.823136861146299
 30
0.0
  0
SPLINE
  5
CE
330
88
100
AcDbEntity
  8
0
  6
Continuous
 62
     8
370
    25
100
AcDbSpline
210
0.0
220
0.0
230
1.0
 70
     8
 71
     3
 72
     8
 73
     4
 74
     0
 42
0.000000001
 43
0.00000001
 40
16.0
 40
16.0
 40
16.0
 40
16.0
 40
17.0
 40
17.0
 40
17.0
 40
17.0
 10
14.91107211600978
 20
1.223009704076405
 30
0.0
 10
14.91107211600978
 20
1.030084229630496
 30
0.0
 10
14.7546646777984
 20
0.8722987523158976
 30
0.0
 10
14.55898312514609
 20
0.8722987523158976
 30
0.0
  0
SPLINE
  5
CF
330
88
100
AcDbEntity
  8
0
  6
Continuous
 62
     8
370
    25
100
AcDbSpline
210
0.0
220
0.0
230
1.0
 70
     8
 71
     3
 72
     8
 73
     4
 74
     0
 42
0.000000001
 43
0.00000001
 40
0.0
 40
0.0
 40
0.0
 40
0.0
 40
1.0
 40
1.0
 40
1.0
 40
1.0
 10
20.3550155931409
 20
2.916619761890421
 30
0.0
 10
20.3550155931409
 20
3.691077737880105
 30
0.0
 10
20.5472520480352
 20
4.182348678165498
 30
0.0
 10
20.79667712571159
 20
4.477938065798604
 30
0.0
  0
SPLINE
  5
D0
330
88
100
AcDbEntity
  8
0
  6
Continuous
 62
     8
370
    25
100
AcDbSpline
210
0.0
220
0.0
230
1.0
 70
     8
 71
     3
 72
     8
 73
     4
 74
     0
 42
0.000000001
 43
0.00000001
 40
1.0
 40
1.0
 40
1.0
 40
1.0
 40
2.0
 40
2.0
 40
2.0
 40
2.0
 10
20.79667712571159
 20
4.477938065798604
 30
0.0
 10
21.23558258007591
 20
5.000214885905574
 30
0.0
 10
21.82676135534206
 20
4.998147827250804
 30
0.0
 10
21.93355938583891
 20
4.998147827250804
 30
0.0
  0
SPLINE
  5
D1
330
88
100
AcDbEntity
  8
0
  6
Continuous
 62
     8
370
    25
100
AcDbSpline
210
0.0
220
0.0
230
1.0
 70
     8
 71
     3
 72
     8
 73
     4
 74
     0
 42
0.000000001
 43
0.00000001
 40
2.0
 40
2.0
 40
2.0
 40
2.0
 40
3.0
 40
3.0
 40
3.0
 40
3.0
 10
21.93355938583891
 20
4.998147827250804
 30
0.0
 10
22.05138172916116
 20
4.998147827250804
 30
0.0
 10
22.62878011339559
 20
5.000214885905574
 30
0.0
 10
23.0718196850695
 20
4.477938065798604
 30
0.0
  0
SPLINE
  5
D2
330
88
100
AcDbEntity
  8
0
  6
Continuous
 62
     8
370
    25
100
AcDbSpline
210
0.0
220
0.0
230
1.0
 70
     8
 71
     3
 72
     8
 73
     4
 74
     0
 42
0.000000001
 43
0.00000001
 40
3.0
 40
3.0
 40
3.0
 40
3.0
 40
4.0
 40
4.0
 40
4.0
 40
4.0
 10
23.0718196850695
 20
4.477938065798604
 30
0.0
 10
23.31779966498787
 20
4.182348678165498
 30
0.0
 10
23.51072513943381
 20
3.691077737880105
 30
0.0
 10
23.51072513943381
 20
2.916619761890421
 30
0.0
  0
SPLINE
  5
D3
330
88
100
AcDbEntity
  8
0
  6
Continuous
 62
     8
370
    25
100
AcDbSpline
210
0.0
220
0.0
230
1.0
 70
     8
 71
     3
 72
     8
 73
     4
 74
     0
 42
0.000000001
 43
0.00000001
 40
5.0
 40
5.0
 40
5.0
 40
5.0
 40
6.0
 40
6.0
 40
6.0
 40
6.0
 10
23.51072513943381
 20
2.780882910226684
 30
0.0
 10
23.51072513943381
 20
2.005735914685308
 30
0.0
 10
23.31779966498787
 20
1.517910072157902
 30
0.0
 10
23.0718196850695
 20
1.223009704076405
 30
0.0
  0
SPLINE
  5
D4
330
88
100
AcDbEntity
  8
0
  6
Continuous
 62
     8
370
    25
100
AcDbSpline
210
0.0
220
0.0
230
1.0
 70
     8
 71
     3
 72
     8
 73
     4
 74
     0
 42
0.000000001
 43
0.00000001
 40
6.0
 40
6.0
 40
6.0
 40
6.0
 40
7.0
 40
7.0
 40
7.0
 40
7.0
 10
23.0718196850695
 20
1.223009704076405
 30
0.0
 10
22.62878011339559
 20
0.6952207275567057
 30
0.0
 10
22.04655859230009
 20
0.6993548448661902
 30
0.0
 10
21.93355938583891
 20
0.6993548448661902
 30
0.0
  0
SPLINE
  5
D5
330
88
100
AcDbEntity
  8
0
  6
Continuous
 62
     8
370
    25
100
AcDbSpline
210
0.0
220
0.0
230
1.0
 70
     8
 71
     3
 72
     8
 73
     4
 74
     0
 42
0.000000001
 43
0.00000001
 40
7.0
 40
7.0
 40
7.0
 40
7.0
 40
8.0
 40
8.0
 40
8.0
 40
8.0
 10
21.93355938583891
 20
0.6993548448661902
 30
0.0
 10
21.82676135534206
 20
0.6993548448661902
 30
0.0
 10
21.23558258007591
 20
0.6952207275567057
 30
0.0
 10
20.79667712571159
 20
1.223009704076405
 30
0.0
  0
SPLINE
  5
D6
330
88
100
AcDbEntity
  8
0
  6
Continuous
 62
     8
370
    25
100
AcDbSpline
210
0.0
220
0.0
230
1.0
 70
     8
 71
     3
 72
     8
 73
     4
 74
     0
 42
0.000000001
 43
0.00000001
 40
8.0
 40
8.0
 40
8.0
 40
8.0
 40
9.0
 40
9.0
 40
9.0
 40
9.0
 10
20.79667712571159
 20
1.223009704076405
 30
0.0
 10
20.5472520480352
 20
1.517910072157902
 30
0.0
 10
20.3550155931409
 20
2.005735914685308
 30
0.0
 10
20.3550155931409
 20
2.780882910226684
 30
0.0
  0
SPLINE
  5
D7
330
88
100
AcDbEntity
  8
0
  6
Continuous
 62
     8
370
    25
100
AcDbSpline
210
0.0
220
0.0
230
1.0
 70
     8
 71
     3
 72
     8
 73
     4
 74
     0
 42
0.000000001
 43
0.00000001
 40
1.0
 40
1.0
 40
1.0
 40
1.0
 40
2.0
 40
2.0
 40
2.0
 40
2.0
 10
24.99969639042476
 20
3.002058186287793
 30
0.0
 10
24.99969639042476
 20
3.822680472234302
 30
0.0
 10
24.62211367615219
 20
4.540638844993506
 30
0.0
 10
24.08054430860068
 20
5.000214885905574
 30
0.0
  0
SPLINE
  5
D8
330
88
100
AcDbEntity
  8
0
  6
Continuous
 62
     8
370
    25
100
AcDbSpline
210
0.0
220
0.0
230
1.0
 70
     8
 71
     3
 72
     8
 73
     4
 74
     0
 42
0.000000001
 43
0.00000001
 40
2.0
 40
2.0
 40
2.0
 40
2.0
 40
3.0
 40
3.0
 40
3.0
 40
3.0
 10
24.08054430860068
 20
5.000214885905574
 30
0.0
 10
23.5320847455332
 20
5.46599210278198
 30
0.0
 10
22.76107186730131
 20
5.700258750323401
 30
0.0
 10
21.93149232718411
 20
5.700258750323401
 30
0.0
  0
SPLINE
  5
D9
330
88
100
AcDbEntity
  8
0
  6
Continuous
 62
     8
370
    25
100
AcDbSpline
210
0.0
220
0.0
230
1.0
 70
     8
 71
     3
 72
     8
 73
     4
 74
     0
 42
0.000000001
 43
0.00000001
 40
3.0
 40
3.0
 40
3.0
 40
3.0
 40
4.0
 40
4.0
 40
4.0
 40
4.0
 10
21.93149232718411
 20
5.700258750323401
 30
0.0
 10
21.10191278706697
 20
5.700258750323401
 30
0.0
 10
20.33227794793829
 20
5.46599210278198
 30
0.0
 10
19.78381838487081
 20
5.000214885905574
 30
0.0
  0
SPLINE
  5
DA
330
88
100
AcDbEntity
  8
0
  6
Continuous
 62
     8
370
    25
100
AcDbSpline
210
0.0
220
0.0
230
1.0
 70
     8
 71
     3
 72
     8
 73
     4
 74
     0
 42
0.000000001
 43
0.00000001
 40
4.0
 40
4.0
 40
4.0
 40
4.0
 40
5.0
 40
5.0
 40
5.0
 40
5.0
 10
19.78381838487081
 20
5.000214885905574
 30
0.0
 10
19.23742588045807
 20
4.540638844993506
 30
0.0
 10
18.86191022484029
 20
3.822680472234302
 30
0.0
 10
18.86191022484029
 20
3.002058186287793
 30
0.0
  0
SPLINE
  5
DB
330
88
100
AcDbEntity
  8
0
  6
Continuous
 62
     8
370
    25
100
AcDbSpline
210
0.0
220
0.0
230
1.0
 70
     8
 71
     3
 72
     8
 73
     4
 74
     0
 42
0.000000001
 43
0.00000001
 40
7.0
 40
7.0
 40
7.0
 40
7.0
 40
8.0
 40
8.0
 40
8.0
 40
8.0
 10
18.86191022484029
 20
2.694755466277593
 30
0.0
 10
18.86191022484029
 20
1.876889258537517
 30
0.0
 10
19.23742588045807
 20
1.156863827123517
 30
0.0
 10
19.78381838487081
 20
0.6952207275567057
 30
0.0
  0
SPLINE
  5
DC
330
88
100
AcDbEntity
  8
0
  6
Continuous
 62
     8
370
    25
100
AcDbSpline
210
0.0
220
0.0
230
1.0
 70
     8
 71
     3
 72
     8
 73
     4
 74
     0
 42
0.000000001
 43
0.00000001
 40
8.0
 40
8.0
 40
8.0
 40
8.0
 40
9.0
 40
9.0
 40
9.0
 40
9.0
 10
19.78381838487081
 20
0.6952207275567057
 30
0.0
 10
20.33227794793829
 20
0.2349556670930009
 30
0.0
 10
21.10191278706697
 20
0.0
 30
0.0
 10
21.93149232718411
 20
0.0
 30
0.0
  0
SPLINE
  5
DD
330
88
100
AcDbEntity
  8
0
  6
Continuous
 62
     8
370
    25
100
AcDbSpline
210
0.0
220
0.0
230
1.0
 70
     8
 71
     3
 72
     8
 73
     4
 74
     0
 42
0.000000001
 43
0.00000001
 40
9.0
 40
9.0
 40
9.0
 40
9.0
 40
10.0
 40
10.0
 40
10.0
 40
10.0
 10
21.93149232718411
 20
0.0
 30
0.0
 10
22.76107186730131
 20
0.0
 30
0.0
 10
23.5320847455332
 20
0.2349556670930009
 30
0.0
 10
24.08054430860068
 20
0.6952207275567057
 30
0.0
  0
SPLINE
  5
DE
330
88
100
AcDbEntity
  8
0
  6
Continuous
 62
     8
370
    25
100
AcDbSpline
210
0.0
220
0.0
230
1.0
 70
     8
 71
     3
 72
     8
 73
     4
 74
     0
 42
0.000000001
 43
0.00000001
 40
10.0
 40
10.0
 40
10.0
 40
10.0
 40
11.0
 40
11.0
 40
11.0
 40
11.0
 10
24.08054430860068
 20
0.6952207275567057
 30
0.0
 10
24.62211367615219
 20
1.156863827123517
 30
0.0
 10
24.99969639042476
 20
1.876889258537517
 30
0.0
 10
24.99969639042476
 20
2.694755466277593
 30
0.0
  0
HATCH
  5
DF
330
88
100
AcDbEntity
  8
0
  6
Continuous
 62
     7
100
AcDbHatch
 10
0.0
 20
0.0
 30
0.0
210
0.0
220
0.0
230
1.0
  2
0_TOTO_Metal
 70
     0
 71
     0
 91
        1
 92
        0
 93
       20
 72
     4
 94
        3
 73
     1
 74
     0
 95
        8
 96
        4
 40
16.0
 40
16.0
 40
16.0
 40
16.0
 40
17.0
 40
17.0
 40
17.0
 40
17.0
 10
2.191771193615299
 20
1.223009704076405
 42
1.0
 10
2.191771193615299
 20
1.030084229630496
 42
1.0
 10
2.03398571630059
 20
0.8722987523158976
 42
1.0
 10
1.841060241854764
 20
0.8722987523158976
 42
1.0
 72
     1
 10
1.841060241854764
 20
0.8722987523158976
 11
1.096230106583496
 21
0.8722987523158976
 72
     1
 10
1.096230106583496
 20
0.8722987523158976
 11
1.096230106583496
 21
0.2149741000967986
 72
     1
 10
1.096230106583496
 20
0.2149741000967986
 11
4.605406682843205
 21
0.2149741000967986
 72
     1
 10
4.605406682843205
 20
0.2149741000967986
 11
4.605406682843205
 21
0.8722987523158976
 72
     1
 10
4.605406682843205
 20
0.8722987523158976
 11
3.860576547571881
 21
0.8722987523158976
 72
     4
 94
        3
 73
     1
 74
     0
 95
        8
 96
        4
 40
2.0
 40
2.0
 40
2.0
 40
2.0
 40
3.0
 40
3.0
 40
3.0
 40
3.0
 10
3.860576547571881
 20
0.8722987523158976
 42
1.0
 10
3.66765107312611
 20
0.8722987523158976
 42
1.0
 10
3.509865595811401
 20
1.030084229630496
 42
1.0
 10
3.509865595811401
 20
1.223009704076405
 42
1.0
 72
     1
 10
3.509865595811401
 20
1.223009704076405
 11
3.509865595811401
 21
4.823136861146299
 72
     1
 10
3.509865595811401
 20
4.823136861146299
 11
4.107245547042004
 21
4.823136861146299
 72
     4
 94
        3
 73
     1
 74
     0
 95
        8
 96
        4
 40
5.0
 40
5.0
 40
5.0
 40
5.0
 40
6.0
 40
6.0
 40
6.0
 40
6.0
 10
4.107245547042004
 20
4.823136861146299
 42
1.0
 10
4.421438462568094
 20
4.823136861146299
 42
1.0
 10
5.002281944560371
 20
4.561309431541205
 42
1.0
 10
5.002281944560371
 20
3.723461656804983
 42
1.0
 72
     1
 10
5.002281944560371
 20
3.723461656804983
 11
5.002281944560371
 21
3.507109517604995
 72
     1
 10
5.002281944560371
 20
3.507109517604995
 11
5.70163678942659
 21
3.507109517604995
 72
     1
 10
5.70163678942659
 20
3.507109517604995
 11
5.70163678942659
 21
5.478394454710683
 72
     1
 10
5.70163678942659
 20
5.478394454710683
 11
0.0
 21
5.478394454710683
 72
     1
 10
0.0
 20
5.478394454710683
 11
0.0
 21
3.507109517604995
 72
     1
 10
0.0
 20
3.507109517604995
 11
0.7007328839694904
 21
3.507109517604995
 72
     1
 10
0.7007328839694904
 20
3.507109517604995
 11
0.7007328839694904
 21
3.723461656804983
 72
     4
 94
        3
 73
     1
 74
     0
 95
        8
 96
        4
 40
13.0
 40
13.0
 40
13.0
 40
13.0
 40
14.0
 40
14.0
 40
14.0
 40
14.0
 10
0.7007328839694904
 20
3.723461656804983
 42
1.0
 10
0.7007328839694904
 20
4.561309431541205
 42
1.0
 10
1.281576365961767
 20
4.823136861146299
 42
1.0
 10
1.593702222833115
 20
4.823136861146299
 42
1.0
 72
     1
 10
1.593702222833115
 20
4.823136861146299
 11
2.191771193615299
 21
4.823136861146299
 72
     1
 10
2.191771193615299
 20
4.823136861146299
 11
2.191771193615299
 21
1.223009704076405
 97
        0
 75
     0
 76
     2
 52
0.0
 41
0.0625
 77
     0
 78
     1
 53
45.00000209717174
 43
0.0
 44
0.0
 45
-0.1324587826340992
 46
0.1324587729374407
 79
     0
 98
        1
 10
0.0
 20
0.0
  0
HATCH
  5
E0
330
88
100
AcDbEntity
  8
0
  6
Continuous
 62
     7
100
AcDbHatch
 10
0.0
 20
0.0
 30
0.0
210
0.0
220
0.0
230
1.0
  2
0_TOTO_Metal
 70
     0
 71
     0
 91
        2
 92
        0
 93
       12
 72
     4
 94
        3
 73
     1
 74
     0
 95
        8
 96
        4
 40
10.0
 40
10.0
 40
10.0
 40
10.0
 40
11.0
 40
11.0
 40
11.0
 40
11.0
 10
11.36331044486089
 20
0.6952207275567057
 42
1.0
 10
11.90487981241239
 20
1.156863827123517
 42
1.0
 10
12.2817735071335
 20
1.876889258537517
 42
1.0
 10
12.2817735071335
 20
2.694755466277593
 42
1.0
 72
     1
 10
12.2817735071335
 20
2.694755466277593
 11
12.2817735071335
 21
2.851851924040694
 72
     1
 10
12.2817735071335
 20
2.851851924040694
 11
12.2817735071335
 21
3.002058186287793
 72
     4
 94
        3
 73
     1
 74
     0
 95
        8
 96
        4
 40
1.0
 40
1.0
 40
1.0
 40
1.0
 40
2.0
 40
2.0
 40
2.0
 40
2.0
 10
12.2817735071335
 20
3.002058186287793
 42
1.0
 10
12.2817735071335
 20
3.822680472234302
 42
1.0
 10
11.90487981241239
 20
4.540638844993506
 42
1.0
 10
11.36331044486089
 20
5.000214885905574
 42
1.0
 72
     4
 94
        3
 73
     1
 74
     0
 95
        8
 96
        4
 40
2.0
 40
2.0
 40
2.0
 40
2.0
 40
3.0
 40
3.0
 40
3.0
 40
3.0
 10
11.36331044486089
 20
5.000214885905574
 42
1.0
 10
10.81002774493217
 20
5.46599210278198
 42
1.0
 10
10.04177094490677
 20
5.700258750323401
 42
1.0
 10
9.213569443892789
 20
5.700258750323401
 42
1.0
 72
     4
 94
        3
 73
     1
 74
     0
 95
        8
 96
        4
 40
3.0
 40
3.0
 40
3.0
 40
3.0
 40
4.0
 40
4.0
 40
4.0
 40
4.0
 10
9.213569443892789
 20
5.700258750323401
 42
1.0
 10
8.383300884223955
 20
5.700258750323401
 42
1.0
 10
7.61297702554381
 20
5.46599210278198
 42
1.0
 10
7.065895501579488
 20
5.000214885905574
 42
1.0
 72
     4
 94
        3
 73
     1
 74
     0
 95
        8
 96
        4
 40
4.0
 40
4.0
 40
4.0
 40
4.0
 40
5.0
 40
5.0
 40
5.0
 40
5.0
 10
7.065895501579488
 20
5.000214885905574
 42
1.0
 10
6.517435938512007
 20
4.540638844993506
 42
1.0
 10
6.140542243790903
 20
3.822680472234302
 42
1.0
 10
6.140542243790903
 20
3.002058186287793
 42
1.0
 72
     1
 10
6.140542243790903
 20
3.002058186287793
 11
6.140542243790903
 21
2.851851924040694
 72
     1
 10
6.140542243790903
 20
2.851851924040694
 11
6.140542243790903
 21
2.694755466277593
 72
     4
 94
        3
 73
     1
 74
     0
 95
        8
 96
        4
 40
7.0
 40
7.0
 40
7.0
 40
7.0
 40
8.0
 40
8.0
 40
8.0
 40
8.0
 10
6.140542243790903
 20
2.694755466277593
 42
1.0
 10
6.140542243790903
 20
1.876889258537517
 42
1.0
 10
6.517435938512007
 20
1.156863827123517
 42
1.0
 10
7.065895501579488
 20
0.6952207275567057
 42
1.0
 72
     4
 94
        3
 73
     1
 74
     0
 95
        8
 96
        4
 40
8.0
 40
8.0
 40
8.0
 40
8.0
 40
9.0
 40
9.0
 40
9.0
 40
9.0
 10
7.065895501579488
 20
0.6952207275567057
 42
1.0
 10
7.61297702554381
 20
0.2349556670930009
 42
1.0
 10
8.383300884223955
 20
0.0
 42
1.0
 10
9.213569443892789
 20
0.0
 42
1.0
 72
     4
 94
        3
 73
     1
 74
     0
 95
        8
 96
        4
 40
9.0
 40
9.0
 40
9.0
 40
9.0
 40
10.0
 40
10.0
 40
10.0
 40
10.0
 10
9.213569443892789
 20
0.0
 42
1.0
 10
10.04177094490677
 20
0.0
 42
1.0
 10
10.81002774493217
 20
0.2349556670930009
 42
1.0
 10
11.36331044486089
 20
0.6952207275567057
 42
1.0
 97
        0
 92
        0
 93
       10
 72
     4
 94
        3
 73
     1
 74
     0
 95
        8
 96
        4
 40
7.0
 40
7.0
 40
7.0
 40
7.0
 40
8.0
 40
8.0
 40
8.0
 40
8.0
 10
9.213569443892789
 20
0.6993548448661902
 42
1.0
 10
9.105393374292781
 20
0.6993548448661902
 42
1.0
 10
8.51421459902657
 20
0.6952207275567057
 42
1.0
 10
8.076687183765364
 20
1.223009704076405
 42
1.0
 72
     4
 94
        3
 73
     1
 74
     0
 95
        8
 96
        4
 40
8.0
 40
8.0
 40
8.0
 40
8.0
 40
9.0
 40
9.0
 40
9.0
 40
9.0
 10
8.076687183765364
 20
1.223009704076405
 42
1.0
 10
7.827951125640553
 20
1.517910072157902
 42
1.0
 10
7.635714670746252
 20
2.005735914685308
 42
1.0
 10
7.635714670746252
 20
2.780882910226684
 42
1.0
 72
     1
 10
7.635714670746252
 20
2.780882910226684
 11
7.635714670746252
 21
2.916619761890421
 72
     4
 94
        3
 73
     1
 74
     0
 95
        8
 96
        4
 40
0.0
 40
0.0
 40
0.0
 40
0.0
 40
1.0
 40
1.0
 40
1.0
 40
1.0
 10
7.635714670746252
 20
2.916619761890421
 42
1.0
 10
7.635714670746252
 20
3.691077737880105
 42
1.0
 10
7.827951125640553
 20
4.182348678165498
 42
1.0
 10
8.076687183765364
 20
4.477938065798604
 42
1.0
 72
     4
 94
        3
 73
     1
 74
     0
 95
        8
 96
        4
 40
1.0
 40
1.0
 40
1.0
 40
1.0
 40
2.0
 40
2.0
 40
2.0
 40
2.0
 10
8.076687183765364
 20
4.477938065798604
 42
1.0
 10
8.51421459902657
 20
5.000214885905574
 42
1.0
 10
9.105393374292781
 20
4.998147827250804
 42
1.0
 10
9.213569443892789
 20
4.998147827250804
 42
1.0
 72
     4
 94
        3
 73
     1
 74
     0
 95
        8
 96
        4
 40
2.0
 40
2.0
 40
2.0
 40
2.0
 40
3.0
 40
3.0
 40
3.0
 40
3.0
 10
9.213569443892789
 20
4.998147827250804
 42
1.0
 10
9.332080806766674
 20
4.998147827250804
 42
1.0
 10
9.908790171449356
 20
5.000214885905574
 42
1.0
 10
10.35320778222648
 20
4.477938065798604
 42
1.0
 72
     4
 94
        3
 73
     1
 74
     0
 95
        8
 96
        4
 40
3.0
 40
3.0
 40
3.0
 40
3.0
 40
4.0
 40
4.0
 40
4.0
 40
4.0
 10
10.35320778222648
 20
4.477938065798604
 42
1.0
 10
10.59780972304175
 20
4.182348678165498
 42
1.0
 10
10.79142421703921
 20
3.691077737880105
 42
1.0
 10
10.79142421703921
 20
2.916619761890421
 42
1.0
 72
     1
 10
10.79142421703921
 20
2.916619761890421
 11
10.79142421703921
 21
2.780882910226684
 72
     4
 94
        3
 73
     1
 74
     0
 95
        8
 96
        4
 40
5.0
 40
5.0
 40
5.0
 40
5.0
 40
6.0
 40
6.0
 40
6.0
 40
6.0
 10
10.79142421703921
 20
2.780882910226684
 42
1.0
 10
10.79142421703921
 20
2.005735914685308
 42
1.0
 10
10.59780972304175
 20
1.517910072157902
 42
1.0
 10
10.35320778222648
 20
1.223009704076405
 42
1.0
 72
     4
 94
        3
 73
     1
 74
     0
 95
        8
 96
        4
 40
6.0
 40
6.0
 40
6.0
 40
6.0
 40
7.0
 40
7.0
 40
7.0
 40
7.0
 10
10.35320778222648
 20
1.223009704076405
 42
1.0
 10
9.908790171449356
 20
0.6952207275567057
 42
1.0
 10
9.327257669905498
 20
0.6993548448661902
 42
1.0
 10
9.213569443892789
 20
0.6993548448661902
 42
1.0
 97
        0
 75
     0
 76
     2
 52
0.0
 41
0.0625
 77
     0
 78
     1
 53
45.00000209717174
 43
0.0
 44
0.0
 45
-0.1324587826340992
 46
0.1324587729374407
 79
     0
 98
        1
 10
0.0
 20
0.0
  0
HATCH
  5
E1
330
88
100
AcDbEntity
  8
0
  6
Continuous
 62
     7
100
AcDbHatch
 10
0.0
 20
0.0
 30
0.0
210
0.0
220
0.0
230
1.0
  2
0_TOTO_Metal
 70
     0
 71
     0
 91
        1
 92
        0
 93
       20
 72
     4
 94
        3
 73
     1
 74
     0
 95
        8
 96
        4
 40
16.0
 40
16.0
 40
16.0
 40
16.0
 40
17.0
 40
17.0
 40
17.0
 40
17.0
 10
14.91107211600978
 20
1.223009704076405
 42
1.0
 10
14.91107211600978
 20
1.030084229630496
 42
1.0
 10
14.7546646777984
 20
0.8722987523158976
 42
1.0
 10
14.55898312514609
 20
0.8722987523158976
 42
1.0
 72
     1
 10
14.55898312514609
 20
0.8722987523158976
 11
13.81759808763278
 21
0.8722987523158976
 72
     1
 10
13.81759808763278
 20
0.8722987523158976
 11
13.81759808763278
 21
0.2149741000967986
 72
     1
 10
13.81759808763278
 20
0.2149741000967986
 11
17.32332956613458
 21
0.2149741000967986
 72
     1
 10
17.32332956613458
 20
0.2149741000967986
 11
17.32332956613458
 21
0.8722987523158976
 72
     1
 10
17.32332956613458
 20
0.8722987523158976
 11
16.57849943086326
 21
0.8722987523158976
 72
     4
 94
        3
 73
     1
 74
     0
 95
        8
 96
        4
 40
2.0
 40
2.0
 40
2.0
 40
2.0
 40
3.0
 40
3.0
 40
3.0
 40
3.0
 10
16.57849943086326
 20
0.8722987523158976
 42
1.0
 10
16.38626297596896
 20
0.8722987523158976
 42
1.0
 10
16.229166518206
 20
1.030084229630496
 42
1.0
 10
16.229166518206
 20
1.223009704076405
 42
1.0
 72
     1
 10
16.229166518206
 20
1.223009704076405
 11
16.229166518206
 21
4.823136861146299
 72
     1
 10
16.229166518206
 20
4.823136861146299
 11
16.8244794107818
 21
4.823136861146299
 72
     4
 94
        3
 73
     1
 74
     0
 95
        8
 96
        4
 40
5.0
 40
5.0
 40
5.0
 40
5.0
 40
6.0
 40
6.0
 40
6.0
 40
6.0
 10
16.8244794107818
 20
4.823136861146299
 42
1.0
 10
17.14142840451422
 20
4.823136861146299
 42
1.0
 10
17.71951580830017
 20
4.561309431541205
 42
1.0
 10
17.71951580830017
 20
3.723461656804983
 42
1.0
 72
     1
 10
17.71951580830017
 20
3.723461656804983
 11
17.71951580830017
 21
3.507109517604995
 72
     1
 10
17.71951580830017
 20
3.507109517604995
 11
18.41955967271797
 21
3.507109517604995
 72
     1
 10
18.41955967271797
 20
3.507109517604995
 11
18.41955967271797
 21
5.478394454710683
 72
     1
 10
18.41955967271797
 20
5.478394454710683
 11
12.71930092239459
 21
5.478394454710683
 72
     1
 10
12.71930092239459
 20
5.478394454710683
 11
12.71930092239459
 21
3.507109517604995
 72
     1
 10
12.71930092239459
 20
3.507109517604995
 11
13.41865576726081
 21
3.507109517604995
 72
     1
 10
13.41865576726081
 20
3.507109517604995
 11
13.41865576726081
 21
3.723461656804983
 72
     4
 94
        3
 73
     1
 74
     0
 95
        8
 96
        4
 40
13.0
 40
13.0
 40
13.0
 40
13.0
 40
14.0
 40
14.0
 40
14.0
 40
14.0
 10
13.41865576726081
 20
3.723461656804983
 42
1.0
 10
13.41865576726081
 20
4.561309431541205
 42
1.0
 10
14.00087728835625
 20
4.823136861146299
 42
1.0
 10
14.31369216477929
 20
4.823136861146299
 42
1.0
 72
     1
 10
14.31369216477929
 20
4.823136861146299
 11
14.91107211600978
 21
4.823136861146299
 72
     1
 10
14.91107211600978
 20
4.823136861146299
 11
14.91107211600978
 21
1.223009704076405
 97
        0
 75
     0
 76
     2
 52
0.0
 41
0.0625
 77
     0
 78
     1
 53
45.00000209717174
 43
0.0
 44
0.0
 45
-0.1324587826340992
 46
0.1324587729374407
 79
     0
 98
        1
 10
0.0
 20
0.0
  0
HATCH
  5
E2
330
88
100
AcDbEntity
  8
0
  6
Continuous
 62
     7
100
AcDbHatch
 10
0.0
 20
0.0
 30
0.0
210
0.0
220
0.0
230
1.0
  2
0_TOTO_Metal
 70
     0
 71
     0
 91
        2
 92
        0
 93
       12
 72
     4
 94
        3
 73
     1
 74
     0
 95
        8
 96
        4
 40
10.0
 40
10.0
 40
10.0
 40
10.0
 40
11.0
 40
11.0
 40
11.0
 40
11.0
 10
24.08054430860068
 20
0.6952207275567057
 42
1.0
 10
24.62211367615219
 20
1.156863827123517
 42
1.0
 10
24.99969639042476
 20
1.876889258537517
 42
1.0
 10
24.99969639042476
 20
2.694755466277593
 42
1.0
 72
     1
 10
24.99969639042476
 20
2.694755466277593
 11
24.99969639042476
 21
2.851851924040694
 72
     1
 10
24.99969639042476
 20
2.851851924040694
 11
24.99969639042476
 21
3.002058186287793
 72
     4
 94
        3
 73
     1
 74
     0
 95
        8
 96
        4
 40
1.0
 40
1.0
 40
1.0
 40
1.0
 40
2.0
 40
2.0
 40
2.0
 40
2.0
 10
24.99969639042476
 20
3.002058186287793
 42
1.0
 10
24.99969639042476
 20
3.822680472234302
 42
1.0
 10
24.62211367615219
 20
4.540638844993506
 42
1.0
 10
24.08054430860068
 20
5.000214885905574
 42
1.0
 72
     4
 94
        3
 73
     1
 74
     0
 95
        8
 96
        4
 40
2.0
 40
2.0
 40
2.0
 40
2.0
 40
3.0
 40
3.0
 40
3.0
 40
3.0
 10
24.08054430860068
 20
5.000214885905574
 42
1.0
 10
23.5320847455332
 20
5.46599210278198
 42
1.0
 10
22.76107186730131
 20
5.700258750323401
 42
1.0
 10
21.93149232718411
 20
5.700258750323401
 42
1.0
 72
     4
 94
        3
 73
     1
 74
     0
 95
        8
 96
        4
 40
3.0
 40
3.0
 40
3.0
 40
3.0
 40
4.0
 40
4.0
 40
4.0
 40
4.0
 10
21.93149232718411
 20
5.700258750323401
 42
1.0
 10
21.10191278706697
 20
5.700258750323401
 42
1.0
 10
20.33227794793829
 20
5.46599210278198
 42
1.0
 10
19.78381838487081
 20
5.000214885905574
 42
1.0
 72
     4
 94
        3
 73
     1
 74
     0
 95
        8
 96
        4
 40
4.0
 40
4.0
 40
4.0
 40
4.0
 40
5.0
 40
5.0
 40
5.0
 40
5.0
 10
19.78381838487081
 20
5.000214885905574
 42
1.0
 10
19.23742588045807
 20
4.540638844993506
 42
1.0
 10
18.86191022484029
 20
3.822680472234302
 42
1.0
 10
18.86191022484029
 20
3.002058186287793
 42
1.0
 72
     1
 10
18.86191022484029
 20
3.002058186287793
 11
18.86191022484029
 21
2.851851924040694
 72
     1
 10
18.86191022484029
 20
2.851851924040694
 11
18.86191022484029
 21
2.694755466277593
 72
     4
 94
        3
 73
     1
 74
     0
 95
        8
 96
        4
 40
7.0
 40
7.0
 40
7.0
 40
7.0
 40
8.0
 40
8.0
 40
8.0
 40
8.0
 10
18.86191022484029
 20
2.694755466277593
 42
1.0
 10
18.86191022484029
 20
1.876889258537517
 42
1.0
 10
19.23742588045807
 20
1.156863827123517
 42
1.0
 10
19.78381838487081
 20
0.6952207275567057
 42
1.0
 72
     4
 94
        3
 73
     1
 74
     0
 95
        8
 96
        4
 40
8.0
 40
8.0
 40
8.0
 40
8.0
 40
9.0
 40
9.0
 40
9.0
 40
9.0
 10
19.78381838487081
 20
0.6952207275567057
 42
1.0
 10
20.33227794793829
 20
0.2349556670930009
 42
1.0
 10
21.10191278706697
 20
0.0
 42
1.0
 10
21.93149232718411
 20
0.0
 42
1.0
 72
     4
 94
        3
 73
     1
 74
     0
 95
        8
 96
        4
 40
9.0
 40
9.0
 40
9.0
 40
9.0
 40
10.0
 40
10.0
 40
10.0
 40
10.0
 10
21.93149232718411
 20
0.0
 42
1.0
 10
22.76107186730131
 20
0.0
 42
1.0
 10
23.5320847455332
 20
0.2349556670930009
 42
1.0
 10
24.08054430860068
 20
0.6952207275567057
 42
1.0
 97
        0
 92
        0
 93
       10
 72
     4
 94
        3
 73
     1
 74
     0
 95
        8
 96
        4
 40
7.0
 40
7.0
 40
7.0
 40
7.0
 40
8.0
 40
8.0
 40
8.0
 40
8.0
 10
21.93355938583891
 20
0.6993548448661902
 42
1.0
 10
21.82676135534206
 20
0.6993548448661902
 42
1.0
 10
21.23558258007591
 20
0.6952207275567057
 42
1.0
 10
20.79667712571159
 20
1.223009704076405
 42
1.0
 72
     4
 94
        3
 73
     1
 74
     0
 95
        8
 96
        4
 40
8.0
 40
8.0
 40
8.0
 40
8.0
 40
9.0
 40
9.0
 40
9.0
 40
9.0
 10
20.79667712571159
 20
1.223009704076405
 42
1.0
 10
20.5472520480352
 20
1.517910072157902
 42
1.0
 10
20.3550155931409
 20
2.005735914685308
 42
1.0
 10
20.3550155931409
 20
2.780882910226684
 42
1.0
 72
     1
 10
20.3550155931409
 20
2.780882910226684
 11
20.3550155931409
 21
2.916619761890421
 72
     4
 94
        3
 73
     1
 74
     0
 95
        8
 96
        4
 40
0.0
 40
0.0
 40
0.0
 40
0.0
 40
1.0
 40
1.0
 40
1.0
 40
1.0
 10
20.3550155931409
 20
2.916619761890421
 42
1.0
 10
20.3550155931409
 20
3.691077737880105
 42
1.0
 10
20.5472520480352
 20
4.182348678165498
 42
1.0
 10
20.79667712571159
 20
4.477938065798604
 42
1.0
 72
     4
 94
        3
 73
     1
 74
     0
 95
        8
 96
        4
 40
1.0
 40
1.0
 40
1.0
 40
1.0
 40
2.0
 40
2.0
 40
2.0
 40
2.0
 10
20.79667712571159
 20
4.477938065798604
 42
1.0
 10
21.23558258007591
 20
5.000214885905574
 42
1.0
 10
21.82676135534206
 20
4.998147827250804
 42
1.0
 10
21.93355938583891
 20
4.998147827250804
 42
1.0
 72
     4
 94
        3
 73
     1
 74
     0
 95
        8
 96
        4
 40
2.0
 40
2.0
 40
2.0
 40
2.0
 40
3.0
 40
3.0
 40
3.0
 40
3.0
 10
21.93355938583891
 20
4.998147827250804
 42
1.0
 10
22.05138172916116
 20
4.998147827250804
 42
1.0
 10
22.62878011339559
 20
5.000214885905574
 42
1.0
 10
23.0718196850695
 20
4.477938065798604
 42
1.0
 72
     4
 94
        3
 73
     1
 74
     0
 95
        8
 96
        4
 40
3.0
 40
3.0
 40
3.0
 40
3.0
 40
4.0
 40
4.0
 40
4.0
 40
4.0
 10
23.0718196850695
 20
4.477938065798604
 42
1.0
 10
23.31779966498787
 20
4.182348678165498
 42
1.0
 10
23.51072513943381
 20
3.691077737880105
 42
1.0
 10
23.51072513943381
 20
2.916619761890421
 42
1.0
 72
     1
 10
23.51072513943381
 20
2.916619761890421
 11
23.51072513943381
 21
2.780882910226684
 72
     4
 94
        3
 73
     1
 74
     0
 95
        8
 96
        4
 40
5.0
 40
5.0
 40
5.0
 40
5.0
 40
6.0
 40
6.0
 40
6.0
 40
6.0
 10
23.51072513943381
 20
2.780882910226684
 42
1.0
 10
23.51072513943381
 20
2.005735914685308
 42
1.0
 10
23.31779966498787
 20
1.517910072157902
 42
1.0
 10
23.0718196850695
 20
1.223009704076405
 42
1.0
 72
     4
 94
        3
 73
     1
 74
     0
 95
        8
 96
        4
 40
6.0
 40
6.0
 40
6.0
 40
6.0
 40
7.0
 40
7.0
 40
7.0
 40
7.0
 10
23.0718196850695
 20
1.223009704076405
 42
1.0
 10
22.62878011339559
 20
0.6952207275567057
 42
1.0
 10
22.04655859230009
 20
0.6993548448661902
 42
1.0
 10
21.93355938583891
 20
0.6993548448661902
 42
1.0
 97
        0
 75
     0
 76
     2
 52
0.0
 41
0.0625
 77
     0
 78
     1
 53
45.00000209717174
 43
0.0
 44
0.0
 45
-0.1324587826340992
 46
0.1324587729374407
 79
     0
 98
        1
 10
0.0
 20
0.0
  0
ENDBLK
  5
8A
330
88
100
AcDbEntity
  8
0
100
AcDbBlockEnd
  0
BLOCK
  5
123
330
122
100
AcDbEntity
  8
0
100
AcDbBlockBegin
  2
SW_NOTE_0
 70
     0
 10
0.0
 20
0.0
 30
0.0
  3
SW_NOTE_0
  1

  0
MTEXT
  5
126
330
122
100
AcDbEntity
  8
DEFAULT_LAYER
 62
     0
100
AcDbMText
 10
0.0
 20
4.0927900738
 30
0.0
 40
3.175
 41
0.0
 71
     1
 72
     1
  1
シャワーエルボ
  7
SLDTEXTSTYLE0
 73
     1
 44
1.0
  0
MTEXT
  5
127
330
122
100
AcDbEntity
  8
DEFAULT_LAYER
 62
     0
100
AcDbMText
 10
0.0
 20
-1.1405433723
 30
0.0
 40
3.175
 41
0.0
 71
     1
 72
     1
  1
角型
  7
SLDTEXTSTYLE0
 73
     1
 44
1.0
  0
ENDBLK
  5
124
330
122
100
AcDbEntity
  8
0
100
AcDbBlockEnd
  0
BLOCK
  5
133
330
132
100
AcDbEntity
  8
0
100
AcDbBlockBegin
  2
SW_NOTE_1
 70
     0
 10
0.0
 20
0.0
 30
0.0
  3
SW_NOTE_1
  1

  0
MTEXT
  5
135
330
132
100
AcDbEntity
  8
0
  6
Continuous
 62
     0
370
     0
100
AcDbMText
 10
0.653125
 20
2.8359490275
 30
0.0
 40
2.2
 41
0.0
 71
     2
 72
     1
  1
R
  7
SLDTEXTSTYLE0
 73
     1
 44
1.0
  0
MTEXT
  5
136
330
132
100
AcDbEntity
  8
0
  6
Continuous
 62
     0
370
     0
100
AcDbMText
 10
0.653125
 20
0.1359489575
 30
0.0
 40
2.2
 41
0.0
 71
     2
 72
     1
  1
E
  7
SLDTEXTSTYLE0
 73
     1
 44
1.0
  0
MTEXT
  5
137
330
132
100
AcDbEntity
  8
0
  6
Continuous
 62
     0
370
     0
100
AcDbMText
 10
0.653125
 20
-2.5640511126
 30
0.0
 40
2.2
 41
0.0
 71
     2
 72
     1
  1
V
  7
SLDTEXTSTYLE0
 73
     1
 44
1.0
  0
MTEXT
  5
138
330
132
100
AcDbEntity
  8
0
  6
Continuous
 62
     0
370
     0
100
AcDbMText
 10
0.653125
 20
-5.2640511826
 30
0.0
 40
2.2
 41
0.0
 71
     2
 72
     1
  1
I
  7
SLDTEXTSTYLE0
 73
     1
 44
1.0
  0
MTEXT
  5
139
330
132
100
AcDbEntity
  8
0
  6
Continuous
 62
     0
370
     0
100
AcDbMText
 10
0.653125
 20
-7.9640512526
 30
0.0
 40
2.2
 41
0.0
 71
     2
 72
     1
  1
S
  7
SLDTEXTSTYLE0
 73
     1
 44
1.0
  0
MTEXT
  5
13A
330
132
100
AcDbEntity
  8
0
  6
Continuous
 62
     0
370
     0
100
AcDbMText
 10
0.653125
 20
-10.6640513227
 30
0.0
 40
2.2
 41
0.0
 71
     2
 72
     1
  1
I
  7
SLDTEXTSTYLE0
 73
     1
 44
1.0
  0
MTEXT
  5
13B
330
132
100
AcDbEntity
  8
0
  6
Continuous
 62
     0
370
     0
100
AcDbMText
 10
0.653125
 20
-13.3640513927
 30
0.0
 40
2.2
 41
0.0
 71
     2
 72
     1
  1
O
  7
SLDTEXTSTYLE0
 73
     1
 44
1.0
  0
MTEXT
  5
13C
330
132
100
AcDbEntity
  8
0
  6
Continuous
 62
     0
370
     0
100
AcDbMText
 10
0.653125
 20
-16.0640514627
 30
0.0
 40
2.2
 41
0.0
 71
     2
 72
     1
  1
N
  7
SLDTEXTSTYLE0
 73
     1
 44
1.0
  0
MTEXT
  5
13D
330
132
100
AcDbEntity
  8
0
  6
Continuous
 62
     0
370
     0
100
AcDbMText
 10
0.653125
 20
-18.7640515328
 30
0.0
 40
2.2
 41
0.0
 71
     2
 72
     1
  1
S
  7
SLDTEXTSTYLE0
 73
     1
 44
1.0
  0
ENDBLK
  5
134
330
132
100
AcDbEntity
  8
0
100
AcDbBlockEnd
  0
BLOCK
  5
16E
330
16D
100
AcDbEntity
  8
0
100
AcDbBlockBegin
  2
_OPEN30
 70
     0
 10
0.0
 20
0.0
 30
0.0
  3
_OPEN30
  1

  0
LINE
  5
170
330
16D
100
AcDbEntity
  8
0
  6
ByBlock
 62
     0
370
    -2
100
AcDbLine
 10
-1.0
 20
0.267949
 30
0.0
 11
0.0
 21
0.0
 31
0.0
  0
LINE
  5
171
330
16D
100
AcDbEntity
  8
0
  6
ByBlock
 62
     0
370
    -2
100
AcDbLine
 10
0.0
 20
0.0
 30
0.0
 11
-1.0
 21
-0.267949
 31
0.0
  0
LINE
  5
172
330
16D
100
AcDbEntity
  8
0
  6
ByBlock
 62
     0
370
    -2
100
AcDbLine
 10
0.0
 20
0.0
 30
0.0
 11
-1.0
 21
0.0
 31
0.0
  0
ENDBLK
  5
16F
330
16D
100
AcDbEntity
  8
0
100
AcDbBlockEnd
  0
BLOCK
  5
174
330
173
100
AcDbEntity
  8
0
100
AcDbBlockBegin
  2
_D
 70
     0
 10
0.0
 20
0.0
 30
0.0
  3
_D
  1

  0
INSERT
  5
176
330
173
100
AcDbEntity
  8
DEFAULT_LAYER
100
AcDbBlockReference
  2
_OPEN30
 10
68.5667037522
 20
166.6180208626
 30
7.5787425817
 41
2.5
 42
2.5
 50
180.0
  0
INSERT
  5
177
330
173
100
AcDbEntity
  8
DEFAULT_LAYER
100
AcDbBlockReference
  2
_OPEN30
 10
123.5667037522
 20
166.6180208626
 30
7.5787425817
 41
2.5
 42
2.5
 50
0.0
  0
LINE
  5
178
330
173
100
AcDbEntity
  8
DEFAULT_LAYER
100
AcDbLine
 10
68.5667037522
 20
151.762209513
 30
0.0
 11
68.5667037522
 21
167.6180208626
 31
0.0
  0
LINE
  5
179
330
173
100
AcDbEntity
  8
DEFAULT_LAYER
100
AcDbLine
 10
123.5667037522
 20
151.762209513
 30
0.0
 11
123.5667037522
 21
167.6180208626
 31
0.0
  0
LINE
  5
17A
330
173
100
AcDbEntity
  8
DEFAULT_LAYER
100
AcDbLine
 10
68.5667037522
 20
166.6180208626
 30
0.0
 11
123.5667037522
 21
166.6180208626
 31
0.0
  0
MTEXT
  5
17B
330
173
100
AcDbEntity
  8
DEFAULT_LAYER
100
AcDbMText
 10
95.1743438467
 20
169.3465474911
 30
0.0
 40
2.1166666667
 41
0.0
 71
     1
 72
     1
  1
55
  7
SLDTEXTSTYLE0
 73
     1
 44
1.0
  0
ENDBLK
  5
175
330
173
100
AcDbEntity
  8
0
100
AcDbBlockEnd
  0
BLOCK
  5
17D
330
17C
100
AcDbEntity
  8
0
100
AcDbBlockBegin
  2
SW_NOTE_2
 70
     0
 10
0.0
 20
0.0
 30
0.0
  3
SW_NOTE_2
  1

  0
MTEXT
  5
17F
330
17C
100
AcDbEntity
  8
DEFAULT_LAYER
 62
     0
100
AcDbMText
 10
0.5849173089
 20
1.0321998664
 30
0.0
 40
3.175
 41
0.0
 71
     1
 72
     1
  1
P
  7
SLDTEXTSTYLE0
 73
     1
 44
1.0
  0
ENDBLK
  5
17E
330
17C
100
AcDbEntity
  8
0
100
AcDbBlockEnd
  0
BLOCK
  5
1A9
330
1A8
100
AcDbEntity
  8
0
100
AcDbBlockBegin
  2
_D_1
 70
     0
 10
0.0
 20
0.0
 30
0.0
  3
_D_1
  1

  0
INSERT
  5
1AB
330
1A8
100
AcDbEntity
  8
DEFAULT_LAYER
100
AcDbBlockReference
  2
_OPEN30
 10
182.8235176221
 20
165.9303028205
 30
0.0
 41
2.5
 42
2.5
 50
180.0
  0
INSERT
  5
1AC
330
1A8
100
AcDbEntity
  8
DEFAULT_LAYER
100
AcDbBlockReference
  2
_OPEN30
 10
224.8235176221
 20
165.9303028205
 30
0.0
 41
2.5
 42
2.5
 50
0.0
  0
LINE
  5
1AD
330
1A8
100
AcDbEntity
  8
DEFAULT_LAYER
100
AcDbLine
 10
182.8235176221
 20
152.962209513
 30
0.0
 11
182.8235176221
 21
166.9303028205
 31
0.0
  0
LINE
  5
1AE
330
1A8
100
AcDbEntity
  8
DEFAULT_LAYER
100
AcDbLine
 10
182.8235176221
 20
165.9303028205
 30
0.0
 11
224.8235176221
 21
165.9303028205
 31
0.0
  0
MTEXT
  5
1AF
330
1A8
100
AcDbEntity
  8
DEFAULT_LAYER
100
AcDbMText
 10
203.8775879991
 20
168.658829449
 30
0.0
 40
2.1166666667
 41
0.0
 71
     1
 72
     1
  1
42
  7
SLDTEXTSTYLE0
 73
     1
 44
1.0
  0
ENDBLK
  5
1AA
330
1A8
100
AcDbEntity
  8
0
100
AcDbBlockEnd
  0
BLOCK
  5
1B2
330
1B1
100
AcDbEntity
  8
0
100
AcDbBlockBegin
  2
_D_2
 70
     0
 10
0.0
 20
0.0
 30
0.0
  3
_D_2
  1

  0
INSERT
  5
1B4
330
1B1
100
AcDbEntity
  8
DEFAULT_LAYER
100
AcDbBlockReference
  2
_OPEN30
 10
166.8235176221
 20
153.762209513
 30
0.0
 41
2.5
 42
2.5
 50
90.0
  0
INSERT
  5
1B5
330
1B1
100
AcDbEntity
  8
DEFAULT_LAYER
100
AcDbBlockReference
  2
_OPEN30
 10
166.8235176221
 20
124.762209513
 30
0.0
 41
2.5
 42
2.5
 50
270.0
  0
LINE
  5
1B6
330
1B1
100
AcDbEntity
  8
DEFAULT_LAYER
100
AcDbLine
 10
188.1428890371
 20
153.762209513
 30
0.0
 11
165.8235176221
 21
153.762209513
 31
0.0
  0
LINE
  5
1B7
330
1B1
100
AcDbEntity
  8
DEFAULT_LAYER
100
AcDbLine
 10
174.0802469108
 20
124.762209513
 30
0.0
 11
165.8235176221
 21
124.762209513
 31
0.0
  0
LINE
  5
1B8
330
1B1
100
AcDbEntity
  8
DEFAULT_LAYER
100
AcDbLine
 10
166.8235176221
 20
153.762209513
 30
0.0
 11
166.8235176221
 21
124.762209513
 31
0.0
  0
MTEXT
  5
1B9
330
1B1
100
AcDbEntity
  8
DEFAULT_LAYER
100
AcDbMText
 10
164.0949909936
 20
138.4390430822
 30
0.0
 40
2.1166666667
 41
0.0
 71
     1
 72
     1
  1
29
  7
SLDTEXTSTYLE0
 11
-7.044195017643634E-15
 21
1.0
 31
0.0
 73
     1
 44
1.0
  0
ENDBLK
  5
1B3
330
1B1
100
AcDbEntity
  8
0
100
AcDbBlockEnd
  0
BLOCK
  5
1BC
330
1BB
100
AcDbEntity
  8
0
100
AcDbBlockBegin
  2
_D_3
 70
     0
 10
0.0
 20
0.0
 30
0.0
  3
_D_3
  1

  0
INSERT
  5
1BE
330
1BB
100
AcDbEntity
  8
DEFAULT_LAYER
100
AcDbBlockReference
  2
_OPEN30
 10
166.8235176221
 20
124.762209513
 30
0.0
 41
2.5
 42
2.5
 50
90.0
  0
INSERT
  5
1BF
330
1BB
100
AcDbEntity
  8
DEFAULT_LAYER
100
AcDbBlockReference
  2
_OPEN30
 10
166.8235176221
 20
98.762209513
 30
0.0
 41
2.5
 42
2.5
 50
270.0
  0
LINE
  5
1C0
330
1BB
100
AcDbEntity
  8
DEFAULT_LAYER
100
AcDbLine
 10
174.0802469108
 20
124.762209513
 30
0.0
 11
165.8235176221
 21
124.762209513
 31
0.0
  0
LINE
  5
1C1
330
1BB
100
AcDbEntity
  8
DEFAULT_LAYER
100
AcDbLine
 10
188.1428890371
 20
98.762209513
 30
0.0
 11
165.8235176221
 21
98.762209513
 31
0.0
  0
LINE
  5
1C2
330
1BB
100
AcDbEntity
  8
DEFAULT_LAYER
100
AcDbLine
 10
166.8235176221
 20
124.762209513
 30
0.0
 11
166.8235176221
 21
98.762209513
 31
0.0
  0
MTEXT
  5
1C3
330
1BB
100
AcDbEntity
  8
DEFAULT_LAYER
100
AcDbMText
 10
164.0949909936
 20
111.9756884883
 30
0.0
 40
2.1166666667
 41
0.0
 71
     1
 72
     1
  1
26
  7
SLDTEXTSTYLE0
 11
-7.044195017643634E-15
 21
1.0
 31
0.0
 73
     1
 44
1.0
  0
ENDBLK
  5
1BD
330
1BB
100
AcDbEntity
  8
0
100
AcDbBlockEnd
  0
BLOCK
  5
1C7
330
1C6
100
AcDbEntity
  8
0
100
AcDbBlockBegin
  2
_D_4
 70
     0
 10
0.0
 20
0.0
 30
0.0
  3
_D_4
  1

  0
INSERT
  5
1C9
330
1C6
100
AcDbEntity
  8
DEFAULT_LAYER
100
AcDbBlockReference
  2
_OPEN30
 10
224.8235176221
 20
165.9303028205
 30
0.0
 41
2.5
 42
2.5
 50
180.0
  0
INSERT
  5
1CA
330
1C6
100
AcDbEntity
  8
DEFAULT_LAYER
100
AcDbBlockReference
  2
_OPEN30
 10
234.4660324587
 20
165.9303028205
 30
0.0
 41
2.5
 42
2.5
 50
0.0
  0
LINE
  5
1CB
330
1C6
100
AcDbEntity
  8
DEFAULT_LAYER
100
AcDbLine
 10
224.8235176221
 20
153.762209513
 30
0.0
 11
224.8235176221
 21
166.9303028205
 31
0.0
  0
LINE
  5
1CC
330
1C6
100
AcDbEntity
  8
DEFAULT_LAYER
100
AcDbLine
 10
234.4660324587
 20
134.077709513
 30
0.0
 11
234.4660324587
 21
166.9303028205
 31
0.0
  0
LINE
  5
1CD
330
1C6
100
AcDbEntity
  8
DEFAULT_LAYER
100
AcDbLine
 10
224.8235176221
 20
165.9303028205
 30
0.0
 11
234.4660324587
 21
165.9303028205
 31
0.0
  0
LINE
  5
1CE
330
1C6
100
AcDbEntity
  8
DEFAULT_LAYER
100
AcDbLine
 10
234.4660324587
 20
165.9303028205
 30
0.0
 11
246.6628301282
 21
165.9303028205
 31
0.0
  0
MTEXT
  5
1CF
330
1C6
100
AcDbEntity
  8
DEFAULT_LAYER
100
AcDbMText
 10
235.3739413758
 20
168.658829449
 30
0.0
 40
2.1166666667
 41
0.0
 71
     1
 72
     1
  1
10.5
  7
SLDTEXTSTYLE0
 73
     1
 44
1.0
  0
MTEXT
  5
1D0
330
1C6
100
AcDbEntity
  8
DEFAULT_LAYER
100
AcDbMText
 10
242.2751565853
 20
168.658829449
 30
0.0
 40
2.1166666667
 41
0.0
 71
     1
 72
     1
  1
±4
  7
SLDTEXTSTYLE0
 73
     1
 44
1.0
  0
ENDBLK
  5
1C8
330
1C6
100
AcDbEntity
  8
0
100
AcDbBlockEnd
  0
BLOCK
  5
1D2
330
1D1
100
AcDbEntity
  8
0
100
AcDbBlockBegin
  2
SW_NOTE_3
 70
     0
 10
0.0
 20
0.0
 30
0.0
  3
SW_NOTE_3
  1

  0
LINE
  5
1D4
330
1D1
100
AcDbEntity
  8
DEFAULT_LAYER
 62
     0
100
AcDbLine
 10
5.4464245743
 20
0.0
 30
0.0
 11
0.0
 21
0.0
 31
0.0
  0
MTEXT
  5
1D5
330
1D1
100
AcDbEntity
  8
DEFAULT_LAYER
 62
     0
100
AcDbMText
 10
0.3897727897
 20
2.8414481812
 30
0.0
 40
2.1166666667
 41
0.0
 71
     1
 72
     1
  1
G1/2
  7
SLDTEXTSTYLE0
 73
     1
 44
1.0
  0
ENDBLK
  5
1D3
330
1D1
100
AcDbEntity
  8
0
100
AcDbBlockEnd
  0
BLOCK
  5
24C
330
24B
100
AcDbEntity
  8
0
100
AcDbBlockBegin
  2
SW_NOTE_4
 70
     0
 10
0.0
 20
0.0
 30
0.0
  3
SW_NOTE_4
  1

  0
LINE
  5
24E
330
24B
100
AcDbEntity
  8
DEFAULT_LAYER
 62
     0
100
AcDbLine
 10
-5.8424641782
 20
0.0
 30
0.0
 11
0.0
 21
0.0
 31
0.0
  0
MTEXT
  5
24F
330
24B
100
AcDbEntity
  8
DEFAULT_LAYER
 62
     0
100
AcDbMText
 10
-6.3219910253
 20
2.926103953
 30
0.0
 40
2.1166666667
 41
0.0
 71
     1
 72
     1
  1
TOTO
  7
SLDTEXTSTYLE0
 73
     1
 44
1.0
  0
ENDBLK
  5
24D
330
24B
100
AcDbEntity
  8
0
100
AcDbBlockEnd
  0
BLOCK
  5
316
330
315
100
AcDbEntity
  8
0
100
AcDbBlockBegin
  2
_D_5
 70
     0
 10
0.0
 20
0.0
 30
0.0
  3
_D_5
  1

  0
INSERT
  5
318
330
315
100
AcDbEntity
  8
DEFAULT_LAYER
100
AcDbBlockReference
  2
_OPEN30
 10
145.9964286088
 20
55.4296709292
 30
0.0
 41
2.5
 42
2.5
 50
90.0
  0
INSERT
  5
319
330
315
100
AcDbEntity
  8
DEFAULT_LAYER
100
AcDbBlockReference
  2
_OPEN30
 10
145.9964286088
 20
31.6721857658
 30
0.0
 41
2.5
 42
2.5
 50
270.0
  0
LINE
  5
31A
330
315
100
AcDbEntity
  8
DEFAULT_LAYER
100
AcDbLine
 10
109.0442037522
 20
55.4296709292
 30
0.0
 11
146.9964286088
 21
55.4296709292
 31
0.0
  0
LINE
  5
31B
330
315
100
AcDbEntity
  8
DEFAULT_LAYER
100
AcDbLine
 10
135.7572098835
 20
31.6721857658
 30
0.0
 11
146.9964286088
 21
31.6721857658
 31
0.0
  0
LINE
  5
31C
330
315
100
AcDbEntity
  8
DEFAULT_LAYER
100
AcDbLine
 10
145.9964286088
 20
55.4296709292
 30
0.0
 11
145.9964286088
 21
31.6721857658
 31
0.0
  0
MTEXT
  5
31D
330
315
100
AcDbEntity
  8
DEFAULT_LAYER
100
AcDbMText
 10
143.2679019803
 20
39.4166490563
 30
0.0
 40
2.1166666667
 41
0.0
 71
     1
 72
     1
  1
23
  7
SLDTEXTSTYLE0
 11
-7.044195017643634E-15
 21
1.0
 31
0.0
 73
     1
 44
1.0
  0
MTEXT
  5
31E
330
315
100
AcDbEntity
  8
DEFAULT_LAYER
100
AcDbMText
 10
143.2679019803
 20
43.4956420778
 30
0.0
 40
2.1166666667
 41
0.0
 71
     1
 72
     1
  1
±4
  7
SLDTEXTSTYLE0
 11
-7.044195017643634E-15
 21
1.0
 31
0.0
 73
     1
 44
1.0
  0
ENDBLK
  5
317
330
315
100
AcDbEntity
  8
0
100
AcDbBlockEnd
  0
BLOCK
  5
321
330
320
100
AcDbEntity
  8
0
100
AcDbBlockBegin
  2
SW_NOTE_5
 70
     0
 10
0.0
 20
0.0
 30
0.0
  3
SW_NOTE_5
  1

  0
LINE
  5
323
330
320
100
AcDbEntity
  8
DEFAULT_LAYER
 62
     0
100
AcDbLine
 10
5.4464245743
 20
0.0
 30
0.0
 11
0.0
 21
0.0
 31
0.0
  0
MTEXT
  5
324
330
320
100
AcDbEntity
  8
DEFAULT_LAYER
 62
     0
100
AcDbMText
 10
0.384376698
 20
2.6707692976
 30
0.0
 40
2.1166666667
 41
0.0
 71
     1
 72
     1
  1
G1/2
  7
SLDTEXTSTYLE0
 73
     1
 44
1.0
  0
ENDBLK
  5
322
330
320
100
AcDbEntity
  8
0
100
AcDbBlockEnd
  0
BLOCK
  5
32B
330
32A
100
AcDbEntity
  8
0
100
AcDbBlockBegin
  2
SW_CENTERMARKSYMBOL_0
 70
     0
 10
0.0
 20
0.0
 30
0.0
  3
SW_CENTERMARKSYMBOL_0
  1

  0
LINE
  5
32D
330
32A
100
AcDbEntity
  8
DEFAULT_LAYER
 62
     0
100
AcDbLine
 10
0.0
 20
0.0
 30
0.0
 11
0.0
 21
2.5
 31
0.0
  0
LINE
  5
32E
330
32A
100
AcDbEntity
  8
DEFAULT_LAYER
 62
     0
100
AcDbLine
 10
0.0
 20
0.0
 30
0.0
 11
-2.5
 21
0.0
 31
0.0
  0
LINE
  5
32F
330
32A
100
AcDbEntity
  8
DEFAULT_LAYER
 62
     0
100
AcDbLine
 10
0.0
 20
0.0
 30
0.0
 11
0.0
 21
-2.5
 31
0.0
  0
LINE
  5
330
330
32A
100
AcDbEntity
  8
DEFAULT_LAYER
 62
     0
100
AcDbLine
 10
0.0
 20
0.0
 30
0.0
 11
2.5
 21
0.0
 31
0.0
  0
LINE
  5
331
330
32A
100
AcDbEntity
  8
DEFAULT_LAYER
 62
     0
100
AcDbLine
 10
0.0
 20
5.0
 30
0.0
 11
0.0
 21
12.9775
 31
0.0
  0
LINE
  5
332
330
32A
100
AcDbEntity
  8
DEFAULT_LAYER
 62
     0
100
AcDbLine
 10
-5.0
 20
0.0
 30
0.0
 11
-12.9775
 21
0.0
 31
0.0
  0
LINE
  5
333
330
32A
100
AcDbEntity
  8
DEFAULT_LAYER
 62
     0
100
AcDbLine
 10
0.0
 20
-5.0
 30
0.0
 11
0.0
 21
-12.9775
 31
0.0
  0
LINE
  5
334
330
32A
100
AcDbEntity
  8
DEFAULT_LAYER
 62
     0
100
AcDbLine
 10
5.0
 20
0.0
 30
0.0
 11
12.9775
 21
0.0
 31
0.0
  0
ENDBLK
  5
32C
330
32A
100
AcDbEntity
  8
0
100
AcDbBlockEnd
  0
ENDSEC
  0
SECTION
  2
ENTITIES
  0
HATCH
  5
E3
330
1F
100
AcDbEntity
  8
0
  6
Continuous
 62
     7
100
AcDbHatch
 10
0.0
 20
0.0
 30
0.0
210
0.0
220
0.0
230
1.0
  2
0_TOTO_Metal
 70
     0
 71
     0
 91
        1
 92
        0
 93
        1
 72
     2
 10
210.0
 20
288.5
 40
0.6999999999999784
 50
0.0
 51
360.0
 73
     1
 97
        0
 75
     0
 76
     2
 52
0.0
 41
0.0625
 77
     0
 78
     1
 53
45.00000209717174
 43
0.0
 44
0.0
 45
-0.1324587826340992
 46
0.1324587729374407
 79
     0
 98
        1
 10
0.0
 20
0.0
  0
HATCH
  5
E4
330
1F
100
AcDbEntity
  8
0
  6
Continuous
 62
     7
100
AcDbHatch
 10
0.0
 20
0.0
 30
0.0
210
0.0
220
0.0
230
1.0
  2
0_TOTO_Metal
 70
     0
 71
     0
 91
        1
 92
        0
 93
        1
 72
     2
 10
315.0
 20
288.5
 40
0.7000000000000339
 50
0.0
 51
360.0
 73
     1
 97
        0
 75
     0
 76
     2
 52
0.0
 41
0.03125
 77
     0
 78
     1
 53
45.00000209717174
 43
0.0
 44
0.0
 45
-0.0662293913170496
 46
0.0662293864687203
 79
     0
 98
        1
 10
0.0
 20
0.0
  0
HATCH
  5
E5
330
1F
100
AcDbEntity
  8
0
  6
Continuous
 62
     7
100
AcDbHatch
 10
0.0
 20
0.0
 30
0.0
210
0.0
220
0.0
230
1.0
  2
0_TOTO_Metal
 70
     0
 71
     0
 91
        1
 92
        0
 93
        1
 72
     2
 10
315.0000000000001
 20
8.49999999999999
 40
0.7000000000000174
 50
0.0
 51
360.0
 73
     1
 97
        0
 75
     0
 76
     2
 52
0.0
 41
0.03125
 77
     0
 78
     1
 53
45.00000209717174
 43
0.0
 44
0.0
 45
-0.0662293913170496
 46
0.0662293864687203
 79
     0
 98
        1
 10
0.0
 20
0.0
  0
LINE
  5
E6
330
1F
100
AcDbEntity
  8
0
  6
Continuous
 62
     7
370
    25
100
AcDbLine
 10
328.0
 20
50.0
 30
0.0
 11
328.0
 21
10.0
 31
0.0
  0
LINE
  5
E7
330
1F
100
AcDbEntity
  8
0
  6
Continuous
 62
     7
370
    25
100
AcDbLine
 10
410.0
 20
10.0
 30
0.0
 11
410.0
 21
287.0
 31
0.0
  0
LINE
  5
E8
330
1F
100
AcDbEntity
  8
0
  6
Continuous
 62
     7
370
    25
100
AcDbLine
 10
378.0
 20
269.5
 30
0.0
 11
410.0
 21
269.5
 31
0.0
  0
LINE
  5
E9
330
1F
100
AcDbEntity
  8
0
  6
Continuous
 62
     7
370
    25
100
AcDbLine
 10
314.0
 20
50.0
 30
0.0
 11
314.0
 21
39.0
 31
0.0
  0
LINE
  5
EA
330
1F
100
AcDbEntity
  8
0
  6
Continuous
 62
     7
370
    25
100
AcDbLine
 10
20.0
 20
287.0
 30
0.0
 11
20.0
 21
291.5
 31
0.0
  0
LINE
  5
EB
330
1F
100
AcDbEntity
  8
0
  6
Continuous
 62
     7
370
    25
100
AcDbLine
 10
370.0
 20
50.0
 30
0.0
 11
370.0
 21
68.5
 31
0.0
  0
LINE
  5
EC
330
1F
100
AcDbEntity
  8
0
  6
Continuous
 62
     7
370
    25
100
AcDbLine
 10
210.0
 20
10.0
 30
0.0
 11
210.0
 21
15.0
 31
0.0
  0
LINE
  5
ED
330
1F
100
AcDbEntity
  8
0
  6
Continuous
 62
     7
370
    25
100
AcDbLine
 10
370.0
 20
68.5
 30
0.0
 11
410.0
 21
68.5
 31
0.0
  0
LINE
  5
EE
330
1F
100
AcDbEntity
  8
0
  6
Continuous
 62
     7
370
    25
100
AcDbLine
 10
210.0
 20
287.0
 30
0.0
 11
210.0
 21
282.0
 31
0.0
  0
LINE
  5
EF
330
1F
100
AcDbEntity
  8
0
  6
Continuous
 62
     7
370
    25
100
AcDbLine
 10
378.0
 20
282.0
 30
0.0
 11
410.0
 21
282.0
 31
0.0
  0
LINE
  5
F0
330
1F
100
AcDbEntity
  8
0
  6
Continuous
 62
     7
370
    25
100
AcDbLine
 10
240.0
 20
31.5
 30
0.0
 11
306.0
 21
31.5
 31
0.0
  0
LINE
  5
F1
330
1F
100
AcDbEntity
  8
0
  6
Continuous
 62
     7
370
    25
100
AcDbLine
 10
378.0
 20
277.0
 30
0.0
 11
410.0
 21
277.0
 31
0.0
  0
LINE
  5
F2
330
1F
100
AcDbEntity
  8
0
  6
Continuous
 62
     7
370
    25
100
AcDbLine
 10
378.0
 20
262.0
 30
0.0
 11
378.0
 21
287.0
 31
0.0
  0
LINE
  5
F3
330
1F
100
AcDbEntity
  8
0
  6
Continuous
 62
     7
370
    25
100
AcDbLine
 10
235.0
 20
287.0
 30
0.0
 11
235.0
 21
262.0
 31
0.0
  0
LINE
  5
F4
330
1F
100
AcDbEntity
  8
0
  6
Continuous
 62
     7
370
    25
100
AcDbLine
 10
230.0
 20
287.0
 30
0.0
 11
230.0
 21
262.0
 31
0.0
  0
LINE
  5
F5
330
1F
100
AcDbEntity
  8
0
  6
HIDDEN
 62
     7
370
    25
100
AcDbLine
 10
235.0
 20
272.0
 30
0.0
 11
378.0
 21
272.0
 31
0.0
  0
LINE
  5
F6
330
1F
100
AcDbEntity
  8
0
  6
HIDDEN
 62
     7
370
    25
100
AcDbLine
 10
235.0
 20
267.0
 30
0.0
 11
378.0
 21
267.0
 31
0.0
  0
LINE
  5
F7
330
1F
100
AcDbEntity
  8
0
  6
Continuous
 62
     7
370
    25
100
AcDbLine
 10
230.0
 20
262.0
 30
0.0
 11
410.0
 21
262.0
 31
0.0
  0
LINE
  5
F8
330
1F
100
AcDbEntity
  8
0
  6
Continuous
 62
     7
370
    25
100
AcDbLine
 10
20.0
 20
291.5
 30
0.0
 11
45.0
 21
291.5
 31
0.0
  0
LINE
  5
F9
330
1F
100
AcDbEntity
  8
0
  6
Continuous
 62
     7
370
    25
100
AcDbLine
 10
45.0
 20
291.5
 30
0.0
 11
45.0
 21
287.0
 31
0.0
  0
LINE
  5
FA
330
1F
100
AcDbEntity
  8
0
  6
Continuous
 62
     7
370
    25
100
AcDbLine
 10
286.0
 20
50.0
 30
0.0
 11
286.0
 21
39.0
 31
0.0
  0
LINE
  5
FB
330
1F
100
AcDbEntity
  8
0
  6
Continuous
 62
     7
370
    25
100
AcDbLine
 10
209.318682
 20
8.339447
 30
0.0
 11
210.160553
 21
9.181318
 31
0.0
  0
LINE
  5
FC
330
1F
100
AcDbEntity
  8
0
  6
Continuous
 62
     7
370
    25
100
AcDbLine
 10
210.0
 20
287.0
 30
0.0
 11
210.0
 21
297.0
 31
0.0
  0
LINE
  5
FD
330
1F
100
AcDbEntity
  8
0
  6
Continuous
 62
     7
370
    25
100
AcDbLine
 10
210.054152
 20
7.802124
 30
0.0
 11
210.697876
 21
8.445848
 31
0.0
  0
LINE
  5
FE
330
1F
100
AcDbEntity
  8
0
  6
Continuous
 62
     7
370
    25
100
AcDbLine
 10
20.0
 20
287.0
 30
0.0
 11
410.0
 21
287.0
 31
0.0
  0
LINE
  5
FF
330
1F
100
AcDbEntity
  8
0
  6
Continuous
 62
     7
370
    25
100
AcDbLine
 10
209.696842
 20
7.869078
 30
0.0
 11
210.630922
 21
8.803158
 31
0.0
  0
LINE
  5
100
330
1F
100
AcDbEntity
  8
0
  6
Continuous
 62
     7
370
    25
100
AcDbLine
 10
410.0
 20
10.0
 30
0.0
 11
20.0
 21
10.0
 31
0.0
  0
LINE
  5
101
330
1F
100
AcDbEntity
  8
0
  6
Continuous
 62
     7
370
    25
100
AcDbLine
 10
209.353157
 20
8.2325
 30
0.0
 11
210.2675
 21
9.146843
 31
0.0
  0
LINE
  5
102
330
1F
100
AcDbEntity
  8
0
  6
Continuous
 62
     7
370
    25
100
AcDbLine
 10
410.0
 20
50.0
 30
0.0
 11
240.0
 21
50.0
 31
0.0
  0
LINE
  5
103
330
1F
100
AcDbEntity
  8
0
  6
Continuous
 62
     7
370
    25
100
AcDbLine
 10
25.0
 20
148.5
 30
0.0
 11
0.0
 21
148.5
 31
0.0
  0
LINE
  5
104
330
1F
100
AcDbEntity
  8
0
  6
Continuous
 62
     7
370
    25
100
AcDbLine
 10
240.0
 20
39.0
 30
0.0
 11
328.0
 21
39.0
 31
0.0
  0
LINE
  5
105
330
1F
100
AcDbEntity
  8
0
  6
Continuous
 62
     7
370
    25
100
AcDbLine
 10
20.0
 20
10.0
 30
0.0
 11
20.0
 21
287.0
 31
0.0
  0
LINE
  5
106
330
1F
100
AcDbEntity
  8
0
  6
Continuous
 62
     7
370
    25
100
AcDbLine
 10
410.0
 20
27.0
 30
0.0
 11
328.0
 21
27.0
 31
0.0
  0
LINE
  5
107
330
1F
100
AcDbEntity
  8
0
  6
Continuous
 62
     7
370
    25
100
AcDbLine
 10
405.0
 20
148.5
 30
0.0
 11
420.0
 21
148.5
 31
0.0
  0
LINE
  5
108
330
1F
100
AcDbEntity
  8
0
  6
Continuous
 62
     7
370
    25
100
AcDbLine
 10
306.0
 20
39.0
 30
0.0
 11
306.0
 21
24.0
 31
0.0
  0
LINE
  5
109
330
1F
100
AcDbEntity
  8
0
  6
Continuous
 62
     7
370
    25
100
AcDbLine
 10
209.309165
 20
8.612772
 30
0.0
 11
209.887228
 21
9.190835
 31
0.0
  0
LINE
  5
10A
330
1F
100
AcDbEntity
  8
0
  6
Continuous
 62
     7
370
    25
100
AcDbLine
 10
209.607054
 20
7.920712
 30
0.0
 11
210.579288
 21
8.892946
 31
0.0
  0
LINE
  5
10B
330
1F
100
AcDbEntity
  8
0
  6
Continuous
 62
     7
370
    25
100
AcDbLine
 10
209.459151
 20
8.055651
 30
0.0
 11
210.444349
 21
9.040849
 31
0.0
  0
LINE
  5
10C
330
1F
100
AcDbEntity
  8
0
  6
Continuous
 62
     7
370
    25
100
AcDbLine
 10
240.0
 20
50.0
 30
0.0
 11
240.0
 21
10.0
 31
0.0
  0
LINE
  5
10D
330
1F
100
AcDbEntity
  8
0
  6
Continuous
 62
     7
370
    25
100
AcDbLine
 10
210.233608
 20
7.840159
 30
0.0
 11
210.659841
 21
8.266392
 31
0.0
  0
LINE
  5
10E
330
1F
100
AcDbEntity
  8
0
  6
Continuous
 62
     7
370
    25
100
AcDbLine
 10
209.400579
 20
8.138501
 30
0.0
 11
210.361499
 21
9.099421
 31
0.0
  0
LINE
  5
10F
330
1F
100
AcDbEntity
  8
0
  6
Continuous
 62
     7
370
    25
100
AcDbLine
 10
398.0
 20
10.0
 30
0.0
 11
398.0
 21
18.5
 31
0.0
  0
LINE
  5
110
330
1F
100
AcDbEntity
  8
0
  6
Continuous
 62
     7
370
    25
100
AcDbLine
 10
240.0
 20
24.0
 30
0.0
 11
328.0
 21
24.0
 31
0.0
  0
LINE
  5
111
330
1F
100
AcDbEntity
  8
0
  6
Continuous
 62
     7
370
    25
100
AcDbLine
 10
272.0
 20
24.0
 30
0.0
 11
272.0
 21
39.0
 31
0.0
  0
LINE
  5
112
330
1F
100
AcDbEntity
  8
0
  6
Continuous
 62
     7
370
    25
100
AcDbLine
 10
209.915708
 20
7.805102
 30
0.0
 11
210.694898
 21
8.584292
 31
0.0
  0
LINE
  5
113
330
1F
100
AcDbEntity
  8
0
  6
Continuous
 62
     7
370
    25
100
AcDbLine
 10
210.0
 20
10.0
 30
0.0
 11
210.0
 21
0.0
 31
0.0
  0
LINE
  5
114
330
1F
100
AcDbEntity
  8
0
  6
Continuous
 62
     7
370
    25
100
AcDbLine
 10
300.0
 20
50.0
 30
0.0
 11
300.0
 21
39.0
 31
0.0
  0
LINE
  5
115
330
1F
100
AcDbEntity
  8
0
  6
Continuous
 62
     7
370
    25
100
AcDbLine
 10
209.300972
 20
8.463158
 30
0.0
 11
210.036842
 21
9.199028
 31
0.0
  0
LINE
  5
116
330
1F
100
AcDbEntity
  8
0
  6
Continuous
 62
     7
370
    25
100
AcDbLine
 10
410.0
 20
18.5
 30
0.0
 11
328.0
 21
18.5
 31
0.0
  0
LINE
  5
117
330
1F
100
AcDbEntity
  8
0
  6
Continuous
 62
     7
370
    25
100
AcDbLine
 10
209.798759
 20
7.829574
 30
0.0
 11
210.670426
 21
8.701241
 31
0.0
  0
LINE
  5
118
330
1F
100
AcDbEntity
  8
0
  6
Continuous
 62
     7
370
    25
100
AcDbLine
 10
209.380129
 20
8.825158
 30
0.0
 11
209.674842
 21
9.119871
 31
0.0
  0
LINE
  5
119
330
1F
100
AcDbEntity
  8
0
  6
Continuous
 62
     7
370
    25
100
AcDbLine
 10
209.528014
 20
7.983093
 30
0.0
 11
210.516907
 21
8.971986
 31
0.0
  0
LINE
  5
11A
330
1F
100
AcDbEntity
  8
0
  6
HIDDEN
 62
     7
370
    25
100
AcDbLine
 10
235.0
 20
282.0
 30
0.0
 11
378.0
 21
282.0
 31
0.0
  0
LINE
  5
11B
330
1F
100
AcDbEntity
  8
0
  6
HIDDEN
 62
     7
370
    25
100
AcDbLine
 10
235.0
 20
277.0
 30
0.0
 11
378.0
 21
277.0
 31
0.0
  0
CIRCLE
  5
11C
330
1F
100
AcDbEntity
  8
0
  6
Continuous
 62
     7
370
    25
100
AcDbCircle
 10
315.0
 20
8.5
 30
0.0
 40
0.6999999999999975
  0
CIRCLE
  5
11D
330
1F
100
AcDbEntity
  8
0
  6
Continuous
 62
     7
370
    25
100
AcDbCircle
 10
315.0
 20
288.5
 30
0.0
 40
0.7000000000000455
  0
CIRCLE
  5
11E
330
1F
100
AcDbEntity
  8
0
  6
Continuous
 62
     7
370
    25
100
AcDbCircle
 10
210.0
 20
288.5
 30
0.0
 40
0.6999999999999602
  0
CIRCLE
  5
11F
330
1F
100
AcDbEntity
  8
0
  6
Continuous
 62
     7
370
    25
100
AcDbCircle
 10
210.0
 20
8.5
 30
0.0
 40
0.6999999999999602
  0
INSERT
  5
120
330
1F
100
AcDbEntity
  8
LOGO
100
AcDbBlockReference
  2
ﾌﾞﾛｯｸ5
 10
250.6568067551
 20
41.4848012428
 30
0.0
  0
INSERT
  5
121
330
1F
100
AcDbEntity
  8
0
  6
Continuous
 62
     7
100
AcDbBlockReference
  2
ﾌﾞﾛｯｸ7
 10
287.4
 20
41.9
 30
0.0
  0
INSERT
  5
128
330
1F
100
AcDbEntity
  8
DEFAULT_LAYER
100
AcDbBlockReference
  2
SW_NOTE_0
 10
345.8926530197
 20
38.3727993672
 30
0.0
  0
MTEXT
  5
129
330
1F
100
AcDbEntity
  8
DEFAULT_LAYER
100
AcDbMText
 10
354.547540366
 20
16.1487169092
 30
0.0
 40
3.175
 41
0.0
 71
     1
 72
     1
  1
TBW08009
  7
SLDTEXTSTYLE0
 73
     1
 44
1.0
  0
MTEXT
  5
12A
330
1F
100
AcDbEntity
  8
DEFAULT_LAYER
100
AcDbMText
 10
250.8959365753
 20
35.8199316528
 30
0.0
 40
2.1166666667
 41
0.0
 71
     1
 72
     1
  1
岡本
  7
SLDTEXTSTYLE0
 73
     1
 44
1.0
  0
MTEXT
  5
12B
330
1F
100
AcDbEntity
  8
DEFAULT_LAYER
100
AcDbMText
 10
283.681073283
 20
35.8199316528
 30
0.0
 40
2.1166666667
 41
0.0
 71
     1
 72
     1
  1
岩男
  7
SLDTEXTSTYLE0
 73
     1
 44
1.0
  0
MTEXT
  5
12C
330
1F
100
AcDbEntity
  8
DEFAULT_LAYER
100
AcDbMText
 10
250.8959365753
 20
28.910100231
 30
0.0
 40
2.1166666667
 41
0.0
 71
     1
 72
     1
  1
小薗
  7
SLDTEXTSTYLE0
 73
     1
 44
1.0
  0
MTEXT
  5
12D
330
1F
100
AcDbEntity
  8
DEFAULT_LAYER
100
AcDbMText
 10
283.681073283
 20
28.910100231
 30
0.0
 40
2.1166666667
 41
0.0
 71
     1
 72
     1
  1
芝田
  7
SLDTEXTSTYLE0
 73
     1
 44
1.0
  0
MTEXT
  5
12E
330
1F
100
AcDbEntity
  8
0
  6
Continuous
 62
     7
370
     0
100
AcDbMText
 10
378.3689681642
 20
286.1612523228
 30
0.0
 40
2.5
 41
0.0
 71
     1
 72
     1
  1
REV.NO
  7
SLDTEXTSTYLE0
 73
     1
 44
1.0
  0
MTEXT
  5
12F
330
1F
100
AcDbEntity
  8
0
  6
Continuous
 62
     7
370
     0
100
AcDbMText
 10
378.3658588642
 20
281.2712982284
 30
0.0
 40
2.5
 41
0.0
 71
     1
 72
     1
  1
DATE
  7
SLDTEXTSTYLE0
 73
     1
 44
1.0
  0
MTEXT
  5
130
330
1F
100
AcDbEntity
  8
0
  6
Continuous
 62
     7
370
     0
100
AcDbMText
 10
378.3658588642
 20
277.0683627146
 30
0.0
 40
2.5
 41
0.0
 71
     1
 72
     1
  1
DS.BY
  7
SLDTEXTSTYLE0
 73
     1
 44
1.0
  0
MTEXT
  5
131
330
1F
100
AcDbEntity
  8
0
  6
Continuous
 62
     7
370
     0
100
AcDbMText
 10
378.3906460572
 20
269.5791272083
 30
0.0
 40
2.5
 41
0.0
 71
     1
 72
     1
  1
CH.BY
  7
SLDTEXTSTYLE0
 73
     1
 44
1.0
  0
INSERT
  5
13E
330
1F
100
AcDbEntity
  8
0
  6
Continuous
 62
     7
370
     0
100
AcDbBlockReference
  2
SW_NOTE_1
 10
231.7145551078
 20
283.9911451355
 30
0.0
  0
MTEXT
  5
13F
330
1F
100
AcDbEntity
  8
0
  6
Continuous
 62
     7
370
     0
100
AcDbMText
 10
407.2196387195
 20
9.0891905269
 30
0.0
 40
2.5
 41
0.0
 71
     1
 72
     1
  1
A3
  7
SLDTEXTSTYLE0
 73
     1
 44
1.0
  0
MTEXT
  5
140
330
1F
100
AcDbEntity
  8
0
  6
Continuous
 62
     7
370
     0
100
AcDbMText
 10
21.8497624408
 20
291.2293635269
 30
0.0
 40
3.0
 41
0.0
 71
     1
 72
     1
  1
CONFIDENTIAL
  7
SLDTEXTSTYLE0
 73
     1
 44
1.0
  0
MTEXT
  5
141
330
1F
100
AcDbEntity
  8
0
  6
Continuous
 62
     7
370
     0
100
AcDbMText
 10
398.3417137658
 20
18.5731820894
 30
0.0
 40
2.5
 41
0.0
 71
     1
 72
     1
  1
PAGE
  7
SLDTEXTSTYLE0
 73
     1
 44
1.0
  0
MTEXT
  5
142
330
1F
100
AcDbEntity
  8
0
  6
Continuous
 62
     7
370
     0
100
AcDbMText
 10
328.3644834083
 20
50.0730110094
 30
0.0
 40
2.5
 41
0.0
 71
     1
 72
     1
  1
TITLE
  7
SLDTEXTSTYLE0
 73
     1
 44
1.0
  0
MTEXT
  5
143
330
1F
100
AcDbEntity
  8
0
  6
Continuous
 62
     7
370
     0
100
AcDbMText
 10
328.3638097261
 20
18.5732069919
 30
0.0
 40
2.5
 41
0.0
 71
     1
 72
     1
  1
DRAWING NO.
  7
SLDTEXTSTYLE0
 73
     1
 44
1.0
  0
MTEXT
  5
144
330
1F
100
AcDbEntity
  8
0
  6
Continuous
 62
     7
370
     0
100
AcDbMText
 10
306.3641561632
 20
39.0707213285
 30
0.0
 40
2.5
 41
0.0
 71
     1
 72
     1
  1
DATE
  7
SLDTEXTSTYLE0
 73
     1
 44
1.0
  0
MTEXT
  5
145
330
1F
100
AcDbEntity
  8
0
  6
Continuous
 62
     7
370
     0
100
AcDbMText
 10
300.365304593
 20
50.0718888249
 30
0.0
 40
2.5
 41
0.0
 71
     1
 72
     1
  1
UNIT
  7
SLDTEXTSTYLE0
 73
     1
 44
1.0
  0
MTEXT
  5
146
330
1F
100
AcDbEntity
  8
0
  6
Continuous
 62
     7
370
     0
100
AcDbMText
 10
314.388127961
 20
50.0705338539
 30
0.0
 40
2.5
 41
0.0
 71
     1
 72
     1
  1
SCALE
  7
SLDTEXTSTYLE0
 73
     1
 44
1.0
  0
MTEXT
  5
147
330
1F
100
AcDbEntity
  8
0
  6
Continuous
 62
     7
370
     0
100
AcDbMText
 10
272.4638995124
 20
31.5690558399
 30
0.0
 40
2.5
 41
0.0
 71
     1
 72
     1
  1
AP.BY
  7
SLDTEXTSTYLE0
 73
     1
 44
1.0
  0
MTEXT
  5
148
330
1F
100
AcDbEntity
  8
0
  6
Continuous
 62
     7
370
     0
100
AcDbMText
 10
240.3869600063
 20
31.5725040447
 30
0.0
 40
2.5
 41
0.0
 71
     1
 72
     1
  1
CH.BY
  7
SLDTEXTSTYLE0
 73
     1
 44
1.0
  0
MTEXT
  5
149
330
1F
100
AcDbEntity
  8
0
  6
Continuous
 62
     7
370
     0
100
AcDbMText
 10
272.3653612469
 20
39.0704699215
 30
0.0
 40
2.5
 41
0.0
 71
     1
 72
     1
  1
DS.BY
  7
SLDTEXTSTYLE0
 73
     1
 44
1.0
  0
MTEXT
  5
14A
330
1F
100
AcDbEntity
  8
0
  6
Continuous
 62
     7
370
     0
100
AcDbMText
 10
240.3670967154
 20
39.0698671351
 30
0.0
 40
2.5
 41
0.0
 71
     1
 72
     1
  1
DR.BY
  7
SLDTEXTSTYLE0
 73
     1
 44
1.0
  0
MTEXT
  5
14B
330
1F
100
AcDbEntity
  8
0
  6
Continuous
 62
     7
370
     0
100
AcDbMText
 10
240.3906156425
 20
24.0730489075
 30
0.0
 40
2.5
 41
0.0
 71
     1
 72
     1
  1
COMMENTS
  7
SLDTEXTSTYLE0
 73
     1
 44
1.0
  0
MTEXT
  5
14C
330
1F
100
AcDbEntity
  8
0
  6
Continuous
 62
     7
370
     0
100
AcDbMText
 10
328.0371947157
 20
27.072287341
 30
0.0
 40
2.5
 41
0.0
 71
     1
 72
     1
  1
ITEM NO.
  7
SLDTEXTSTYLE0
 73
     1
 44
1.0
  0
MTEXT
  5
14D
330
1F
100
AcDbEntity
  8
0
  6
Continuous
 62
     7
370
     0
100
AcDbMText
 10
302.6517362517
 20
45.8859945588
 30
0.0
 40
3.5
 41
0.0
 71
     1
 72
     1
  1
ｍｍ
  7
SLDTEXTSTYLE0
 73
     1
 44
1.0
  0
MTEXT
  5
14E
330
1F
100
AcDbEntity
  8
0
  6
Continuous
 62
     7
370
     0
100
AcDbMText
 10
321.0903304816
 20
45.4360993895
 30
0.0
 40
3.5
 41
0.0
 71
     2
 72
     1
  1
1:1
  7
SLDTEXTSTYLE0
 73
     1
 44
1.0
  0
MTEXT
  5
14F
330
1F
100
AcDbEntity
  8
0
  6
Continuous
 62
     7
370
     0
100
AcDbMText
 10
317.2178479074
 20
32.4989359241
 30
0.0
 40
3.5
 41
0.0
 71
     2
 72
     1
  1
2021/12/21
  7
SLDTEXTSTYLE0
 73
     1
 44
1.0
  0
MTEXT
  5
150
330
1F
100
AcDbEntity
  8
0
  6
Continuous
 62
     7
370
     0
100
AcDbMText
 10
405.9431973506
 20
15.0868071218
 30
0.0
 40
3.5
 41
0.0
 71
     1
 72
     1
  1
1
  7
SLDTEXTSTYLE0
 73
     1
 44
1.0
  0
MTEXT
  5
151
330
1F
100
AcDbEntity
  8
0
  6
Continuous
 62
     7
370
     0
100
AcDbMText
 10
400.3097798698
 20
15.0868071218
 30
0.0
 40
3.5
 41
0.0
 71
     1
 72
     1
  1
1
  7
SLDTEXTSTYLE0
 73
     1
 44
1.0
  0
MTEXT
  5
152
330
1F
100
AcDbEntity
  8
0
  6
Continuous
 62
     7
370
     0
100
AcDbMText
 10
403.3709836287
 20
14.3546296644
 30
0.0
 40
2.5
 41
0.0
 71
     1
 72
     1
  1
/
  7
SLDTEXTSTYLE0
 73
     1
 44
1.0
  0
LINE
  5
153
330
1F
100
AcDbEntity
  8
0
  6
Continuous
 62
     7
370
    25
100
AcDbLine
 10
121.5667032754
 20
98.7622089766
 30
0.0
 11
70.566704229
 21
98.7622089766
 31
0.0
  0
LINE
  5
154
330
1F
100
AcDbEntity
  8
0
  6
Continuous
 62
     7
370
    25
100
AcDbLine
 10
70.566704229
 20
153.7622086785
 30
0.0
 11
121.5667032754
 21
153.7622086785
 31
0.0
  0
SPLINE
  5
155
330
1F
100
AcDbEntity
  8
0
  6
Continuous
 62
     7
370
    25
100
AcDbSpline
210
0.0
220
0.0
230
1.0
 70
     8
 71
     3
 72
    12
 73
     8
 74
     0
 42
0.000000001
 43
0.00000001
 40
0.0
 40
0.0
 40
0.0
 40
0.0
 40
0.2291698939019428
 40
0.4603126492882004
 40
0.6874689666264684
 40
0.9026525370994491
 40
1.0
 40
1.0
 40
1.0
 40
1.0
 10
121.5667032753502
 20
98.762208976556
 30
0.0
 10
121.8039661385407
 20
98.78681731212113
 30
0.0
 10
122.2805343965844
 20
98.83624582974053
 30
0.0
 10
122.9066852487247
 20
99.22203524967092
 30
0.0
 10
123.354083234806
 20
99.77861206793845
 30
0.0
 10
123.5464615272961
 20
100.3295848418416
 30
0.0
 10
123.5618960449637
 20
100.6594596012382
 30
0.0
 10
123.5667036031758
 20
100.7622093043815
 30
0.0
  0
SPLINE
  5
156
330
1F
100
AcDbEntity
  8
0
  6
Continuous
 62
     7
370
    25
100
AcDbSpline
210
0.0
220
0.0
230
1.0
 70
     8
 71
     3
 72
    12
 73
     8
 74
     0
 42
0.000000001
 43
0.00000001
 40
0.0
 40
0.0
 40
0.0
 40
0.0
 40
0.2291698939019428
 40
0.4603126492882004
 40
0.6874689666264684
 40
0.9026525370994491
 40
1.0
 40
1.0
 40
1.0
 40
1.0
 10
70.56670422902457
 20
98.762208976556
 30
0.0
 10
70.3294413658341
 20
98.78681731212113
 30
0.0
 10
69.85287310779044
 20
98.83624582974053
 30
0.0
 10
69.22672225565009
 20
99.22203524967092
 30
0.0
 10
68.77932426956885
 20
99.77861206793845
 30
0.0
 10
68.58694597707874
 20
100.3295848418416
 30
0.0
 10
68.57151145941114
 20
100.6594596012382
 30
0.0
 10
68.56670390119902
 20
100.7622093043815
 30
0.0
  0
SPLINE
  5
157
330
1F
100
AcDbEntity
  8
0
  6
Continuous
 62
     7
370
    25
100
AcDbSpline
210
0.0
220
0.0
230
1.0
 70
     8
 71
     3
 72
    12
 73
     8
 74
     0
 42
0.000000001
 43
0.00000001
 40
0.0
 40
0.0
 40
0.0
 40
0.0
 40
0.2014210744582366
 40
0.4009192321295402
 40
0.6036603854602315
 40
0.8168296453832461
 40
1.0
 40
1.0
 40
1.0
 40
1.0
 10
68.56670390119902
 20
151.7622102133524
 30
0.0
 10
68.5866665729131
 20
151.9757806984212
 30
0.0
 10
68.62640133769075
 20
152.4008827643774
 30
0.0
 10
68.93526856015357
 20
152.9737826228803
 30
0.0
 10
69.39803299839596
 20
153.4270866405478
 30
0.0
 10
69.96757710669515
 20
153.7123350045212
 30
0.0
 10
70.3773333237797
 20
153.746444707176
 30
0.0
 10
70.56670422902457
 20
153.7622086785328
 30
0.0
  0
SPLINE
  5
158
330
1F
100
AcDbEntity
  8
0
  6
Continuous
 62
     7
370
    25
100
AcDbSpline
210
0.0
220
0.0
230
1.0
 70
     8
 71
     3
 72
    12
 73
     8
 74
     0
 42
0.000000001
 43
0.00000001
 40
0.0
 40
0.0
 40
0.0
 40
0.0
 40
0.2014210744582366
 40
0.4009192321295402
 40
0.6036603854602315
 40
0.8168296453832461
 40
1.0
 40
1.0
 40
1.0
 40
1.0
 10
123.5667036031758
 20
151.7622102133524
 30
0.0
 10
123.5467409314617
 20
151.9757806984212
 30
0.0
 10
123.5070061666841
 20
152.4008827643774
 30
0.0
 10
123.1981389442213
 20
152.9737826228803
 30
0.0
 10
122.7353745059789
 20
153.4270866405478
 30
0.0
 10
122.1658303976797
 20
153.7123350045212
 30
0.0
 10
121.7560741805951
 20
153.746444707176
 30
0.0
 10
121.5667032753502
 20
153.7622086785328
 30
0.0
  0
LINE
  5
159
330
1F
100
AcDbEntity
  8
0
  6
Continuous
 62
     7
370
    25
100
AcDbLine
 10
68.5667039012
 20
100.7622093044
 30
0.0
 11
68.5667039012
 21
151.7622102134
 31
0.0
  0
LINE
  5
15A
330
1F
100
AcDbEntity
  8
0
  6
Continuous
 62
     7
370
    25
100
AcDbLine
 10
123.5667036032
 20
100.7622093044
 30
0.0
 11
123.5667036032
 21
151.7622102134
 31
0.0
  0
LINE
  5
15B
330
1F
100
AcDbEntity
  8
0
  6
Continuous
 62
     8
370
    18
100
AcDbLine
 10
69.078832597
 20
151.7622102134
 30
0.0
 11
69.078832597
 21
100.7622093044
 31
0.0
  0
SPLINE
  5
15C
330
1F
100
AcDbEntity
  8
0
  6
Continuous
 62
     8
370
    18
100
AcDbSpline
210
0.0
220
0.0
230
1.0
 70
     8
 71
     3
 72
    12
 73
     8
 74
     0
 42
0.000000001
 43
0.00000001
 40
0.0
 40
0.0
 40
0.0
 40
0.0
 40
0.187397864211989
 40
0.4039705282386692
 40
0.6069947243505739
 40
0.8036128077911541
 40
0.9999999999999999
 40
0.9999999999999999
 40
0.9999999999999999
 40
0.9999999999999999
 10
70.29177035441748
 20
152.9622100375187
 30
0.0
 10
70.17704026640932
 20
152.9527916125365
 30
0.0
 10
69.92971848154045
 20
152.9324884669738
 30
0.0
 10
69.58544746788527
 20
152.7627996412511
 30
0.0
 10
69.3043085152809
 20
152.4916938461303
 30
0.0
 10
69.11550546446827
 20
152.1475177402502
 30
0.0
 10
69.09105209738834
 20
151.8905957416224
 30
0.0
 10
69.07883259704462
 20
151.7622102133524
 30
0.0
  0
LINE
  5
15D
330
1F
100
AcDbEntity
  8
0
  6
Continuous
 62
     8
370
    18
100
AcDbLine
 10
121.84163715
 20
152.9622100375
 30
0.0
 11
70.2917703544
 21
152.9622100375
 31
0.0
  0
SPLINE
  5
15E
330
1F
100
AcDbEntity
  8
0
  6
Continuous
 62
     8
370
    18
100
AcDbSpline
210
0.0
220
0.0
230
1.0
 70
     8
 71
     3
 72
    12
 73
     8
 74
     0
 42
0.000000001
 43
0.00000001
 40
0.0
 40
0.0
 40
0.0
 40
0.0
 40
0.187397864211989
 40
0.4039705282386692
 40
0.6069947243505739
 40
0.8036128077911541
 40
0.9999999999999999
 40
0.9999999999999999
 40
0.9999999999999999
 40
0.9999999999999999
 10
121.8416371499573
 20
152.9622100375187
 30
0.0
 10
121.9563672379655
 20
152.9527916125365
 30
0.0
 10
122.2036890228344
 20
152.9324884669738
 30
0.0
 10
122.5479600364895
 20
152.7627996412511
 30
0.0
 10
122.8290989890939
 20
152.4916938461303
 30
0.0
 10
123.0179020399065
 20
152.1475177402502
 30
0.0
 10
123.0423554069865
 20
151.8905957416224
 30
0.0
 10
123.0545749073302
 20
151.7622102133524
 30
0.0
  0
LINE
  5
15F
330
1F
100
AcDbEntity
  8
0
  6
Continuous
 62
     8
370
    18
100
AcDbLine
 10
123.0545749073
 20
151.7622102134
 30
0.0
 11
123.0545749073
 21
100.7622093044
 31
0.0
  0
SPLINE
  5
160
330
1F
100
AcDbEntity
  8
0
  6
Continuous
 62
     8
370
    18
100
AcDbSpline
210
0.0
220
0.0
230
1.0
 70
     8
 71
     3
 72
    12
 73
     8
 74
     0
 42
0.000000001
 43
0.00000001
 40
0.0
 40
0.0
 40
0.0
 40
0.0
 40
0.094799423068239
 40
0.3055401407714109
 40
0.5315941933499493
 40
0.7656459933014528
 40
1.0
 40
1.0
 40
1.0
 40
1.0
 10
123.0545749073302
 20
100.7622093043815
 30
0.0
 10
123.0516561329419
 20
100.700529342823
 30
0.0
 10
123.0422488738193
 20
100.5017337855567
 30
0.0
 10
122.9239808752398
 20
100.1688714653029
 30
0.0
 10
122.6512485114662
 20
99.83551739007088
 30
0.0
 10
122.2724283990946
 20
99.60615660055241
 30
0.0
 10
121.985295983841
 20
99.57686481983234
 30
0.0
 10
121.8416371499573
 20
99.56220948021524
 30
0.0
  0
LINE
  5
161
330
1F
100
AcDbEntity
  8
0
  6
Continuous
 62
     8
370
    18
100
AcDbLine
 10
70.2917703544
 20
99.5622094802
 30
0.0
 11
121.84163715
 21
99.5622094802
 31
0.0
  0
SPLINE
  5
162
330
1F
100
AcDbEntity
  8
0
  6
Continuous
 62
     8
370
    18
100
AcDbSpline
210
0.0
220
0.0
230
1.0
 70
     8
 71
     3
 72
    12
 73
     8
 74
     0
 42
0.000000001
 43
0.00000001
 40
0.0
 40
0.0
 40
0.0
 40
0.0
 40
0.094799423068239
 40
0.3055401407714109
 40
0.5315941933499493
 40
0.7656459933014528
 40
1.0
 40
1.0
 40
1.0
 40
1.0
 10
69.07883259704462
 20
100.7622093043815
 30
0.0
 10
69.08175137143292
 20
100.700529342823
 30
0.0
 10
69.09115863055554
 20
100.5017337855567
 30
0.0
 10
69.20942662913507
 20
100.1688714653029
 30
0.0
 10
69.48215899290861
 20
99.83551739007088
 30
0.0
 10
69.86097910528026
 20
99.60615660055241
 30
0.0
 10
70.1481115205338
 20
99.57686481983234
 30
0.0
 10
70.29177035441748
 20
99.56220948021524
 30
0.0
  0
LWPOLYLINE
  5
163
330
1F
100
AcDbEntity
  8
0
  6
Continuous
 62
     8
370
    18
100
AcDbPolyline
 90
        9
 70
   128
 43
0.0
 10
70.2917703544
 20
99.5622094802
 10
70.2970546787
 20
99.4061365805
 10
70.3126990353
 20
99.2560632608
 10
70.3381055151
 20
99.1177525453
 10
70.3722962295
 20
98.9965241484
 10
70.4139598762
 20
98.897034683
 10
70.4614908551
 20
98.8231062971
 10
70.5130674993
 20
98.777581387
 10
70.566704229
 20
98.7622089766
  0
LWPOLYLINE
  5
164
330
1F
100
AcDbEntity
  8
0
  6
Continuous
 62
     8
370
    18
100
AcDbPolyline
 90
        9
 70
   128
 43
0.0
 10
121.84163715
 20
99.5622094802
 10
121.8363528257
 20
99.4061365805
 10
121.8207084691
 20
99.2560632608
 10
121.7953019892
 20
99.1177525453
 10
121.7611112749
 20
98.9965241484
 10
121.7194476282
 20
98.897034683
 10
121.6719166492
 20
98.8231062971
 10
121.6203400051
 20
98.777581387
 10
121.5667032754
 20
98.7622089766
  0
LWPOLYLINE
  5
165
330
1F
100
AcDbEntity
  8
0
  6
Continuous
 62
     8
370
    18
100
AcDbPolyline
 90
        9
 70
   128
 43
0.0
 10
70.2917703544
 20
152.9622100375
 10
70.2970546787
 20
153.1182810746
 10
70.3126990353
 20
153.2683562569
 10
70.3381055151
 20
153.4066651098
 10
70.3722962295
 20
153.5278953693
 10
70.4139598762
 20
153.6273848347
 10
70.4614908551
 20
153.7013132207
 10
70.5130674993
 20
153.7468381308
 10
70.566704229
 20
153.7622086785
  0
LWPOLYLINE
  5
166
330
1F
100
AcDbEntity
  8
0
  6
Continuous
 62
     8
370
    18
100
AcDbPolyline
 90
        9
 70
   128
 43
0.0
 10
121.84163715
 20
152.9622100375
 10
121.8363528257
 20
153.1182810746
 10
121.8207084691
 20
153.2683562569
 10
121.7953019892
 20
153.4066651098
 10
121.7611112749
 20
153.5278953693
 10
121.7194476282
 20
153.6273848347
 10
121.6719166492
 20
153.7013132207
 10
121.6203400051
 20
153.7468381308
 10
121.5667032754
 20
153.7622086785
  0
LINE
  5
167
330
1F
100
AcDbEntity
  8
0
  6
Continuous
 62
     8
370
    18
100
AcDbLine
 10
123.0545749073
 20
100.7622093044
 30
0.0
 11
123.5667036032
 21
100.7622093044
 31
0.0
  0
LINE
  5
168
330
1F
100
AcDbEntity
  8
0
  6
Continuous
 62
     8
370
    18
100
AcDbLine
 10
69.078832597
 20
100.7622093044
 30
0.0
 11
68.5667039012
 21
100.7622093044
 31
0.0
  0
LINE
  5
169
330
1F
100
AcDbEntity
  8
0
  6
Continuous
 62
     8
370
    18
100
AcDbLine
 10
69.078832597
 20
151.7622102134
 30
0.0
 11
68.5667039012
 21
151.7622102134
 31
0.0
  0
LINE
  5
16A
330
1F
100
AcDbEntity
  8
0
  6
Continuous
 62
     8
370
    18
100
AcDbLine
 10
123.0545749073
 20
151.7622102134
 30
0.0
 11
123.5667036032
 21
151.7622102134
 31
0.0
  0
DIMENSION
  5
16B
330
1F
100
AcDbEntity
  8
DEFAULT_LAYER
100
AcDbDimension
  2
_D
 10
123.5667037522
 20
166.6180208626
 30
0.0
 11
96.5854549408
 21
166.6180208626
 31
0.0
 70
   160
  1
<>
 71
     2
 42
-1.0
  3
SLDDIMSTYLE0
100
AcDbAlignedDimension
 13
68.5667037522
 23
151.762209513
 33
0.0
 14
123.5667037522
 24
151.762209513
 34
0.0
100
AcDbRotatedDimension
  0
INSERT
  5
180
330
1F
100
AcDbEntity
  8
DEFAULT_LAYER
100
AcDbBlockReference
  2
SW_NOTE_2
 10
105.8366336634
 20
89.1654030282
 30
0.0
  0
LINE
  5
181
330
1F
100
AcDbEntity
  8
DEFAULT_LAYER
100
AcDbLine
 10
105.8366336634
 20
89.1654030282
 30
0.0
 11
105.8815661085
 21
93.8572421091
 31
0.0
  0
INSERT
  5
182
330
1F
100
AcDbEntity
  8
DEFAULT_LAYER
100
AcDbBlockReference
  2
_OPEN30
 10
105.8815661085
 20
93.8572421091
 30
0.0
 41
2.5
 42
2.5
 50
89.451310941
  0
LINE
  5
183
330
1F
100
AcDbEntity
  8
DEFAULT_LAYER
  6
CENTERX2
370
    18
100
AcDbLine
 10
96.0667037522
 20
93.6235396617
 30
0.0
 11
96.0667037522
 21
158.9797813324
 31
0.0
  0
LINE
  5
184
330
1F
100
AcDbEntity
  8
0
  6
Continuous
 62
     7
370
    25
100
AcDbLine
 10
182.8235168352
 20
152.9622100375
 30
0.0
 11
182.8235168352
 21
99.5622094802
 31
0.0
  0
ARC
  5
185
330
1F
100
AcDbEntity
  8
0
  6
Continuous
 62
     7
370
    25
100
AcDbCircle
 10
183.6235176221
 20
152.962209513
 30
0.0
 40
0.8000000000000114
100
AcDbArc
 50
90.0
 51
180.0
  0
ARC
  5
186
330
1F
100
AcDbEntity
  8
0
  6
Continuous
 62
     7
370
    25
100
AcDbCircle
 10
183.6235176221
 20
99.562209513
 30
0.0
 40
0.8000000000000114
100
AcDbArc
 50
180.0
 51
270.0
  0
LINE
  5
187
330
1F
100
AcDbEntity
  8
0
  6
Continuous
 62
     7
370
    25
100
AcDbLine
 10
233.3040316
 20
114.2847094766
 30
0.0
 11
234.4660316004
 21
115.4467094771
 31
0.0
  0
LINE
  5
188
330
1F
100
AcDbEntity
  8
0
  6
Continuous
 62
     7
370
    25
100
AcDbLine
 10
234.4660316004
 20
134.0777095489
 30
0.0
 11
233.3040316
 21
135.2397095494
 31
0.0
  0
LINE
  5
189
330
1F
100
AcDbEntity
  8
0
  6
Continuous
 62
     7
370
    25
100
AcDbLine
 10
233.3040316
 20
135.2397095494
 30
0.0
 11
224.8235181316
 21
135.2397095494
 31
0.0
  0
LINE
  5
18A
330
1F
100
AcDbEntity
  8
0
  6
Continuous
 62
     7
370
    25
100
AcDbLine
 10
224.8235181316
 20
114.2847094766
 30
0.0
 11
233.3040316
 21
114.2847094766
 31
0.0
  0
LINE
  5
18B
330
1F
100
AcDbEntity
  8
0
  6
Continuous
 62
     7
370
    25
100
AcDbLine
 10
224.8235181316
 20
153.7622086785
 30
0.0
 11
188.1428886547
 21
153.7622086785
 31
0.0
  0
LINE
  5
18C
330
1F
100
AcDbEntity
  8
0
  6
Continuous
 62
     7
370
    25
100
AcDbLine
 10
224.8235181316
 20
151.7622102134
 30
0.0
 11
224.8235181316
 21
153.7622086785
 31
0.0
  0
LINE
  5
18D
330
1F
100
AcDbEntity
  8
0
  6
Continuous
 62
     7
370
    25
100
AcDbLine
 10
224.8235181316
 20
151.7622102134
 30
0.0
 11
224.8235181316
 21
100.7622093044
 31
0.0
  0
LINE
  5
18E
330
1F
100
AcDbEntity
  8
0
  6
Continuous
 62
     7
370
    25
100
AcDbLine
 10
188.1428886547
 20
98.7622089766
 30
0.0
 11
224.8235181316
 21
98.7622089766
 31
0.0
  0
LINE
  5
18F
330
1F
100
AcDbEntity
  8
0
  6
Continuous
 62
     7
370
    25
100
AcDbLine
 10
224.8235181316
 20
98.7622089766
 30
0.0
 11
224.8235181316
 21
100.7622093044
 31
0.0
  0
LINE
  5
190
330
1F
100
AcDbEntity
  8
0
  6
Continuous
 62
     7
370
    25
100
AcDbLine
 10
183.6235173388
 20
153.7622086785
 30
0.0
 11
188.1428886547
 21
153.7622086785
 31
0.0
  0
LINE
  5
191
330
1F
100
AcDbEntity
  8
0
  6
Continuous
 62
     7
370
    25
100
AcDbLine
 10
188.1428886547
 20
98.7622089766
 30
0.0
 11
183.6235173388
 21
98.7622089766
 31
0.0
  0
LINE
  5
192
330
1F
100
AcDbEntity
  8
0
  6
Continuous
 62
     7
370
    25
100
AcDbLine
 10
234.4660316004
 20
134.0777095489
 30
0.0
 11
234.4660316004
 21
115.4467094771
 31
0.0
  0
LINE
  5
193
330
1F
100
AcDbEntity
  8
0
  6
Continuous
 62
     7
370
    25
100
AcDbLine
 10
234.4660316004
 20
124.762209513
 30
0.0
 11
234.4660316004
 21
134.0777095489
 31
0.0
  0
LINE
  5
194
330
1F
100
AcDbEntity
  8
0
  6
Continuous
 62
     7
370
    25
100
AcDbLine
 10
234.4660316004
 20
115.4467094771
 30
0.0
 11
234.4660316004
 21
124.762209513
 31
0.0
  0
LINE
  5
195
330
1F
100
AcDbEntity
  8
0
  6
Continuous
 62
     7
370
    25
100
AcDbLine
 10
233.3040316
 20
124.762209513
 30
0.0
 11
233.3040316
 21
135.2397095494
 31
0.0
  0
LINE
  5
196
330
1F
100
AcDbEntity
  8
0
  6
Continuous
 62
     7
370
    25
100
AcDbLine
 10
233.3040316
 20
114.2847094766
 30
0.0
 11
233.3040316
 21
124.762209513
 31
0.0
  0
SPLINE
  5
197
330
1F
100
AcDbEntity
  8
0
  6
Continuous
 62
     8
370
    18
100
AcDbSpline
210
0.0
220
0.0
230
1.0
 70
     8
 71
     3
 72
    12
 73
     8
 74
     0
 42
0.000000001
 43
0.00000001
 40
0.0
 40
0.0
 40
0.0
 40
0.0
 40
0.2014210744582366
 40
0.4009192321295402
 40
0.6036603854602315
 40
0.8168296453832461
 40
1.0
 40
1.0
 40
1.0
 40
1.0
 10
188.5938275947156
 20
151.7622102133524
 30
0.0
 10
188.5892024957425
 20
151.9757806984212
 30
0.0
 10
188.5799964524633
 20
152.4008827643774
 30
0.0
 10
188.5087916218454
 20
152.9737826228803
 30
0.0
 10
188.4032584321507
 20
153.4270866405478
 30
0.0
 10
188.2750355475547
 20
153.7123350045212
 30
0.0
 10
188.1846573808671
 20
153.746444707176
 30
0.0
 10
188.1428886546674
 20
153.7622086785328
 30
0.0
  0
LINE
  5
198
330
1F
100
AcDbEntity
  8
0
  6
Continuous
 62
     8
370
    18
100
AcDbLine
 10
188.5938275947
 20
151.7622102134
 30
0.0
 11
224.8235181316
 21
151.7622102134
 31
0.0
  0
LINE
  5
199
330
1F
100
AcDbEntity
  8
0
  6
Continuous
 62
     8
370
    18
100
AcDbLine
 10
188.5938275947
 20
100.7622093044
 30
0.0
 11
188.5938275947
 21
151.7622102134
 31
0.0
  0
LINE
  5
19A
330
1F
100
AcDbEntity
  8
0
  6
Continuous
 62
     8
370
    18
100
AcDbLine
 10
224.8235181316
 20
100.7622093044
 30
0.0
 11
188.5938275947
 21
100.7622093044
 31
0.0
  0
SPLINE
  5
19B
330
1F
100
AcDbEntity
  8
0
  6
Continuous
 62
     8
370
    18
100
AcDbSpline
210
0.0
220
0.0
230
1.0
 70
     8
 71
     3
 72
    12
 73
     8
 74
     0
 42
0.000000001
 43
0.00000001
 40
0.0
 40
0.0
 40
0.0
 40
0.0
 40
0.2291698939019428
 40
0.4603126492882004
 40
0.6874689666264684
 40
0.9026525370994491
 40
1.0
 40
1.0
 40
1.0
 40
1.0
 10
188.1428886546674
 20
98.762208976556
 30
0.0
 10
188.1952825157724
 20
98.78681731212113
 30
0.0
 10
188.3005212825276
 20
98.83624582974053
 30
0.0
 10
188.442135579077
 20
99.22203524967092
 30
0.0
 10
188.5446442639527
 20
99.77861206793845
 30
0.0
 10
188.5891451307221
 20
100.3295848418416
 30
0.0
 10
188.592715494437
 20
100.6594596012382
 30
0.0
 10
188.5938275947156
 20
100.7622093043815
 30
0.0
  0
LINE
  5
19C
330
1F
100
AcDbEntity
  8
0
  6
Continuous
 62
     8
370
    18
100
AcDbLine
 10
187.847415392
 20
151.7622102134
 30
0.0
 11
188.5938275947
 21
151.7622102134
 31
0.0
  0
SPLINE
  5
19D
330
1F
100
AcDbEntity
  8
0
  6
Continuous
 62
     8
370
    18
100
AcDbSpline
210
0.0
220
0.0
230
1.0
 70
     8
 71
     3
 72
    12
 73
     8
 74
     0
 42
0.000000001
 43
0.00000001
 40
0.0
 40
0.0
 40
0.0
 40
0.0
 40
0.187397864211989
 40
0.4039705282386692
 40
0.6069947243505739
 40
0.8036128077911541
 40
0.9999999999999999
 40
0.9999999999999999
 40
0.9999999999999999
 40
0.9999999999999999
 10
187.391614948112
 20
152.9622100375187
 30
0.0
 10
187.4337901364106
 20
152.9527916125365
 30
0.0
 10
187.5247065039326
 20
152.9324884669738
 30
0.0
 10
187.6538704415291
 20
152.7627996412511
 30
0.0
 10
187.76071604993
 20
152.4916938461303
 30
0.0
 10
187.8332553624866
 20
152.1475177402502
 30
0.0
 10
187.8426972311997
 20
151.8905957416224
 30
0.0
 10
187.8474153919997
 20
151.7622102133524
 30
0.0
  0
ARC
  5
19E
330
1F
100
AcDbEntity
  8
0
  6
Continuous
 62
     8
370
    18
100
AcDbCircle
 10
188.1680410927
 20
152.9858306481
 30
0.0
 40
0.7767853572477623
100
AcDbArc
 50
91.8555711433
 51
181.7425276329
  0
LINE
  5
19F
330
1F
100
AcDbEntity
  8
0
  6
Continuous
 62
     8
370
    18
100
AcDbLine
 10
187.847415392
 20
100.7622093044
 30
0.0
 11
188.5938275947
 21
100.7622093044
 31
0.0
  0
LINE
  5
1A0
330
1F
100
AcDbEntity
  8
0
  6
Continuous
 62
     8
370
    18
100
AcDbLine
 10
187.847415392
 20
151.7622102134
 30
0.0
 11
187.847415392
 21
100.7622093044
 31
0.0
  0
ARC
  5
1A1
330
1F
100
AcDbEntity
  8
0
  6
Continuous
 62
     8
370
    18
100
AcDbCircle
 10
188.168044904
 20
99.5385906411
 30
0.0
 40
0.7767891129207621
100
AcDbArc
 50
178.2576115215
 51
268.1441565631
  0
SPLINE
  5
1A2
330
1F
100
AcDbEntity
  8
0
  6
Continuous
 62
     8
370
    18
100
AcDbSpline
210
0.0
220
0.0
230
1.0
 70
     8
 71
     3
 72
    12
 73
     8
 74
     0
 42
0.000000001
 43
0.00000001
 40
0.0
 40
0.0
 40
0.0
 40
0.0
 40
0.094799423068239
 40
0.3055401407714109
 40
0.5315941933499493
 40
0.7656459933014528
 40
1.0
 40
1.0
 40
1.0
 40
1.0
 10
187.8474153919997
 20
100.7622093043815
 30
0.0
 10
187.8462903559374
 20
100.700529342823
 30
0.0
 10
187.8426643457178
 20
100.5017337855567
 30
0.0
 10
187.7970695168691
 20
100.1688714653029
 30
0.0
 10
187.6929304532776
 20
99.83551739007088
 30
0.0
 10
187.5501609246135
 20
99.60615660055241
 30
0.0
 10
187.4444863333752
 20
99.57686481983234
 30
0.0
 10
187.391614948112
 20
99.56220948021524
 30
0.0
  0
LINE
  5
1A3
330
1F
100
AcDbEntity
  8
0
  6
Continuous
 62
     8
370
    18
100
AcDbLine
 10
187.3916149481
 20
152.9622100375
 30
0.0
 11
182.8235168352
 21
152.9622100375
 31
0.0
  0
LINE
  5
1A4
330
1F
100
AcDbEntity
  8
0
  6
Continuous
 62
     8
370
    18
100
AcDbLine
 10
182.8235168352
 20
99.5622094802
 30
0.0
 11
187.3916149481
 21
99.5622094802
 31
0.0
  0
LINE
  5
1A5
330
1F
100
AcDbEntity
  8
DEFAULT_LAYER
  6
PHANTOM
370
    18
100
AcDbLine
 10
224.8235176221
 20
153.762209513
 30
0.0
 11
224.8235176221
 21
168.1105082499
 31
0.0
  0
LINE
  5
1A6
330
1F
100
AcDbEntity
  8
DEFAULT_LAYER
  6
PHANTOM
370
    18
100
AcDbLine
 10
224.8235176221
 20
98.762209513
 30
0.0
 11
224.8235176221
 21
85.4343671361
 31
0.0
  0
DIMENSION
  5
1A7
330
1F
100
AcDbEntity
  8
DEFAULT_LAYER
100
AcDbDimension
  2
_D_1
 10
224.8235176221
 20
165.9303028205
 30
0.0
 11
205.2886990932
 21
165.9303028205
 31
0.0
 70
   160
  1
<>
 71
     2
 42
-1.0
  3
SLDDIMSTYLE0
100
AcDbAlignedDimension
 13
182.8235176221
 23
152.962209513
 33
0.0
 14
224.8235176221
 24
168.1105082499
 34
0.0
100
AcDbRotatedDimension
  0
DIMENSION
  5
1B0
330
1F
100
AcDbEntity
  8
DEFAULT_LAYER
100
AcDbDimension
  2
_D_2
 10
166.8235176221
 20
124.762209513
 30
0.0
 11
166.8235176221
 21
139.8501541763
 31
0.0
 70
   160
  1
<>
 71
     2
 42
-1.0
  3
SLDDIMSTYLE0
100
AcDbAlignedDimension
 13
188.1428890371
 23
153.762209513
 33
0.0
 14
174.0802469108
 24
124.762209513
 34
0.0
 50
90.0
100
AcDbRotatedDimension
  0
DIMENSION
  5
1BA
330
1F
100
AcDbEntity
  8
DEFAULT_LAYER
100
AcDbDimension
  2
_D_3
 10
166.8235176221
 20
98.762209513
 30
0.0
 11
166.8235176221
 21
113.3867995824
 31
0.0
 70
   160
  1
<>
 71
     2
 42
-1.0
  3
SLDDIMSTYLE0
100
AcDbAlignedDimension
 13
174.0802469108
 23
124.762209513
 33
0.0
 14
188.1428890371
 24
98.762209513
 34
0.0
 50
90.0
100
AcDbRotatedDimension
  0
DIMENSION
  5
1C4
330
1F
100
AcDbEntity
  8
DEFAULT_LAYER
100
AcDbDimension
  2
_D_4
 10
234.4660324587
 20
165.9303028205
 30
0.0
 11
241.018385752
 21
165.9303028205
 31
0.0
 70
   160
  1
<>
 71
     2
 42
-1.0
  3
SLDDIMSTYLE1
100
AcDbAlignedDimension
 13
224.8235176221
 23
153.762209513
 33
0.0
 14
234.4660324587
 24
134.077709513
 34
0.0
100
AcDbRotatedDimension
  0
INSERT
  5
1D6
330
1F
100
AcDbEntity
  8
DEFAULT_LAYER
100
AcDbBlockReference
  2
SW_NOTE_3
 10
234.7475247525
 20
106.6728273858
 30
0.0
  0
LEADER
  5
1D8
330
1F
100
AcDbEntity
  8
DEFAULT_LAYER
100
AcDbLeader
  3
SLDDIMSTYLE2
 76
     2
 10
229.4588088721
 20
114.3236408844
 30
0.0
 10
234.7475247525
 20
106.6728273858
 30
0.0
  0
MTEXT
  5
1D9
330
1F
100
AcDbEntity
  8
DEFAULT_LAYER
100
AcDbMText
 10
216.8317478401
 20
89.8847217044
 30
0.0
 40
2.1166666667
 41
0.0
 71
     1
 72
     1
  1
W.L.
  7
SLDTEXTSTYLE0
 73
     1
 44
1.0
  0
MTEXT
  5
1DA
330
1F
100
AcDbEntity
  8
DEFAULT_LAYER
100
AcDbMText
 10
225.0487756385
 20
90.0287729441
 30
0.0
 40
2.1166666667
 41
0.0
 71
     1
 72
     1
  1
△
  7
SLDTEXTSTYLE0
 11
-3.491481338843133E-15
 21
-1.0
 31
0.0
 73
     1
 44
1.0
  0
LINE
  5
1DB
330
1F
100
AcDbEntity
  8
DEFAULT_LAYER
  6
CENTERX2
370
    18
100
AcDbLine
 10
247.9744963108
 20
124.762209513
 30
0.0
 11
174.0802469108
 21
124.762209513
 31
0.0
  0
LINE
  5
1DC
330
1F
100
AcDbEntity
  8
0
  6
Continuous
 62
     7
370
    25
100
AcDbLine
 10
106.5442037885
 20
247.9880812562
 30
0.0
 11
105.3822037881
 21
249.1500812567
 31
0.0
  0
LINE
  5
1DD
330
1F
100
AcDbEntity
  8
0
  6
Continuous
 62
     7
370
    25
100
AcDbLine
 10
86.7512037163
 20
249.1500812567
 30
0.0
 11
85.5892037158
 21
247.9880812562
 31
0.0
  0
LINE
  5
1DE
330
1F
100
AcDbEntity
  8
0
  6
Continuous
 62
     7
370
    25
100
AcDbLine
 10
85.5892037158
 20
247.9880812562
 30
0.0
 11
85.5892037158
 21
239.5075677879
 31
0.0
  0
LINE
  5
1DF
330
1F
100
AcDbEntity
  8
0
  6
Continuous
 62
     7
370
    25
100
AcDbLine
 10
106.5442037885
 20
239.5075677879
 30
0.0
 11
106.5442037885
 21
247.9880812562
 31
0.0
  0
LINE
  5
1E0
330
1F
100
AcDbEntity
  8
0
  6
Continuous
 62
     7
370
    25
100
AcDbLine
 10
121.5667032754
 20
239.5075677879
 30
0.0
 11
70.566704229
 21
239.5075677879
 31
0.0
  0
LINE
  5
1E1
330
1F
100
AcDbEntity
  8
0
  6
Continuous
 62
     7
370
    25
100
AcDbLine
 10
68.5667039012
 20
203.277877251
 30
0.0
 11
68.5667039012
 21
239.5075677879
 31
0.0
  0
LINE
  5
1E2
330
1F
100
AcDbEntity
  8
0
  6
Continuous
 62
     7
370
    25
100
AcDbLine
 10
68.5667039012
 20
239.5075677879
 30
0.0
 11
70.566704229
 21
239.5075677879
 31
0.0
  0
LINE
  5
1E3
330
1F
100
AcDbEntity
  8
0
  6
Continuous
 62
     7
370
    25
100
AcDbLine
 10
123.5667036032
 20
203.277877251
 30
0.0
 11
123.5667036032
 21
239.5075677879
 31
0.0
  0
LINE
  5
1E4
330
1F
100
AcDbEntity
  8
0
  6
Continuous
 62
     7
370
    25
100
AcDbLine
 10
123.5667036032
 20
239.5075677879
 30
0.0
 11
121.5667032754
 21
239.5075677879
 31
0.0
  0
ARC
  5
1E5
330
1F
100
AcDbEntity
  8
0
  6
Continuous
 62
     7
370
    25
100
AcDbCircle
 10
122.7667037522
 20
203.2778771159
 30
0.0
 40
0.7999999999999972
100
AcDbArc
 50
291.0902642688
 51
0.0
  0
SPLINE
  5
1E6
330
1F
100
AcDbEntity
  8
0
  6
Continuous
 62
     7
370
    25
100
AcDbSpline
210
0.0
220
0.0
230
1.0
 70
     8
 71
     3
 72
    12
 73
     8
 74
     0
 42
0.000000001
 43
0.00000001
 40
0.0
 40
0.0
 40
0.0
 40
0.0
 40
0.187397864211989
 40
0.4039705282386692
 40
0.6069947243505739
 40
0.8036128077911541
 40
0.9999999999999999
 40
0.9999999999999999
 40
0.9999999999999999
 40
0.9999999999999999
 10
121.8416371499573
 20
202.0756646044016
 30
0.0
 10
121.9563672379655
 20
202.1178397927002
 30
0.0
 10
122.2036890228344
 20
202.2087561602222
 30
0.0
 10
122.5479600364895
 20
202.3379200978188
 30
0.0
 10
122.8290989890939
 20
202.4447657062196
 30
0.0
 10
123.0179020399065
 20
202.5173050187762
 30
0.0
 10
123.0423554069865
 20
202.5267468874893
 30
0.0
 10
123.0545749073302
 20
202.5314650482893
 30
0.0
  0
SPLINE
  5
1E7
330
1F
100
AcDbEntity
  8
0
  6
Continuous
 62
     7
370
    25
100
AcDbSpline
210
0.0
220
0.0
230
1.0
 70
     8
 71
     3
 72
    12
 73
     8
 74
     0
 42
0.000000001
 43
0.00000001
 40
0.0
 40
0.0
 40
0.0
 40
0.0
 40
0.187397864211989
 40
0.4039705282386692
 40
0.6069947243505739
 40
0.8036128077911541
 40
0.9999999999999999
 40
0.9999999999999999
 40
0.9999999999999999
 40
0.9999999999999999
 10
70.29177035441748
 20
202.0756646044016
 30
0.0
 10
70.17704026640932
 20
202.1178397927002
 30
0.0
 10
69.92971848154045
 20
202.2087561602222
 30
0.0
 10
69.58544746788527
 20
202.3379200978188
 30
0.0
 10
69.3043085152809
 20
202.4447657062196
 30
0.0
 10
69.11550546446827
 20
202.5173050187762
 30
0.0
 10
69.09105209738834
 20
202.5267468874893
 30
0.0
 10
69.07883259704462
 20
202.5314650482893
 30
0.0
  0
ARC
  5
1E8
330
1F
100
AcDbEntity
  8
0
  6
Continuous
 62
     7
370
    25
100
AcDbCircle
 10
69.3667037522
 20
203.2778771159
 30
0.0
 40
0.7999999999999917
100
AcDbArc
 50
180.0
 51
248.9097357312
  0
ARC
  5
1E9
330
1F
100
AcDbEntity
  8
0
  6
Continuous
 62
     7
370
    25
100
AcDbCircle
 10
96.0667037522
 20
272.5075672784
 30
0.0
 40
74.99999999999996
100
AcDbArc
 50
249.8996294381
 51
290.1003705619
  0
LINE
  5
1EA
330
1F
100
AcDbEntity
  8
0
  6
Continuous
 62
     7
370
    25
100
AcDbLine
 10
86.7512037163
 20
249.1500812567
 30
0.0
 11
105.3822037881
 21
249.1500812567
 31
0.0
  0
LINE
  5
1EB
330
1F
100
AcDbEntity
  8
0
  6
Continuous
 62
     7
370
    25
100
AcDbLine
 10
106.5442037885
 20
247.9880812562
 30
0.0
 11
85.5892037158
 21
247.9880812562
 31
0.0
  0
SPLINE
  5
1EC
330
1F
100
AcDbEntity
  8
0
  6
Continuous
 62
     8
370
    18
100
AcDbSpline
210
0.0
220
0.0
230
1.0
 70
     8
 71
     3
 72
     9
 73
     5
 74
     0
 42
0.000000001
 43
0.00000001
 40
0.0
 40
0.0
 40
0.0
 40
0.0
 40
0.5395649125365017
 40
1.0
 40
1.0
 40
1.0
 40
1.0
 10
101.3947196421599
 20
234.2877692527533
 30
0.0
 10
101.2309251403584
 20
234.3908615755833
 30
0.0
 10
100.9273573990251
 20
234.5819272294736
 30
0.0
 10
100.5703538158923
 20
234.6006006003998
 30
0.0
 10
100.4059768398677
 20
234.6091984755755
 30
0.0
  0
SPLINE
  5
1ED
330
1F
100
AcDbEntity
  8
0
  6
Continuous
 62
     8
370
    18
100
AcDbSpline
210
0.0
220
0.0
230
1.0
 70
     8
 71
     3
 72
     9
 73
     5
 74
     0
 42
0.000000001
 43
0.00000001
 40
0.0
 40
0.0
 40
0.0
 40
0.0
 40
0.578591786928453
 40
1.0
 40
1.0
 40
1.0
 40
1.0
 10
100.4059768398677
 20
234.6091984755755
 30
0.0
 10
100.1983709870399
 20
234.5950095849461
 30
0.0
 10
99.83955868185663
 20
234.5704864393538
 30
0.0
 10
99.54292597621286
 20
234.3715870774389
 30
0.0
 10
99.41792251778892
 20
234.2877692527533
 30
0.0
  0
SPLINE
  5
1EE
330
1F
100
AcDbEntity
  8
0
  6
Continuous
 62
     8
370
    18
100
AcDbSpline
210
0.0
220
0.0
230
1.0
 70
     8
 71
     3
 72
     9
 73
     5
 74
     0
 42
0.000000001
 43
0.00000001
 40
0.0
 40
0.0
 40
0.0
 40
0.0
 40
0.5428622951651214
 40
1.0
 40
1.0
 40
1.0
 40
1.0
 10
99.41792251778892
 20
234.2877692527533
 30
0.0
 10
99.28739337541984
 20
234.1451192894396
 30
0.0
 10
99.04694723736304
 20
233.8823455352404
 30
0.0
 10
99.01073130430089
 20
233.5300221119692
 30
0.0
 10
98.9941756357824
 20
233.3689617908955
 30
0.0
  0
LINE
  5
1EF
330
1F
100
AcDbEntity
  8
0
  6
Continuous
 62
     8
370
    18
100
AcDbLine
 10
98.9941756358
 20
233.3689617909
 30
0.0
 11
98.9941756358
 21
233.3000606842
 31
0.0
  0
LINE
  5
1F0
330
1F
100
AcDbEntity
  8
0
  6
Continuous
 62
     8
370
    18
100
AcDbLine
 10
98.9941756358
 20
233.3000606842
 30
0.0
 11
98.9941756358
 21
233.2277136839
 31
0.0
  0
SPLINE
  5
1F1
330
1F
100
AcDbEntity
  8
0
  6
Continuous
 62
     8
370
    18
100
AcDbSpline
210
0.0
220
0.0
230
1.0
 70
     8
 71
     3
 72
    10
 73
     6
 74
     0
 42
0.000000001
 43
0.00000001
 40
0.0
 40
0.0
 40
0.0
 40
0.0
 40
0.2941556618572418
 40
0.5758711614313137
 40
1.0
 40
1.0
 40
1.0
 40
1.0
 10
98.9941756357824
 20
233.227713683939
 30
0.0
 10
99.00189097580501
 20
233.1256986417232
 30
0.0
 10
99.0169953657447
 20
232.9259828841771
 30
0.0
 10
99.14600335547843
 20
232.596131660032
 30
0.0
 10
99.31585924684389
 20
232.4167146142769
 30
0.0
 10
99.41792251778892
 20
232.3089062220812
 30
0.0
  0
SPLINE
  5
1F2
330
1F
100
AcDbEntity
  8
0
  6
Continuous
 62
     8
370
    18
100
AcDbSpline
210
0.0
220
0.0
230
1.0
 70
     8
 71
     3
 72
     9
 73
     5
 74
     0
 42
0.000000001
 43
0.00000001
 40
0.0
 40
0.0
 40
0.0
 40
0.0
 40
0.5394182573193983
 40
1.0
 40
1.0
 40
1.0
 40
1.0
 10
99.41792251778892
 20
232.3089062220812
 30
0.0
 10
99.58172464396984
 20
232.206526063978
 30
0.0
 10
99.88538905272549
 20
232.0167287096728
 30
0.0
 10
100.2418140113086
 20
231.9978809020861
 30
0.0
 10
100.4059768398677
 20
231.989199946022
 30
0.0
  0
SPLINE
  5
1F3
330
1F
100
AcDbEntity
  8
0
  6
Continuous
 62
     8
370
    18
100
AcDbSpline
210
0.0
220
0.0
230
1.0
 70
     8
 71
     3
 72
     9
 73
     5
 74
     0
 42
0.000000001
 43
0.00000001
 40
0.0
 40
0.0
 40
0.0
 40
0.0
 40
0.5792793121011958
 40
0.9999999999999999
 40
0.9999999999999999
 40
0.9999999999999999
 40
0.9999999999999999
 10
100.4059768398677
 20
231.989199946022
 30
0.0
 10
100.6137438072428
 20
232.0034230939934
 30
0.0
 10
100.9724083806788
 20
232.0279762718374
 30
0.0
 10
101.2696598144604
 20
232.2257139078391
 30
0.0
 10
101.3947196421599
 20
232.3089062220812
 30
0.0
  0
SPLINE
  5
1F4
330
1F
100
AcDbEntity
  8
0
  6
Continuous
 62
     8
370
    18
100
AcDbSpline
210
0.0
220
0.0
230
1.0
 70
     8
 71
     3
 72
     9
 73
     5
 74
     0
 42
0.000000001
 43
0.00000001
 40
0.0
 40
0.0
 40
0.0
 40
0.0
 40
0.5433162565374672
 40
1.0
 40
1.0
 40
1.0
 40
1.0
 10
101.3947196421599
 20
232.3089062220812
 30
0.0
 10
101.5248673381138
 20
232.4518801940046
 30
0.0
 10
101.7644105036053
 20
232.7150307443572
 30
0.0
 10
101.8010465098256
 20
233.0669828697809
 30
0.0
 10
101.8177775782918
 20
233.227713683939
 30
0.0
  0
LINE
  5
1F5
330
1F
100
AcDbEntity
  8
0
  6
Continuous
 62
     8
370
    18
100
AcDbLine
 10
101.8177775783
 20
233.2277136839
 30
0.0
 11
101.8177775783
 21
233.3000606842
 31
0.0
  0
LINE
  5
1F6
330
1F
100
AcDbEntity
  8
0
  6
Continuous
 62
     8
370
    18
100
AcDbLine
 10
101.8177775783
 20
233.3000606842
 30
0.0
 11
101.8177775783
 21
233.3689617909
 31
0.0
  0
SPLINE
  5
1F7
330
1F
100
AcDbEntity
  8
0
  6
Continuous
 62
     8
370
    18
100
AcDbSpline
210
0.0
220
0.0
230
1.0
 70
     8
 71
     3
 72
    10
 73
     6
 74
     0
 42
0.000000001
 43
0.00000001
 40
0.0
 40
0.0
 40
0.0
 40
0.0
 40
0.2949496224365525
 40
0.5767957138252455
 40
1.0
 40
1.0
 40
1.0
 40
1.0
 10
101.8177775782918
 20
233.3689617908955
 30
0.0
 10
101.8100506809649
 20
233.4712211267725
 30
0.0
 10
101.7949401640484
 20
233.6711967909053
 30
0.0
 10
101.6659104255631
 20
234.0009022939091
 30
0.0
 10
101.4964423343817
 20
234.1801664832309
 30
0.0
 10
101.3947196421599
 20
234.2877692527533
 30
0.0
  0
LINE
  5
1F8
330
1F
100
AcDbEntity
  8
0
  6
Continuous
 62
     8
370
    18
100
AcDbLine
 10
97.7835681639
 20
232.551441247
 30
0.0
 11
97.7835681639
 21
234.2061220653
 31
0.0
  0
LINE
  5
1F9
330
1F
100
AcDbEntity
  8
0
  6
Continuous
 62
     8
370
    18
100
AcDbLine
 10
97.7835681639
 20
234.2061220653
 30
0.0
 11
98.0571088964
 21
234.2061220653
 31
0.0
  0
SPLINE
  5
1FA
330
1F
100
AcDbEntity
  8
0
  6
Continuous
 62
     8
370
    18
100
AcDbSpline
210
0.0
220
0.0
230
1.0
 70
     8
 71
     3
 72
    13
 73
     9
 74
     0
 42
0.000000001
 43
0.00000001
 40
0.0
 40
0.0
 40
0.0
 40
0.0
 40
0.1277868243660896
 40
0.2810430684336526
 40
0.4551532114259372
 40
0.6097511383795129
 40
0.7876726471284317
 40
1.0
 40
1.0
 40
1.0
 40
1.0
 10
98.05710889635733
 20
234.2061220652819
 30
0.0
 10
98.08798132297395
 20
234.2031518464945
 30
0.0
 10
98.15587941457582
 20
234.1966194093197
 30
0.0
 10
98.25762254310679
 20
234.1499835270907
 30
0.0
 10
98.34855132376188
 20
234.0749374630833
 30
0.0
 10
98.41712673802797
 20
233.9720691406891
 30
0.0
 10
98.46155860132458
 20
233.8463295931179
 30
0.0
 10
98.46647036521058
 20
233.7518079159603
 30
0.0
 10
98.46914276717357
 20
233.700380379653
 30
0.0
  0
LINE
  5
1FB
330
1F
100
AcDbEntity
  8
0
  6
Continuous
 62
     8
370
    18
100
AcDbLine
 10
98.4691427672
 20
233.7003803797
 30
0.0
 11
98.4691427672
 21
233.6011628605
 31
0.0
  0
LINE
  5
1FC
330
1F
100
AcDbEntity
  8
0
  6
Continuous
 62
     8
370
    18
100
AcDbLine
 10
98.4691427672
 20
233.6011628605
 30
0.0
 11
98.7909147167
 21
233.6011628605
 31
0.0
  0
LINE
  5
1FD
330
1F
100
AcDbEntity
  8
0
  6
Continuous
 62
     8
370
    18
100
AcDbLine
 10
98.7909147167
 20
233.6011628605
 30
0.0
 11
98.7909147167
 21
234.5075669683
 31
0.0
  0
LINE
  5
1FE
330
1F
100
AcDbEntity
  8
0
  6
Continuous
 62
     8
370
    18
100
AcDbLine
 10
98.7909147167
 20
234.5075669683
 30
0.0
 11
96.167472862
 21
234.5075669683
 31
0.0
  0
LINE
  5
1FF
330
1F
100
AcDbEntity
  8
0
  6
Continuous
 62
     8
370
    18
100
AcDbLine
 10
96.167472862
 20
234.5075669683
 30
0.0
 11
96.167472862
 21
233.6011628605
 31
0.0
  0
LINE
  5
200
330
1F
100
AcDbEntity
  8
0
  6
Continuous
 62
     8
370
    18
100
AcDbLine
 10
96.167472862
 20
233.6011628605
 30
0.0
 11
96.4889004769
 21
233.6011628605
 31
0.0
  0
LINE
  5
201
330
1F
100
AcDbEntity
  8
0
  6
Continuous
 62
     8
370
    18
100
AcDbLine
 10
96.4889004769
 20
233.6011628605
 30
0.0
 11
96.4889004769
 21
233.7003803797
 31
0.0
  0
SPLINE
  5
202
330
1F
100
AcDbEntity
  8
0
  6
Continuous
 62
     8
370
    18
100
AcDbSpline
210
0.0
220
0.0
230
1.0
 70
     8
 71
     3
 72
    13
 73
     9
 74
     0
 42
0.000000001
 43
0.00000001
 40
0.0
 40
0.0
 40
0.0
 40
0.0
 40
0.2035592369719361
 40
0.3753908746719327
 40
0.5253281661533646
 40
0.6602224370095926
 40
0.8474934030872048
 40
1.0
 40
1.0
 40
1.0
 40
1.0
 10
96.48890047687232
 20
233.700380379653
 30
0.0
 10
96.4913846574929
 20
233.7496731290375
 30
0.0
 10
96.49596582388888
 20
233.8405756524587
 30
0.0
 10
96.53705174318037
 20
233.9622410186082
 30
0.0
 10
96.59645874588477
 20
234.0564937653966
 30
0.0
 10
96.6796911720455
 20
234.1352960446351
 30
0.0
 10
96.7827302641864
 20
234.1925193822912
 30
0.0
 10
96.86479090599056
 20
234.2019080379766
 30
0.0
 10
96.90162320625163
 20
234.2061220652819
 30
0.0
  0
LINE
  5
203
330
1F
100
AcDbEntity
  8
0
  6
Continuous
 62
     8
370
    18
100
AcDbLine
 10
96.9016232063
 20
234.2061220653
 30
0.0
 11
97.1765420051
 21
234.2061220653
 31
0.0
  0
LINE
  5
204
330
1F
100
AcDbEntity
  8
0
  6
Continuous
 62
     8
370
    18
100
AcDbLine
 10
97.1765420051
 20
234.2061220653
 30
0.0
 11
97.1765420051
 21
232.551441247
 31
0.0
  0
SPLINE
  5
205
330
1F
100
AcDbEntity
  8
0
  6
Continuous
 62
     8
370
    18
100
AcDbSpline
210
0.0
220
0.0
230
1.0
 70
     8
 71
     3
 72
    11
 73
     7
 74
     0
 42
0.000000001
 43
0.00000001
 40
0.0
 40
0.0
 40
0.0
 40
0.0
 40
0.2825990647104795
 40
0.5562457900530018
 40
0.7735612977961154
 40
1.0
 40
1.0
 40
1.0
 40
1.0
 10
97.17654200507454
 20
232.5514412469626
 30
0.0
 10
97.17345012967012
 20
232.527426382393
 30
0.0
 10
97.16736432510866
 20
232.4801574102568
 30
0.0
 10
97.12434466815361
 20
232.4275143950147
 30
0.0
 10
97.07142567445581
 20
232.3955830707667
 30
0.0
 10
97.03381456101661
 20
232.3917976939183
 30
0.0
 10
97.01462237866721
 20
232.3898660934925
 30
0.0
  0
LINE
  5
206
330
1F
100
AcDbEntity
  8
0
  6
Continuous
 62
     8
370
    18
100
AcDbLine
 10
97.0146223787
 20
232.3898660935
 30
0.0
 11
96.6732132016
 21
232.3898660935
 31
0.0
  0
LINE
  5
207
330
1F
100
AcDbEntity
  8
0
  6
Continuous
 62
     8
370
    18
100
AcDbLine
 10
96.6732132016
 20
232.3898660935
 30
0.0
 11
96.6732132016
 21
232.0880747385
 31
0.0
  0
LINE
  5
208
330
1F
100
AcDbEntity
  8
0
  6
Continuous
 62
     8
370
    18
100
AcDbLine
 10
96.6732132016
 20
232.0880747385
 30
0.0
 11
98.2865525526
 21
232.0880747385
 31
0.0
  0
LINE
  5
209
330
1F
100
AcDbEntity
  8
0
  6
Continuous
 62
     8
370
    18
100
AcDbLine
 10
98.2865525526
 20
232.0880747385
 30
0.0
 11
98.2865525526
 21
232.3898660935
 31
0.0
  0
LINE
  5
20A
330
1F
100
AcDbEntity
  8
0
  6
Continuous
 62
     8
370
    18
100
AcDbLine
 10
98.2865525526
 20
232.3898660935
 30
0.0
 11
97.9434207199
 21
232.3898660935
 31
0.0
  0
SPLINE
  5
20B
330
1F
100
AcDbEntity
  8
0
  6
Continuous
 62
     8
370
    18
100
AcDbSpline
210
0.0
220
0.0
230
1.0
 70
     8
 71
     3
 72
    11
 73
     7
 74
     0
 42
0.000000001
 43
0.00000001
 40
0.0
 40
0.0
 40
0.0
 40
0.0
 40
0.2823443417131998
 40
0.5565488128763453
 40
0.7743485953919792
 40
1.0
 40
1.0
 40
1.0
 40
1.0
 10
97.94342071985952
 20
232.3898660934925
 30
0.0
 10
97.919598441574
 20
232.3930149964816
 30
0.0
 10
97.87264067142931
 20
232.3992220208894
 30
0.0
 10
97.820728857156
 20
232.4425109468283
 30
0.0
 10
97.78926157920034
 20
232.4951532199495
 30
0.0
 10
97.78548823890542
 20
232.5324583996159
 30
0.0
 10
97.78356816390655
 20
232.5514412469626
 30
0.0
  0
LINE
  5
20C
330
1F
100
AcDbEntity
  8
0
  6
Continuous
 62
     8
370
    18
100
AcDbLine
 10
70.566704229
 20
239.5075677879
 30
0.0
 11
70.566704229
 21
202.826938311
 31
0.0
  0
LINE
  5
20D
330
1F
100
AcDbEntity
  8
0
  6
Continuous
 62
     8
370
    18
100
AcDbLine
 10
121.5667032754
 20
239.5075677879
 30
0.0
 11
121.5667032754
 21
202.826938311
 31
0.0
  0
ARC
  5
20E
330
1F
100
AcDbEntity
  8
0
  6
Continuous
 62
     8
370
    18
100
AcDbCircle
 10
96.0667037522
 20
272.5075672784
 30
0.0
 40
74.19999999999996
100
AcDbArc
 50
249.8996294381
 51
290.1003705619
  0
LINE
  5
20F
330
1F
100
AcDbEntity
  8
0
  6
Continuous
 62
     8
370
    18
100
AcDbLine
 10
91.9310359401
 20
232.551441247
 30
0.0
 11
91.9310359401
 21
234.2061220653
 31
0.0
  0
LINE
  5
210
330
1F
100
AcDbEntity
  8
0
  6
Continuous
 62
     8
370
    18
100
AcDbLine
 10
91.9310359401
 20
234.2061220653
 30
0.0
 11
92.2059549136
 21
234.2061220653
 31
0.0
  0
SPLINE
  5
211
330
1F
100
AcDbEntity
  8
0
  6
Continuous
 62
     8
370
    18
100
AcDbSpline
210
0.0
220
0.0
230
1.0
 70
     8
 71
     3
 72
    13
 73
     9
 74
     0
 42
0.000000001
 43
0.00000001
 40
0.0
 40
0.0
 40
0.0
 40
0.0
 40
0.1274619604699496
 40
0.2806412302934427
 40
0.4548257582635056
 40
0.6095268696471213
 40
0.7875585758779022
 40
1.0
 40
1.0
 40
1.0
 40
1.0
 10
92.20595491355411
 20
234.2061220652819
 30
0.0
 10
92.23673133388354
 20
234.2031459269091
 30
0.0
 10
92.3044937661687
 20
234.1965931708445
 30
0.0
 10
92.40608026414291
 20
234.1499501790052
 30
0.0
 10
92.49697056778085
 20
234.0749271076997
 30
0.0
 10
92.56557303275393
 20
233.9720722196104
 30
0.0
 10
92.61004886117183
 20
233.8463358030005
 30
0.0
 10
92.6149679226887
 20
233.7518088578082
 30
0.0
 10
92.61764419501773
 20
233.700380379653
 30
0.0
  0
LINE
  5
212
330
1F
100
AcDbEntity
  8
0
  6
Continuous
 62
     8
370
    18
100
AcDbLine
 10
92.617644195
 20
233.7003803797
 30
0.0
 11
92.617644195
 21
233.6011628605
 31
0.0
  0
LINE
  5
213
330
1F
100
AcDbEntity
  8
0
  6
Continuous
 62
     8
370
    18
100
AcDbLine
 10
92.617644195
 20
233.6011628605
 30
0.0
 11
92.9394163774
 21
233.6011628605
 31
0.0
  0
LINE
  5
214
330
1F
100
AcDbEntity
  8
0
  6
Continuous
 62
     8
370
    18
100
AcDbLine
 10
92.9394163774
 20
233.6011628605
 30
0.0
 11
92.9394163774
 21
234.5075669683
 31
0.0
  0
LINE
  5
215
330
1F
100
AcDbEntity
  8
0
  6
Continuous
 62
     8
370
    18
100
AcDbLine
 10
92.9394163774
 20
234.5075669683
 30
0.0
 11
90.3166632285
 21
234.5075669683
 31
0.0
  0
LINE
  5
216
330
1F
100
AcDbEntity
  8
0
  6
Continuous
 62
     8
370
    18
100
AcDbLine
 10
90.3166632285
 20
234.5075669683
 30
0.0
 11
90.3166632285
 21
233.6011628605
 31
0.0
  0
LINE
  5
217
330
1F
100
AcDbEntity
  8
0
  6
Continuous
 62
     8
370
    18
100
AcDbLine
 10
90.3166632285
 20
233.6011628605
 30
0.0
 11
90.6384356437
 21
233.6011628605
 31
0.0
  0
LINE
  5
218
330
1F
100
AcDbEntity
  8
0
  6
Continuous
 62
     8
370
    18
100
AcDbLine
 10
90.6384356437
 20
233.6011628605
 30
0.0
 11
90.6384356437
 21
233.7003803797
 31
0.0
  0
SPLINE
  5
219
330
1F
100
AcDbEntity
  8
0
  6
Continuous
 62
     8
370
    18
100
AcDbSpline
210
0.0
220
0.0
230
1.0
 70
     8
 71
     3
 72
    13
 73
     9
 74
     0
 42
0.000000001
 43
0.00000001
 40
0.0
 40
0.0
 40
0.0
 40
0.0
 40
0.2037888506569504
 40
0.3757228822419744
 40
0.5256088273889257
 40
0.6603396457804067
 40
0.8473556478412422
 40
1.0
 40
1.0
 40
1.0
 40
1.0
 10
90.63843564367048
 20
233.700380379653
 30
0.0
 10
90.64090255110621
 20
233.7496684777909
 30
0.0
 10
90.64545075660905
 20
233.8405403102435
 30
0.0
 10
90.68627270305231
 20
233.9621892255016
 30
0.0
 10
90.74535336898983
 20
234.0564573366059
 30
0.0
 10
90.82821150914599
 20
234.1352940979882
 30
0.0
 10
90.93101218400363
 20
234.192565556172
 30
0.0
 10
91.0129549970221
 20
234.2019187242945
 30
0.0
 10
91.04978033578149
 20
234.2061220652819
 30
0.0
  0
LINE
  5
21A
330
1F
100
AcDbEntity
  8
0
  6
Continuous
 62
     8
370
    18
100
AcDbLine
 10
91.0497803358
 20
234.2061220653
 30
0.0
 11
91.3246988436
 21
234.2061220653
 31
0.0
  0
LINE
  5
21B
330
1F
100
AcDbEntity
  8
0
  6
Continuous
 62
     8
370
    18
100
AcDbLine
 10
91.3246988436
 20
234.2061220653
 30
0.0
 11
91.3246988436
 21
232.551441247
 31
0.0
  0
SPLINE
  5
21C
330
1F
100
AcDbEntity
  8
0
  6
Continuous
 62
     8
370
    18
100
AcDbSpline
210
0.0
220
0.0
230
1.0
 70
     8
 71
     3
 72
    11
 73
     7
 74
     0
 42
0.000000001
 43
0.00000001
 40
0.0
 40
0.0
 40
0.0
 40
0.0
 40
0.2836700769400596
 40
0.5585765717806148
 40
0.7758544099974869
 40
1.0
 40
1.0
 40
1.0
 40
1.0
 10
91.3246988435661
 20
232.5514412469626
 30
0.0
 10
91.32155310780823
 20
232.5274176654807
 30
0.0
 10
91.3153588193083
 20
232.480112676774
 30
0.0
 10
91.27222221873268
 20
232.4276351689398
 30
0.0
 10
91.21968309408417
 20
232.3956728378658
 30
0.0
 10
91.18239990404115
 20
232.391821647474
 30
0.0
 10
91.16346827944867
 20
232.3898660934925
 30
0.0
  0
LINE
  5
21D
330
1F
100
AcDbEntity
  8
0
  6
Continuous
 62
     8
370
    18
100
AcDbLine
 10
91.1634682794
 20
232.3898660935
 30
0.0
 11
90.820681036
 21
232.3898660935
 31
0.0
  0
LINE
  5
21E
330
1F
100
AcDbEntity
  8
0
  6
Continuous
 62
     8
370
    18
100
AcDbLine
 10
90.820681036
 20
232.3898660935
 30
0.0
 11
90.820681036
 21
232.0880747385
 31
0.0
  0
LINE
  5
21F
330
1F
100
AcDbEntity
  8
0
  6
Continuous
 62
     8
370
    18
100
AcDbLine
 10
90.820681036
 20
232.0880747385
 30
0.0
 11
92.4347093911
 21
232.0880747385
 31
0.0
  0
LINE
  5
220
330
1F
100
AcDbEntity
  8
0
  6
Continuous
 62
     8
370
    18
100
AcDbLine
 10
92.4347093911
 20
232.0880747385
 30
0.0
 11
92.4347093911
 21
232.3898660935
 31
0.0
  0
LINE
  5
221
330
1F
100
AcDbEntity
  8
0
  6
Continuous
 62
     8
370
    18
100
AcDbLine
 10
92.4347093911
 20
232.3898660935
 30
0.0
 11
92.0922665042
 21
232.3898660935
 31
0.0
  0
SPLINE
  5
222
330
1F
100
AcDbEntity
  8
0
  6
Continuous
 62
     8
370
    18
100
AcDbSpline
210
0.0
220
0.0
230
1.0
 70
     8
 71
     3
 72
    11
 73
     7
 74
     0
 42
0.000000001
 43
0.00000001
 40
0.0
 40
0.0
 40
0.0
 40
0.0
 40
0.2833358623550814
 40
0.5578617244456007
 40
0.775235477807225
 40
1.0
 40
1.0
 40
1.0
 40
1.0
 10
92.09226650422565
 20
232.3898660934925
 30
0.0
 10
92.06826151237948
 20
232.3930087465477
 30
0.0
 10
92.02099793608774
 20
232.3991963355035
 30
0.0
 10
91.96861075829108
 20
232.4424273760769
 30
0.0
 10
91.93679789014713
 20
232.4950981793686
 30
0.0
 10
91.93297787520247
 20
232.5324520888583
 30
0.0
 10
91.93103594010822
 20
232.5514412469626
 30
0.0
  0
SPLINE
  5
223
330
1F
100
AcDbEntity
  8
0
  6
Continuous
 62
     8
370
    18
100
AcDbSpline
210
0.0
220
0.0
230
1.0
 70
     8
 71
     3
 72
     9
 73
     5
 74
     0
 42
0.000000001
 43
0.00000001
 40
0.0
 40
0.0
 40
0.0
 40
0.0
 40
0.540550382146166
 40
1.0
 40
1.0
 40
1.0
 40
1.0
 10
95.54356565935663
 20
234.2877692527533
 30
0.0
 10
95.37940043027729
 20
234.3908659672363
 30
0.0
 10
95.07570028594003
 20
234.5815914164972
 30
0.0
 10
94.7188002221529
 20
234.6005074919414
 30
0.0
 10
94.55482262423388
 20
234.6091984755755
 30
0.0
  0
SPLINE
  5
224
330
1F
100
AcDbEntity
  8
0
  6
Continuous
 62
     8
370
    18
100
AcDbSpline
210
0.0
220
0.0
230
1.0
 70
     8
 71
     3
 72
     9
 73
     5
 74
     0
 42
0.000000001
 43
0.00000001
 40
0.0
 40
0.0
 40
0.0
 40
0.0
 40
0.5791854182525081
 40
1.0
 40
1.0
 40
1.0
 40
1.0
 10
94.55482262423388
 20
234.6091984755755
 30
0.0
 10
94.3469504834019
 20
234.59510079721
 30
0.0
 10
93.98804617697242
 20
234.5707602701159
 30
0.0
 10
93.69154187064092
 20
234.3715850779423
 30
0.0
 10
93.5667685349857
 20
234.2877692527533
 30
0.0
  0
SPLINE
  5
225
330
1F
100
AcDbEntity
  8
0
  6
Continuous
 62
     8
370
    18
100
AcDbSpline
210
0.0
220
0.0
230
1.0
 70
     8
 71
     3
 72
     9
 73
     5
 74
     0
 42
0.000000001
 43
0.00000001
 40
0.0
 40
0.0
 40
0.0
 40
0.0
 40
0.5432550787477689
 40
1.0
 40
1.0
 40
1.0
 40
1.0
 10
93.5667685349857
 20
234.2877692527533
 30
0.0
 10
93.4355771770669
 20
234.1452047658733
 30
0.0
 10
93.19408590887444
 20
233.8827783432642
 30
0.0
 10
93.15761327349779
 20
233.5300628164258
 30
0.0
 10
93.14095458252481
 20
233.3689617908955
 30
0.0
  0
LINE
  5
226
330
1F
100
AcDbEntity
  8
0
  6
Continuous
 62
     8
370
    18
100
AcDbLine
 10
93.1409545825
 20
233.3689617909
 30
0.0
 11
93.1409545825
 21
233.3000606842
 31
0.0
  0
LINE
  5
227
330
1F
100
AcDbEntity
  8
0
  6
Continuous
 62
     8
370
    18
100
AcDbLine
 10
93.1409545825
 20
233.3000606842
 30
0.0
 11
93.1409545825
 21
233.2277136839
 31
0.0
  0
SPLINE
  5
228
330
1F
100
AcDbEntity
  8
0
  6
Continuous
 62
     8
370
    18
100
AcDbSpline
210
0.0
220
0.0
230
1.0
 70
     8
 71
     3
 72
    10
 73
     6
 74
     0
 42
0.000000001
 43
0.00000001
 40
0.0
 40
0.0
 40
0.0
 40
0.0
 40
0.2938663100987141
 40
0.5754573723121222
 40
1.0
 40
1.0
 40
1.0
 40
1.0
 10
93.14095458252481
 20
233.227713683939
 30
0.0
 10
93.14870160836941
 20
233.1256899163252
 30
0.0
 10
93.16387205487028
 20
232.925904070834
 30
0.0
 10
93.29358861465194
 20
232.5958773047247
 30
0.0
 10
93.46419583632218
 20
232.4166571810432
 30
0.0
 10
93.5667685349857
 20
232.3089062220812
 30
0.0
  0
SPLINE
  5
229
330
1F
100
AcDbEntity
  8
0
  6
Continuous
 62
     8
370
    18
100
AcDbSpline
210
0.0
220
0.0
230
1.0
 70
     8
 71
     3
 72
     9
 73
     5
 74
     0
 42
0.000000001
 43
0.00000001
 40
0.0
 40
0.0
 40
0.0
 40
0.0
 40
0.5388881263066402
 40
1.0
 40
1.0
 40
1.0
 40
1.0
 10
93.5667685349857
 20
232.3089062220812
 30
0.0
 10
93.73037154282127
 20
232.2065283902971
 30
0.0
 10
94.0339651828535
 20
232.0165486397953
 30
0.0
 10
94.39044537493064
 20
231.9978309123812
 30
0.0
 10
94.55482262423388
 20
231.989199946022
 30
0.0
  0
SPLINE
  5
22A
330
1F
100
AcDbEntity
  8
0
  6
Continuous
 62
     8
370
    18
100
AcDbSpline
210
0.0
220
0.0
230
1.0
 70
     8
 71
     3
 72
     9
 73
     5
 74
     0
 42
0.000000001
 43
0.00000001
 40
0.0
 40
0.0
 40
0.0
 40
0.0
 40
0.5782408299819023
 40
1.0
 40
1.0
 40
1.0
 40
1.0
 10
94.55482262423388
 20
231.989199946022
 30
0.0
 10
94.76212545492683
 20
232.0035812991575
 30
0.0
 10
95.12063149591228
 20
232.0284521702371
 30
0.0
 10
95.418103931725
 20
232.2257106495621
 30
0.0
 10
95.54356565935663
 20
232.3089062220812
 30
0.0
  0
SPLINE
  5
22B
330
1F
100
AcDbEntity
  8
0
  6
Continuous
 62
     8
370
    18
100
AcDbSpline
210
0.0
220
0.0
230
1.0
 70
     8
 71
     3
 72
     9
 73
     5
 74
     0
 42
0.000000001
 43
0.00000001
 40
0.0
 40
0.0
 40
0.0
 40
0.0
 40
0.5431994793785184
 40
1.0
 40
1.0
 40
1.0
 40
1.0
 10
95.54356565935663
 20
232.3089062220812
 30
0.0
 10
95.67351248304185
 20
232.4519055702732
 30
0.0
 10
95.9127373509189
 20
232.7151594090944
 30
0.0
 10
95.94925387508685
 20
233.0669950019496
 30
0.0
 10
95.96593464233806
 20
233.227713683939
 30
0.0
  0
LINE
  5
22C
330
1F
100
AcDbEntity
  8
0
  6
Continuous
 62
     8
370
    18
100
AcDbLine
 10
95.9659346423
 20
233.2277136839
 30
0.0
 11
95.9659346423
 21
233.3000606842
 31
0.0
  0
LINE
  5
22D
330
1F
100
AcDbEntity
  8
0
  6
Continuous
 62
     8
370
    18
100
AcDbLine
 10
95.9659346423
 20
233.3000606842
 30
0.0
 11
95.9659346423
 21
233.3689617909
 31
0.0
  0
SPLINE
  5
22E
330
1F
100
AcDbEntity
  8
0
  6
Continuous
 62
     8
370
    18
100
AcDbSpline
210
0.0
220
0.0
230
1.0
 70
     8
 71
     3
 72
    10
 73
     6
 74
     0
 42
0.000000001
 43
0.00000001
 40
0.0
 40
0.0
 40
0.0
 40
0.0
 40
0.295039076934775
 40
0.5769119542130506
 40
1.0
 40
1.0
 40
1.0
 40
1.0
 10
95.96593464233806
 20
233.3689617908955
 30
0.0
 10
95.95822333275633
 20
233.4712171127496
 30
0.0
 10
95.94314483289605
 20
233.6711645846995
 30
0.0
 10
95.8143927388301
 20
234.0008380547989
 30
0.0
 10
95.64514254383995
 20
234.1801523290471
 30
0.0
 10
95.54356565935663
 20
234.2877692527533
 30
0.0
  0
SPLINE
  5
22F
330
1F
100
AcDbEntity
  8
0
  6
Continuous
 62
     8
370
    18
100
AcDbSpline
210
0.0
220
0.0
230
1.0
 70
     8
 71
     3
 72
    12
 73
     8
 74
     0
 42
0.000000001
 43
0.00000001
 40
0.0
 40
0.0
 40
0.0
 40
0.0
 40
0.2014210744582366
 40
0.4009192321295402
 40
0.6036603854602315
 40
0.8168296453832461
 40
1.0
 40
1.0
 40
1.0
 40
1.0
 10
68.56670390119902
 20
203.2778772510052
 30
0.0
 10
68.5866665729131
 20
203.2732521520321
 30
0.0
 10
68.62640133769075
 20
203.2640461087529
 30
0.0
 10
68.93526856015357
 20
203.192841278135
 30
0.0
 10
69.39803299839596
 20
203.0873080884403
 30
0.0
 10
69.96757710669515
 20
202.9590852038443
 30
0.0
 10
70.3773333237797
 20
202.8687070371566
 30
0.0
 10
70.56670422902457
 20
202.826938310957
 30
0.0
  0
SPLINE
  5
230
330
1F
100
AcDbEntity
  8
0
  6
Continuous
 62
     8
370
    18
100
AcDbSpline
210
0.0
220
0.0
230
1.0
 70
     8
 71
     3
 72
    12
 73
     8
 74
     0
 42
0.000000001
 43
0.00000001
 40
0.0
 40
0.0
 40
0.0
 40
0.0
 40
0.2014210744582366
 40
0.4009192321295402
 40
0.6036603854602315
 40
0.8168296453832461
 40
1.0
 40
1.0
 40
1.0
 40
1.0
 10
123.5667036031758
 20
203.2778772510052
 30
0.0
 10
123.5467409314617
 20
203.2732521520321
 30
0.0
 10
123.5070061666841
 20
203.2640461087529
 30
0.0
 10
123.1981389442213
 20
203.192841278135
 30
0.0
 10
122.7353745059789
 20
203.0873080884403
 30
0.0
 10
122.1658303976797
 20
202.9590852038443
 30
0.0
 10
121.7560741805951
 20
202.8687070371566
 30
0.0
 10
121.5667032753502
 20
202.826938310957
 30
0.0
  0
LINE
  5
231
330
1F
100
AcDbEntity
  8
0
  6
Continuous
 62
     8
370
    18
100
AcDbLine
 10
99.6811280144
 20
233.3300325073
 30
0.0
 11
99.6811280144
 21
233.2673321463
 31
0.0
  0
SPLINE
  5
232
330
1F
100
AcDbEntity
  8
0
  6
Continuous
 62
     8
370
    18
100
AcDbSpline
210
0.0
220
0.0
230
1.0
 70
     8
 71
     3
 72
     9
 73
     5
 74
     0
 42
0.000000001
 43
0.00000001
 40
0.0
 40
0.0
 40
0.0
 40
0.0
 40
0.6449766370913907
 40
1.0
 40
1.0
 40
1.0
 40
1.0
 10
99.68112801438323
 20
233.2673321462631
 30
0.0
 10
99.68736374557218
 20
233.1006044569404
 30
0.0
 10
99.69703189606066
 20
232.8421025520114
 30
0.0
 10
99.83530038834672
 20
232.6275960623042
 30
0.0
 10
99.88438893346242
 20
232.5514412469626
 30
0.0
  0
SPLINE
  5
233
330
1F
100
AcDbEntity
  8
0
  6
Continuous
 62
     8
370
    18
100
AcDbSpline
210
0.0
220
0.0
230
1.0
 70
     8
 71
     3
 72
    10
 73
     6
 74
     0
 42
0.000000001
 43
0.00000001
 40
0.0
 40
0.0
 40
0.0
 40
0.0
 40
0.3964422124844696
 40
0.7121082944468178
 40
1.0
 40
1.0
 40
1.0
 40
1.0
 10
99.88438893346242
 20
232.5514412469626
 30
0.0
 10
99.94080048368008
 20
232.49602861081
 30
0.0
 10
100.0421295842338
 20
232.3964938070511
 30
0.0
 10
100.2311680331455
 20
232.3226761473066
 30
0.0
 10
100.3504556144901
 20
232.314519714751
 30
0.0
 10
100.4073547316169
 20
232.3106291688442
 30
0.0
  0
SPLINE
  5
234
330
1F
100
AcDbEntity
  8
0
  6
Continuous
 62
     8
370
    18
100
AcDbSpline
210
0.0
220
0.0
230
1.0
 70
     8
 71
     3
 72
    11
 73
     7
 74
     0
 42
0.000000001
 43
0.00000001
 40
0.0
 40
0.0
 40
0.0
 40
0.0
 40
0.148543569835652
 40
0.4132042169571884
 40
0.6805337479043717
 40
0.9999999999999999
 40
0.9999999999999999
 40
0.9999999999999999
 40
0.9999999999999999
 10
100.4073547316169
 20
232.3106291688442
 30
0.0
 10
100.4368112742374
 20
232.3115379133817
 30
0.0
 10
100.5187506516286
 20
232.3140657715408
 30
0.0
 10
100.6507507497009
 20
232.3471263828079
 30
0.0
 10
100.8044841829533
 20
232.4221729355209
 30
0.0
 10
100.8864080695574
 20
232.5058728998733
 30
0.0
 10
100.9310094756459
 20
232.5514412469626
 30
0.0
  0
SPLINE
  5
235
330
1F
100
AcDbEntity
  8
0
  6
Continuous
 62
     8
370
    18
100
AcDbSpline
210
0.0
220
0.0
230
1.0
 70
     8
 71
     3
 72
    10
 73
     6
 74
     0
 42
0.000000001
 43
0.00000001
 40
0.0
 40
0.0
 40
0.0
 40
0.0
 40
0.2134737666692481
 40
0.4715169678250574
 40
1.0
 40
1.0
 40
1.0
 40
1.0
 10
100.9310094756459
 20
232.5514412469626
 30
0.0
 10
100.9622948979191
 20
232.5954982103305
 30
0.0
 10
101.0313975688353
 20
232.692810428609
 30
0.0
 10
101.1155528938893
 20
232.9344659528099
 30
0.0
 10
101.125923827884
 20
233.1335580810614
 30
0.0
 10
101.1328922701453
 20
233.2673321462631
 30
0.0
  0
LINE
  5
236
330
1F
100
AcDbEntity
  8
0
  6
Continuous
 62
     8
370
    18
100
AcDbLine
 10
101.1328922701
 20
233.2673321463
 30
0.0
 11
101.1328922701
 21
233.3300325073
 31
0.0
  0
SPLINE
  5
237
330
1F
100
AcDbEntity
  8
0
  6
Continuous
 62
     8
370
    18
100
AcDbSpline
210
0.0
220
0.0
230
1.0
 70
     8
 71
     3
 72
     9
 73
     5
 74
     0
 42
0.000000001
 43
0.00000001
 40
0.0
 40
0.0
 40
0.0
 40
0.0
 40
0.6450819008419778
 40
1.0
 40
1.0
 40
1.0
 40
1.0
 10
101.1328922701453
 20
233.3300325072765
 30
0.0
 10
101.1263745128733
 20
233.4967552569971
 30
0.0
 10
101.1162707457958
 20
233.7552073225455
 30
0.0
 10
100.9795382966057
 20
233.9707882064554
 30
0.0
 10
100.9310094756459
 20
234.0473017639875
 30
0.0
  0
SPLINE
  5
238
330
1F
100
AcDbEntity
  8
0
  6
Continuous
 62
     8
370
    18
100
AcDbSpline
210
0.0
220
0.0
230
1.0
 70
     8
 71
     3
 72
    10
 73
     6
 74
     0
 42
0.000000001
 43
0.00000001
 40
0.0
 40
0.0
 40
0.0
 40
0.0
 40
0.395730154743506
 40
0.7097828925834877
 40
1.0
 40
1.0
 40
1.0
 40
1.0
 10
100.9310094756459
 20
234.0473017639875
 30
0.0
 10
100.8744122558998
 20
234.1022369910071
 30
0.0
 10
100.7728992984915
 20
234.2007689928554
 30
0.0
 10
100.5841412606636
 20
234.2748253588325
 30
0.0
 10
100.4647132821657
 20
234.2828724918074
 30
0.0
 10
100.4073547316169
 20
234.2867373473406
 30
0.0
  0
SPLINE
  5
239
330
1F
100
AcDbEntity
  8
0
  6
Continuous
 62
     8
370
    18
100
AcDbSpline
210
0.0
220
0.0
230
1.0
 70
     8
 71
     3
 72
    11
 73
     7
 74
     0
 42
0.000000001
 43
0.00000001
 40
0.0
 40
0.0
 40
0.0
 40
0.0
 40
0.1477581565107226
 40
0.4137854093632631
 40
0.6817549982100658
 40
1.0
 40
1.0
 40
1.0
 40
1.0
 10
100.4073547316169
 20
234.2867373473406
 30
0.0
 10
100.3781263353325
 20
234.2857786019326
 30
0.0
 10
100.2962744483898
 20
234.2830937087905
 30
0.0
 10
100.1643722003545
 20
234.2501781960422
 30
0.0
 10
100.0105286888813
 20
234.1758791333679
 30
0.0
 10
99.92877272575696
 20
234.0925432601154
 30
0.0
 10
99.88438893346242
 20
234.0473017639875
 30
0.0
  0
SPLINE
  5
23A
330
1F
100
AcDbEntity
  8
0
  6
Continuous
 62
     8
370
    18
100
AcDbSpline
210
0.0
220
0.0
230
1.0
 70
     8
 71
     3
 72
    10
 73
     6
 74
     0
 42
0.000000001
 43
0.00000001
 40
0.0
 40
0.0
 40
0.0
 40
0.0
 40
0.2143388346573365
 40
0.4726950348322989
 40
1.0
 40
1.0
 40
1.0
 40
1.0
 10
99.88438893346242
 20
234.0473017639875
 30
0.0
 10
99.85265973999213
 20
234.0031049012202
 30
0.0
 10
99.78268533597611
 20
233.9056347548572
 30
0.0
 10
99.69842779137106
 20
233.6632125199106
 30
0.0
 10
99.68807583892342
 20
233.463842108967
 30
0.0
 10
99.68112801438323
 20
233.3300325072765
 30
0.0
  0
SPLINE
  5
23B
330
1F
100
AcDbEntity
  8
0
  6
Continuous
 62
     8
370
    18
100
AcDbSpline
210
0.0
220
0.0
230
1.0
 70
     8
 71
     3
 72
    10
 73
     6
 74
     0
 42
0.000000001
 43
0.00000001
 40
0.0
 40
0.0
 40
0.0
 40
0.0
 40
0.3957299703374404
 40
0.7095060168312487
 40
1.0
 40
1.0
 40
1.0
 40
1.0
 10
95.07916643055282
 20
234.0473017639875
 30
0.0
 10
95.02245668957478
 20
234.1022296230605
 30
0.0
 10
94.9207815437612
 20
234.2007100249129
 30
0.0
 10
94.73185851034349
 20
234.2748731841482
 30
0.0
 10
94.6122990749877
 20
234.2828855294609
 30
0.0
 10
94.55482262423388
 20
234.2867373473406
 30
0.0
  0
SPLINE
  5
23C
330
1F
100
AcDbEntity
  8
0
  6
Continuous
 62
     8
370
    18
100
AcDbSpline
210
0.0
220
0.0
230
1.0
 70
     8
 71
     3
 72
     9
 73
     5
 74
     0
 42
0.000000001
 43
0.00000001
 40
0.0
 40
0.0
 40
0.0
 40
0.0
 40
0.6453073408574217
 40
1.0
 40
1.0
 40
1.0
 40
1.0
 10
95.28036016276232
 20
233.3300325072765
 30
0.0
 10
95.27381571386744
 20
233.4967120845557
 30
0.0
 10
95.26367411391881
 20
233.7550069569766
 30
0.0
 10
95.12747518929869
 20
233.9707716214105
 30
0.0
 10
95.07916643055282
 20
234.0473017639875
 30
0.0
  0
LINE
  5
23D
330
1F
100
AcDbEntity
  8
0
  6
Continuous
 62
     8
370
    18
100
AcDbLine
 10
95.2803601628
 20
233.2673321463
 30
0.0
 11
95.2803601628
 21
233.3300325073
 31
0.0
  0
SPLINE
  5
23E
330
1F
100
AcDbEntity
  8
0
  6
Continuous
 62
     8
370
    18
100
AcDbSpline
210
0.0
220
0.0
230
1.0
 70
     8
 71
     3
 72
    10
 73
     6
 74
     0
 42
0.000000001
 43
0.00000001
 40
0.0
 40
0.0
 40
0.0
 40
0.0
 40
0.2132514310453084
 40
0.4713092752765329
 40
1.0
 40
1.0
 40
1.0
 40
1.0
 10
95.07916643055282
 20
232.5514412469626
 30
0.0
 10
95.1102928219164
 20
232.5955111584651
 30
0.0
 10
95.17908559335825
 20
232.6929105426095
 30
0.0
 10
95.26301429912967
 20
232.9344974010987
 30
0.0
 10
95.27338865350379
 20
233.1335618966744
 30
0.0
 10
95.28036016276232
 20
233.2673321462631
 30
0.0
  0
SPLINE
  5
23F
330
1F
100
AcDbEntity
  8
0
  6
Continuous
 62
     8
370
    18
100
AcDbSpline
210
0.0
220
0.0
230
1.0
 70
     8
 71
     3
 72
    11
 73
     7
 74
     0
 42
0.000000001
 43
0.00000001
 40
0.0
 40
0.0
 40
0.0
 40
0.0
 40
0.148920995862054
 40
0.4133596366074577
 40
0.6805057372403164
 40
1.0
 40
1.0
 40
1.0
 40
1.0
 10
94.55482262423388
 20
232.3106291688442
 30
0.0
 10
94.58438461144674
 20
232.3115327925433
 30
0.0
 10
94.66643974558657
 20
232.3140409785901
 30
0.0
 10
94.79857584031848
 20
232.3471256628659
 30
0.0
 10
94.95238103525702
 20
232.4222190483526
 30
0.0
 10
95.03446313235668
 20
232.5058787556003
 30
0.0
 10
95.07916643055282
 20
232.5514412469626
 30
0.0
  0
SPLINE
  5
240
330
1F
100
AcDbEntity
  8
0
  6
Continuous
 62
     8
370
    18
100
AcDbSpline
210
0.0
220
0.0
230
1.0
 70
     8
 71
     3
 72
    10
 73
     6
 74
     0
 42
0.000000001
 43
0.00000001
 40
0.0
 40
0.0
 40
0.0
 40
0.0
 40
0.3959252667441231
 40
0.711534495322419
 40
1.0
 40
1.0
 40
1.0
 40
1.0
 10
94.0318568260794
 20
232.5514412469626
 30
0.0
 10
94.08813994521446
 20
232.4960197683294
 30
0.0
 10
94.18928878347442
 20
232.396419421644
 30
0.0
 10
94.37839489612962
 20
232.3226364025845
 30
0.0
 10
94.49780187439683
 20
232.314509859701
 30
0.0
 10
94.55482262423388
 20
232.3106291688442
 30
0.0
  0
SPLINE
  5
241
330
1F
100
AcDbEntity
  8
0
  6
Continuous
 62
     8
370
    18
100
AcDbSpline
210
0.0
220
0.0
230
1.0
 70
     8
 71
     3
 72
     9
 73
     5
 74
     0
 42
0.000000001
 43
0.00000001
 40
0.0
 40
0.0
 40
0.0
 40
0.0
 40
0.6451601158609231
 40
1.0
 40
1.0
 40
1.0
 40
1.0
 10
93.82894049635283
 20
233.2673321462631
 30
0.0
 10
93.83527015211247
 20
233.1006393691623
 30
0.0
 10
93.84508113639997
 20
232.8422650943074
 30
0.0
 10
93.98293926404
 20
232.6276095835349
 30
0.0
 10
94.0318568260794
 20
232.5514412469626
 30
0.0
  0
LINE
  5
242
330
1F
100
AcDbEntity
  8
0
  6
Continuous
 62
     8
370
    18
100
AcDbLine
 10
93.8289404964
 20
233.3300325073
 30
0.0
 11
93.8289404964
 21
233.2673321463
 31
0.0
  0
SPLINE
  5
243
330
1F
100
AcDbEntity
  8
0
  6
Continuous
 62
     8
370
    18
100
AcDbSpline
210
0.0
220
0.0
230
1.0
 70
     8
 71
     3
 72
    10
 73
     6
 74
     0
 42
0.000000001
 43
0.00000001
 40
0.0
 40
0.0
 40
0.0
 40
0.0
 40
0.2141351624915021
 40
0.4725352777972698
 40
1.0
 40
1.0
 40
1.0
 40
1.0
 10
94.0318568260794
 20
234.0473017639875
 30
0.0
 10
94.00026900147073
 20
234.0030911257584
 30
0.0
 10
93.93056367469109
 20
233.9055308466611
 30
0.0
 10
93.84632419514833
 20
233.6632173631938
 30
0.0
 10
93.83592220767443
 20
233.4638475548166
 30
0.0
 10
93.82894049635283
 20
233.3300325072765
 30
0.0
  0
SPLINE
  5
244
330
1F
100
AcDbEntity
  8
0
  6
Continuous
 62
     8
370
    18
100
AcDbSpline
210
0.0
220
0.0
230
1.0
 70
     8
 71
     3
 72
    11
 73
     7
 74
     0
 42
0.000000001
 43
0.00000001
 40
0.0
 40
0.0
 40
0.0
 40
0.0
 40
0.1481859584068918
 40
0.4143889354957999
 40
0.6821968246597044
 40
1.0
 40
1.0
 40
1.0
 40
1.0
 10
94.55482262423388
 20
234.2867373473406
 30
0.0
 10
94.52550516446148
 20
234.2857813165506
 30
0.0
 10
94.44352147938675
 20
234.2831078609437
 30
0.0
 10
94.31150526217841
 20
234.2502144839964
 30
0.0
 10
94.15770584799905
 20
234.1759221509892
 30
0.0
 10
94.07612801089759
 20
234.0925478599641
 30
0.0
 10
94.0318568260794
 20
234.0473017639875
 30
0.0
  0
LWPOLYLINE
  5
245
330
1F
100
AcDbEntity
  8
0
  6
Continuous
 62
     8
370
    18
100
AcDbPolyline
 90
        9
 70
   128
 43
0.0
 10
121.84163715
 20
202.0756646044
 10
121.8363528257
 20
202.0901010356
 10
121.8207084691
 20
202.1328524671
 10
121.7953019892
 20
202.2022779084
 10
121.7611112749
 20
202.2957081891
 10
121.7194476282
 20
202.4095530606
 10
121.6719166492
 20
202.5394390322
 10
121.6203400051
 20
202.6803723521
 10
121.5667032754
 20
202.826938311
  0
LWPOLYLINE
  5
246
330
1F
100
AcDbEntity
  8
0
  6
Continuous
 62
     8
370
    18
100
AcDbPolyline
 90
        9
 70
   128
 43
0.0
 10
70.2917703544
 20
202.0756646044
 10
70.2970546787
 20
202.0901010356
 10
70.3126990353
 20
202.1328524671
 10
70.3381055151
 20
202.2022779084
 10
70.3722962295
 20
202.2957081891
 10
70.4139598762
 20
202.4095530606
 10
70.4614908551
 20
202.5394390322
 10
70.5130674993
 20
202.6803723521
 10
70.566704229
 20
202.826938311
  0
LINE
  5
247
330
1F
100
AcDbEntity
  8
DEFAULT_LAYER
  6
PHANTOM
370
    18
100
AcDbLine
 10
68.5667037522
 20
239.5075672784
 30
0.0
 11
42.4113591048
 21
239.5075672784
 31
0.0
  0
LINE
  5
248
330
1F
100
AcDbEntity
  8
DEFAULT_LAYER
  6
PHANTOM
370
    18
100
AcDbLine
 10
123.5667037522
 20
239.5075672784
 30
0.0
 11
149.5449929718
 21
239.5075672784
 31
0.0
  0
MTEXT
  5
249
330
1F
100
AcDbEntity
  8
DEFAULT_LAYER
100
AcDbMText
 10
136.2328103138
 20
239.6995132527
 30
0.0
 40
2.1166666667
 41
0.0
 71
     1
 72
     1
  1
△
  7
SLDTEXTSTYLE0
 73
     1
 44
1.0
  0
MTEXT
  5
24A
330
1F
100
AcDbEntity
  8
DEFAULT_LAYER
100
AcDbMText
 10
140.3427758966
 20
238.9096883674
 30
0.0
 40
2.1166666667
 41
0.0
 71
     1
 72
     1
  1
W.L.
  7
SLDTEXTSTYLE0
 73
     1
 44
1.0
  0
INSERT
  5
250
330
1F
100
AcDbEntity
  8
DEFAULT_LAYER
100
AcDbBlockReference
  2
SW_NOTE_4
 10
77.8276126931
 20
244.8906491679
 30
0.0
  0
LEADER
  5
251
330
1F
100
AcDbEntity
  8
DEFAULT_LAYER
100
AcDbLeader
  3
SLDDIMSTYLE2
 76
     2
 10
89.4096107074
 20
234.023930844
 30
0.0
 10
77.8276126931
 20
244.8906491679
 30
0.0
  0
LINE
  5
252
330
1F
100
AcDbEntity
  8
DEFAULT_LAYER
  6
CENTERX2
370
    18
100
AcDbLine
 10
96.0667037522
 20
186.1952991775
 30
0.0
 11
96.0667037522
 21
254.5093536256
 31
0.0
  0
LINE
  5
253
330
1F
100
AcDbEntity
  8
DEFAULT_LAYER
  6
CENTERX2
370
    18
100
AcDbLine
 10
96.0667037522
 20
214.718832115
 30
0.0
 11
96.0667037522
 21
251.150082115
 31
0.0
  0
LINE
  5
254
330
1F
100
AcDbEntity
  8
0
  6
Continuous
 62
     7
370
    25
100
AcDbLine
 10
87.5667032903
 20
41.4715539359
 30
0.0
 11
87.5667032903
 21
41.1360282146
 31
0.0
  0
LINE
  5
255
330
1F
100
AcDbEntity
  8
0
  6
Continuous
 62
     7
370
    25
100
AcDbLine
 10
104.5667042141
 20
41.1360282146
 30
0.0
 11
104.5667042141
 21
41.4715539359
 31
0.0
  0
SPLINE
  5
256
330
1F
100
AcDbEntity
  8
0
  6
Continuous
 62
     7
370
    25
100
AcDbSpline
210
0.0
220
0.0
230
1.0
 70
     8
 71
     3
 72
    13
 73
     9
 74
     0
 42
0.000000001
 43
0.00000001
 40
0.0
 40
0.0
 40
0.0
 40
0.0
 40
0.0837278125254897
 40
0.506965195293991
 40
0.7086129394392545
 40
0.8294061265475325
 40
0.96854612126884
 40
0.9999999999999999
 40
0.9999999999999999
 40
0.9999999999999999
 40
0.9999999999999999
 10
86.14112875661007
 20
58.78822246306648
 30
0.0
 10
86.13679379017037
 20
58.77503637578754
 30
0.0
 10
86.11054591576153
 20
58.6951956739838
 30
0.0
 10
86.06359234121621
 20
58.60884986207075
 30
0.0
 10
85.99931673726734
 20
58.52095486899393
 30
0.0
 10
85.9445506589251
 20
58.45208916533124
 30
0.0
 10
85.87953909254728
 20
58.37415572209616
 30
0.0
 10
85.84538429366414
 20
58.32588085097795
 30
0.0
 10
85.83908687582365
 20
58.31697999239971
 30
0.0
  0
SPLINE
  5
257
330
1F
100
AcDbEntity
  8
0
  6
Continuous
 62
     7
370
    25
100
AcDbSpline
210
0.0
220
0.0
230
1.0
 70
     8
 71
     3
 72
    14
 73
    10
 74
     0
 42
0.000000001
 43
0.00000001
 40
0.0
 40
0.0
 40
0.0
 40
0.0
 40
0.1028454214379188
 40
0.1708044501161799
 40
0.2279292006747686
 40
0.3318312629785228
 40
0.5722911475292595
 40
0.836854164967051
 40
1.0
 40
1.0
 40
1.0
 40
1.0
 10
106.2954521854793
 20
58.31254712977518
 30
0.0
 10
106.2727194845051
 20
58.34429303361015
 30
0.0
 10
106.2349652856766
 20
58.39701625232188
 30
0.0
 10
106.1853664675538
 20
58.45679752747601
 30
0.0
 10
106.1561638352561
 20
58.49318742254935
 30
0.0
 10
106.1026611647023
 20
58.56236242598975
 30
0.0
 10
106.0640429678944
 20
58.62193983181746
 30
0.0
 10
106.0112559488484
 20
58.72641840282343
 30
0.0
 10
105.9880163135526
 20
58.79926949730904
 30
0.0
 10
105.9791517560755
 20
58.82705791593601
 30
0.0
  0
SPLINE
  5
258
330
1F
100
AcDbEntity
  8
0
  6
Continuous
 62
     7
370
    25
100
AcDbSpline
210
0.0
220
0.0
230
1.0
 70
     8
 71
     3
 72
    10
 73
     6
 74
     0
 42
0.000000001
 43
0.00000001
 40
0.0
 40
0.0
 40
0.0
 40
0.0
 40
0.1555048660219338
 40
0.8332810027567135
 40
1.0
 40
1.0
 40
1.0
 40
1.0
 10
86.0351014067804
 20
43.40851303861548
 30
0.0
 10
86.03316412997845
 20
43.4084814505404
 30
0.0
 10
86.02278313035151
 20
43.4083121841788
 30
0.0
 10
86.05424070768908
 20
43.40851830545285
 30
0.0
 10
86.10596302399941
 20
43.39425884111346
 30
0.0
 10
86.11617396822325
 20
43.39144375846793
 30
0.0
  0
SPLINE
  5
259
330
1F
100
AcDbEntity
  8
0
  6
Continuous
 62
     7
370
    25
100
AcDbSpline
210
0.0
220
0.0
230
1.0
 70
     8
 71
     3
 72
    19
 73
    15
 74
     0
 42
0.000000001
 43
0.00000001
 40
0.0
 40
0.0
 40
0.0
 40
0.0
 40
0.0930932313557887
 40
0.1412300926483571
 40
0.1632702609320294
 40
0.1837843857805941
 40
0.2466171591811804
 40
0.3084630398295203
 40
0.3890529868003169
 40
0.5050348772776686
 40
0.6470791459406258
 40
0.7632211796097048
 40
0.891973615977067
 40
1.0
 40
1.0
 40
1.0
 40
1.0
 10
86.20447918078057
 20
43.36646289304902
 30
0.0
 10
86.21982116694565
 20
43.36149245145165
 30
0.0
 10
86.24309622245669
 20
43.3539518825287
 30
0.0
 10
86.28452701447742
 20
43.33848678112731
 30
0.0
 10
86.32499835317358
 20
43.32243290523497
 30
0.0
 10
86.40195168991148
 20
43.29001119201415
 30
0.0
 10
86.53052496688719
 20
43.22724624912693
 30
0.0
 10
86.69437656060661
 20
43.12738949377199
 30
0.0
 10
86.8905179437912
 20
42.97965962370016
 30
0.0
 10
87.11728507586115
 20
42.75241165698107
 30
0.0
 10
87.31943962255043
 20
42.45875958265998
 30
0.0
 10
87.46713970940556
 20
42.12319510456374
 30
0.0
 10
87.5539081417411
 20
41.79784602713237
 30
0.0
 10
87.55887654392635
 20
41.57354422882455
 30
0.0
 10
87.56114329448096
 20
41.47121027783562
 30
0.0
  0
SPLINE
  5
25A
330
1F
100
AcDbEntity
  8
0
  6
Continuous
 62
     7
370
    25
100
AcDbSpline
210
0.0
220
0.0
230
1.0
 70
     8
 71
     3
 72
    12
 73
     8
 74
     0
 42
0.000000001
 43
0.00000001
 40
0.0
 40
0.0
 40
0.0
 40
0.0
 40
0.0680211489342695
 40
0.4733498562662559
 40
0.9176725911986715
 40
0.9793473508631119
 40
1.0
 40
1.0
 40
1.0
 40
1.0
 10
86.03676754286639
 20
43.40831746087481
 30
0.0
 10
86.03542087698864
 20
43.40831712167873
 30
0.0
 10
86.02604961364389
 20
43.40831476125965
 30
0.0
 10
86.08630291180346
 20
43.40272248391052
 30
0.0
 10
86.16985035999872
 20
43.37942453996317
 30
0.0
 10
86.23455688492795
 20
43.3568508298649
 30
0.0
 10
86.23263321008127
 20
43.35752529477871
 30
0.0
 10
86.23215063711754
 20
43.35769449100901
 30
0.0
  0
LINE
  5
25B
330
1F
100
AcDbEntity
  8
0
  6
Continuous
 62
     7
370
    25
100
AcDbLine
 10
86.0373570701
 20
43.4147519685
 30
0.0
 11
85.9005457838
 21
43.4404136308
 31
0.0
  0
LINE
  5
25C
330
1F
100
AcDbEntity
  8
0
  6
Continuous
 62
     7
370
    25
100
AcDbLine
 10
106.093737029
 20
43.4079346873
 30
0.0
 11
106.0932592606
 21
43.408017575
 31
0.0
  0
SPLINE
  5
25D
330
1F
100
AcDbEntity
  8
0
  6
Continuous
 62
     7
370
    25
100
AcDbSpline
210
0.0
220
0.0
230
1.0
 70
     8
 71
     3
 72
     9
 73
     5
 74
     0
 42
0.000000001
 43
0.00000001
 40
0.0
 40
0.0
 40
0.0
 40
0.0
 40
0.6416842393678579
 40
1.0
 40
1.0
 40
1.0
 40
1.0
 10
106.2326670741116
 20
43.4414036266606
 30
0.0
 10
106.2024189169082
 20
43.43707150196842
 30
0.0
 10
106.1552802225977
 20
43.43032032369972
 30
0.0
 10
106.1096323695537
 20
43.41804974841966
 30
0.0
 10
106.0932760243689
 20
43.41365300790478
 30
0.0
  0
SPLINE
  5
25E
330
1F
100
AcDbEntity
  8
0
  6
Continuous
 62
     7
370
    25
100
AcDbSpline
210
0.0
220
0.0
230
1.0
 70
     8
 71
     3
 72
    12
 73
     8
 74
     0
 42
0.000000001
 43
0.00000001
 40
0.0
 40
0.0
 40
0.0
 40
0.0
 40
0.0020045281630454
 40
0.0544771164905964
 40
0.1838426721110041
 40
0.51590607993181
 40
0.9999999999999999
 40
0.9999999999999999
 40
0.9999999999999999
 40
0.9999999999999999
 10
105.8988941018855
 20
43.35686188862731
 30
0.0
 10
105.8988145692962
 20
43.35683376173728
 30
0.0
 10
105.896653109952
 20
43.35606935648089
 30
0.0
 10
105.9130187770633
 20
43.36185360198039
 30
0.0
 10
105.9576447406064
 20
43.37684907192987
 30
0.0
 10
106.046179884156
 20
43.40137347816845
 30
0.0
 10
106.0766952114673
 20
43.40537790292706
 30
0.0
 10
106.0947950114881
 20
43.4077530793946
 30
0.0
  0
SPLINE
  5
25F
330
1F
100
AcDbEntity
  8
0
  6
Continuous
 62
     7
370
    25
100
AcDbSpline
210
0.0
220
0.0
230
1.0
 70
     8
 71
     3
 72
    23
 73
    19
 74
     0
 42
0.000000001
 43
0.00000001
 40
0.0
 40
0.0
 40
0.0
 40
0.0
 40
0.0226465209111042
 40
0.1353441368142743
 40
0.2406611036348982
 40
0.3388261851891232
 40
0.429617116294337
 40
0.5124217336375538
 40
0.5862352872473711
 40
0.6496484723040684
 40
0.7007881622199955
 40
0.7363139648052311
 40
0.7572716841120792
 40
0.7704699901628096
 40
0.7879888393840841
 40
0.8217310026436935
 40
0.89672676149695
 40
1.0
 40
1.0
 40
1.0
 40
1.0
 10
104.5721189235722
 20
41.47189945654084
 30
0.0
 10
104.5704081628951
 20
41.49538319115661
 30
0.0
 10
104.560184012879
 20
41.63573083233391
 30
0.0
 10
104.6035032545684
 20
41.88556071608994
 30
0.0
 10
104.6946956623643
 20
42.2012546633881
 30
0.0
 10
104.8297794716841
 20
42.47735918429962
 30
0.0
 10
104.9893408680869
 20
42.71122304131381
 30
0.0
 10
105.1622032987008
 20
42.90245972729212
 30
0.0
 10
105.335275822913
 20
43.0524325860093
 30
0.0
 10
105.4963852655616
 20
43.16426173496824
 30
0.0
 10
105.6314881310842
 20
43.24125598631612
 30
0.0
 10
105.7323167670629
 20
43.28993562415236
 30
0.0
 10
105.7924883585963
 20
43.31582582009328
 30
0.0
 10
105.8238614753648
 20
43.32859053892528
 30
0.0
 10
105.8512481805297
 20
43.33932712153048
 30
0.0
 10
105.8870868682247
 20
43.35268364465055
 30
0.0
 10
105.9314928494346
 20
43.36814088806989
 30
0.0
 10
105.9588481460491
 20
43.37599646191658
 30
0.0
 10
105.974695377556
 20
43.38054728434493
 30
0.0
  0
LINE
  5
260
330
1F
100
AcDbEntity
  8
0
  6
Continuous
 62
     7
370
    25
100
AcDbLine
 10
106.0877551441
 20
43.4064380519
 30
0.0
 11
106.0992681538
 21
43.4079486571
 31
0.0
  0
LINE
  5
261
330
1F
100
AcDbEntity
  8
0
  6
Continuous
 62
     7
370
    25
100
AcDbLine
 10
85.5892037158
 20
23.191671788
 30
0.0
 11
86.7512037163
 21
22.0296717875
 31
0.0
  0
LINE
  5
262
330
1F
100
AcDbEntity
  8
0
  6
Continuous
 62
     7
370
    25
100
AcDbLine
 10
105.3822037881
 20
22.0296717875
 30
0.0
 11
106.5442037885
 21
23.191671788
 31
0.0
  0
LINE
  5
263
330
1F
100
AcDbEntity
  8
0
  6
Continuous
 62
     7
370
    25
100
AcDbLine
 10
106.5442037885
 20
23.191671788
 30
0.0
 11
106.5442037885
 21
31.6721852563
 31
0.0
  0
LINE
  5
264
330
1F
100
AcDbEntity
  8
0
  6
Continuous
 62
     7
370
    25
100
AcDbLine
 10
85.5892037158
 20
31.6721852563
 30
0.0
 11
85.5892037158
 21
23.191671788
 31
0.0
  0
LINE
  5
265
330
1F
100
AcDbEntity
  8
0
  6
Continuous
 62
     7
370
    25
100
AcDbLine
 10
68.5667039012
 20
31.6721852563
 30
0.0
 11
68.5667039012
 21
67.9018757932
 31
0.0
  0
LINE
  5
266
330
1F
100
AcDbEntity
  8
0
  6
Continuous
 62
     7
370
    25
100
AcDbLine
 10
70.566704229
 20
31.6721852563
 30
0.0
 11
68.5667039012
 21
31.6721852563
 31
0.0
  0
LINE
  5
267
330
1F
100
AcDbEntity
  8
0
  6
Continuous
 62
     7
370
    25
100
AcDbLine
 10
70.566704229
 20
31.6721852563
 30
0.0
 11
121.5667032754
 21
31.6721852563
 31
0.0
  0
LINE
  5
268
330
1F
100
AcDbEntity
  8
0
  6
Continuous
 62
     7
370
    25
100
AcDbLine
 10
123.5667036032
 20
31.6721852563
 30
0.0
 11
123.5667036032
 21
67.9018757932
 31
0.0
  0
LINE
  5
269
330
1F
100
AcDbEntity
  8
0
  6
Continuous
 62
     7
370
    25
100
AcDbLine
 10
121.5667032754
 20
31.6721852563
 30
0.0
 11
123.5667036032
 21
31.6721852563
 31
0.0
  0
ARC
  5
26A
330
1F
100
AcDbEntity
  8
0
  6
Continuous
 62
     7
370
    25
100
AcDbCircle
 10
96.0667037522
 20
50.9721857658
 30
0.0
 40
13.0
100
AcDbArc
 50
180.0
 51
0.0
  0
LINE
  5
26B
330
1F
100
AcDbEntity
  8
0
  6
Continuous
 62
     7
370
    25
100
AcDbLine
 10
83.066703484
 20
58.6721857239
 30
0.0
 11
83.066703484
 21
50.9721859984
 31
0.0
  0
LINE
  5
26C
330
1F
100
AcDbEntity
  8
0
  6
Continuous
 62
     7
370
    25
100
AcDbLine
 10
109.0667040204
 20
50.9721859984
 30
0.0
 11
109.0667040204
 21
58.6721857239
 31
0.0
  0
ARC
  5
26D
330
1F
100
AcDbEntity
  8
0
  6
Continuous
 62
     7
370
    25
100
AcDbCircle
 10
96.0667037522
 20
58.6721857658
 30
0.0
 40
13.0
100
AcDbArc
 50
0.0
 51
180.0
  0
SPLINE
  5
26E
330
1F
100
AcDbEntity
  8
0
  6
Continuous
 62
     7
370
    25
100
AcDbSpline
210
0.0
220
0.0
230
1.0
 70
     8
 71
     3
 72
    12
 73
     8
 74
     0
 42
0.000000001
 43
0.00000001
 40
0.0
 40
0.0
 40
0.0
 40
0.0
 40
0.094799423068239
 40
0.3055401407714109
 40
0.5315941933499493
 40
0.7656459933014528
 40
1.0
 40
1.0
 40
1.0
 40
1.0
 10
69.07883259704462
 20
68.64828799591471
 30
0.0
 10
69.08175137143292
 20
68.64941303197703
 30
0.0
 10
69.09115863055554
 20
68.65303904219662
 30
0.0
 10
69.20942662913507
 20
68.6986338710453
 30
0.0
 10
69.48215899290861
 20
68.80277293463688
 30
0.0
 10
69.86097910528026
 20
68.94554246330094
 30
0.0
 10
70.1481115205338
 20
69.05121705453922
 30
0.0
 10
70.29177035441748
 20
69.10408843980242
 30
0.0
  0
ARC
  5
26F
330
1F
100
AcDbEntity
  8
0
  6
Continuous
 62
     7
370
    25
100
AcDbCircle
 10
69.3667037522
 20
67.9018759283
 30
0.0
 40
0.80000000000001
100
AcDbArc
 50
111.0902642688
 51
180.0
  0
SPLINE
  5
270
330
1F
100
AcDbEntity
  8
0
  6
Continuous
 62
     7
370
    25
100
AcDbSpline
210
0.0
220
0.0
230
1.0
 70
     8
 71
     3
 72
    12
 73
     8
 74
     0
 42
0.000000001
 43
0.00000001
 40
0.0
 40
0.0
 40
0.0
 40
0.0
 40
0.094799423068239
 40
0.3055401407714109
 40
0.5315941933499493
 40
0.7656459933014528
 40
1.0
 40
1.0
 40
1.0
 40
1.0
 10
123.0545749073302
 20
68.64828799591471
 30
0.0
 10
123.0516561329419
 20
68.64941303197703
 30
0.0
 10
123.0422488738193
 20
68.65303904219662
 30
0.0
 10
122.9239808752398
 20
68.6986338710453
 30
0.0
 10
122.6512485114662
 20
68.80277293463688
 30
0.0
 10
122.2724283990946
 20
68.94554246330094
 30
0.0
 10
121.985295983841
 20
69.05121705453922
 30
0.0
 10
121.8416371499573
 20
69.10408843980242
 30
0.0
  0
ARC
  5
271
330
1F
100
AcDbEntity
  8
0
  6
Continuous
 62
     7
370
    25
100
AcDbCircle
 10
122.7667037522
 20
67.9018759283
 30
0.0
 40
0.8000000000000114
100
AcDbArc
 50
0.0
 51
68.9097357312
  0
ARC
  5
272
330
1F
100
AcDbEntity
  8
0
  6
Continuous
 62
     7
370
    25
100
AcDbCircle
 10
96.0667037522
 20
-1.3278142342
 30
0.0
 40
75.0
100
AcDbArc
 50
69.8996294381
 51
110.1003705619
  0
SPLINE
  5
273
330
1F
100
AcDbEntity
  8
0
  6
Continuous
 62
     7
370
    25
100
AcDbSpline
210
0.0
220
0.0
230
1.0
 70
     8
 71
     3
 72
    13
 73
     9
 74
     0
 42
0.000000001
 43
0.00000001
 40
0.0
 40
0.0
 40
0.0
 40
0.0
 40
0.009467650762967
 40
0.1526258111480511
 40
0.3676248135569928
 40
0.5793851584115112
 40
0.7896679311750117
 40
1.0
 40
1.0
 40
1.0
 40
1.0
 10
101.4108594623779
 20
69.97218538747241
 30
0.0
 10
101.4114951033165
 20
69.97459158927073
 30
0.0
 10
101.4217421240682
 20
70.01338141268621
 30
0.0
 10
101.4463988479086
 20
70.1068606938359
 30
0.0
 10
101.4822402851886
 20
70.24320972092859
 30
0.0
 10
101.5142059618078
 20
70.36523923781692
 30
0.0
 10
101.5358073046789
 20
70.44791616221123
 30
0.0
 10
101.5385796045412
 20
70.45853963573411
 30
0.0
 10
101.5399659169292
 20
70.46385199503113
 30
0.0
  0
SPLINE
  5
274
330
1F
100
AcDbEntity
  8
0
  6
Continuous
 62
     7
370
    25
100
AcDbSpline
210
0.0
220
0.0
230
1.0
 70
     8
 71
     3
 72
    13
 73
     9
 74
     0
 42
0.000000001
 43
0.00000001
 40
0.0
 40
0.0
 40
0.0
 40
0.0
 40
0.009467650762967
 40
0.1526258111480511
 40
0.3676248135569928
 40
0.5793851584115112
 40
0.7896679311750117
 40
1.0
 40
1.0
 40
1.0
 40
1.0
 10
90.72254804199687
 20
69.97218538747241
 30
0.0
 10
90.72191240105838
 20
69.97459158927073
 30
0.0
 10
90.71166538030663
 20
70.01338141268621
 30
0.0
 10
90.68700865646626
 20
70.1068606938359
 30
0.0
 10
90.6511672191862
 20
70.24320972092859
 30
0.0
 10
90.61920154256704
 20
70.36523923781692
 30
0.0
 10
90.59760019969592
 20
70.44791616221123
 30
0.0
 10
90.5948278998336
 20
70.45853963573411
 30
0.0
 10
90.59344158744565
 20
70.46385199503113
 30
0.0
  0
CIRCLE
  5
275
330
1F
100
AcDbEntity
  8
0
  6
Continuous
 62
     7
370
    25
100
AcDbCircle
 10
96.0667037522
 20
55.4296709292
 30
0.0
 40
6.5
  0
CIRCLE
  5
276
330
1F
100
AcDbEntity
  8
0
  6
Continuous
 62
     7
370
    25
100
AcDbCircle
 10
96.0667037522
 20
55.4296709292
 30
0.0
 40
9.3155
  0
LINE
  5
277
330
1F
100
AcDbEntity
  8
0
  6
Continuous
 62
     7
370
    25
100
AcDbLine
 10
105.3822037881
 20
22.0296717875
 30
0.0
 11
86.7512037163
 21
22.0296717875
 31
0.0
  0
LINE
  5
278
330
1F
100
AcDbEntity
  8
0
  6
Continuous
 62
     7
370
    25
100
AcDbLine
 10
100.5456184154
 20
59.0296708673
 30
0.0
 11
91.587789089
 21
59.0296708673
 31
0.0
  0
SPLINE
  5
279
330
1F
100
AcDbEntity
  8
0
  6
Continuous
 62
     7
370
    25
100
AcDbSpline
210
0.0
220
0.0
230
1.0
 70
     8
 71
     3
 72
    13
 73
     9
 74
     0
 42
0.000000001
 43
0.00000001
 40
0.0
 40
0.0
 40
0.0
 40
0.0
 40
0.145503449135935
 40
0.2919839301921986
 40
0.4383133498762827
 40
0.5906360823692025
 40
0.7940872779470811
 40
1.0
 40
1.0
 40
1.0
 40
1.0
 10
100.545618415383
 20
59.02967086733391
 30
0.0
 10
100.5274416027065
 20
58.63783176007825
 30
0.0
 10
100.4909659230221
 20
57.85152240989494
 30
0.0
 10
100.4108286771493
 20
56.63452101727159
 30
0.0
 10
100.373354652672
 20
55.35584637925625
 30
0.0
 10
100.4249297742559
 20
53.91732249187102
 30
0.0
 10
100.5367244401308
 20
52.3747701601184
 30
0.0
 10
100.5566705400473
 20
51.28660793706654
 30
0.0
 10
100.5667035584723
 20
50.73925523758938
 30
0.0
  0
SPLINE
  5
27A
330
1F
100
AcDbEntity
  8
0
  6
Continuous
 62
     7
370
    25
100
AcDbSpline
210
0.0
220
0.0
230
1.0
 70
     8
 71
     3
 72
    13
 73
     9
 74
     0
 42
0.000000001
 43
0.00000001
 40
0.0
 40
0.0
 40
0.0
 40
0.0
 40
0.145503449135935
 40
0.2919839301921986
 40
0.4383133498762827
 40
0.5906360823692025
 40
0.7940872779470811
 40
1.0
 40
1.0
 40
1.0
 40
1.0
 10
91.5877890889918
 20
59.02967086733391
 30
0.0
 10
91.60596590166833
 20
58.63783176007825
 30
0.0
 10
91.64244158135271
 20
57.85152240989494
 30
0.0
 10
91.7225788272255
 20
56.63452101727159
 30
0.0
 10
91.76005285170277
 20
55.35584637925625
 30
0.0
 10
91.70847773011894
 20
53.91732249187102
 30
0.0
 10
91.59668306424399
 20
52.3747701601184
 30
0.0
 10
91.57673696432754
 20
51.28660793706654
 30
0.0
 10
91.5667039459025
 20
50.73925523758938
 30
0.0
  0
ARC
  5
27B
330
1F
100
AcDbEntity
  8
0
  6
Continuous
 62
     7
370
    25
100
AcDbCircle
 10
106.0667037522
 20
44.4296709292
 30
0.0
 40
1.000000000000006
100
AcDbArc
 50
272.7858296496
 51
0.0
  0
ARC
  5
27C
330
1F
100
AcDbEntity
  8
0
  6
Continuous
 62
     7
370
    25
100
AcDbCircle
 10
86.0667037522
 20
44.4296709292
 30
0.0
 40
1.000000000000006
100
AcDbArc
 50
180.0
 51
267.2141703504
  0
LINE
  5
27D
330
1F
100
AcDbEntity
  8
0
  6
Continuous
 62
     7
370
    25
100
AcDbLine
 10
85.0667038118
 20
44.4296709888
 30
0.0
 11
85.0667038118
 21
56.6359607896
 31
0.0
  0
LINE
  5
27E
330
1F
100
AcDbEntity
  8
0
  6
Continuous
 62
     7
370
    25
100
AcDbLine
 10
107.0667036926
 20
44.4296709888
 30
0.0
 11
107.0667036926
 21
56.6359607896
 31
0.0
  0
ARC
  5
27F
330
1F
100
AcDbEntity
  8
0
  6
Continuous
 62
     7
370
    25
100
AcDbCircle
 10
106.0667037522
 20
57.4296709292
 30
0.0
 40
1.000000000003849
100
AcDbArc
 50
0.0000000002
 51
84.0864558477
  0
SPLINE
  5
280
330
1F
100
AcDbEntity
  8
0
  6
Continuous
 62
     7
370
    25
100
AcDbSpline
210
0.0
220
0.0
230
1.0
 70
    24
 71
     3
 72
    13
 73
     9
 74
     0
 42
0.000000001
 43
0.00000001
 40
0.0
 40
0.0
 40
0.0
 40
0.0
 40
0.0276276428575295
 40
0.1399590125227348
 40
0.2523263052111002
 40
0.4099419625679948
 40
0.6947932955744343
 40
1.0
 40
1.0
 40
1.0
 40
1.0
 10
107.0667036925828
 20
56.63596078959365
 30
0.0
 10
107.0667036925828
 20
56.65175711852483
 30
0.0
 10
107.0667036925828
 20
56.73177981934268
 30
0.0
 10
107.0667036925828
 20
56.87534223422789
 30
0.0
 10
107.0667036925828
 20
57.06081399659471
 30
0.0
 10
107.0667036925828
 20
57.25166117770853
 30
0.0
 10
107.0667036925828
 20
57.39505562489774
 30
0.0
 10
107.0667036925828
 20
57.41787021102376
 30
0.0
 10
107.0667036925828
 20
57.42967102416863
 30
0.0
  0
ARC
  5
281
330
1F
100
AcDbEntity
  8
0
  6
Continuous
 62
     7
370
    25
100
AcDbCircle
 10
86.0667037522
 20
57.4296709292
 30
0.0
 40
1.000000000003849
100
AcDbArc
 50
95.9135441523
 51
179.9999999998
  0
SPLINE
  5
282
330
1F
100
AcDbEntity
  8
0
  6
Continuous
 62
     7
370
    25
100
AcDbSpline
210
0.0
220
0.0
230
1.0
 70
    24
 71
     3
 72
    13
 73
     9
 74
     0
 42
0.000000001
 43
0.00000001
 40
0.0
 40
0.0
 40
0.0
 40
0.0
 40
0.0276276428575295
 40
0.1399590125227348
 40
0.2523263052111002
 40
0.4099419625679948
 40
0.6947932955744343
 40
1.0
 40
1.0
 40
1.0
 40
1.0
 10
85.06670381179205
 20
56.63596078959365
 30
0.0
 10
85.06670381179205
 20
56.65175711852483
 30
0.0
 10
85.06670381179205
 20
56.73177981934268
 30
0.0
 10
85.06670381179205
 20
56.87534223422789
 30
0.0
 10
85.06670381179205
 20
57.06081399659471
 30
0.0
 10
85.06670381179205
 20
57.25166117770853
 30
0.0
 10
85.06670381179205
 20
57.39505562489774
 30
0.0
 10
85.06670381179205
 20
57.41787021102376
 30
0.0
 10
85.06670381179205
 20
57.42967102416863
 30
0.0
  0
SPLINE
  5
283
330
1F
100
AcDbEntity
  8
0
  6
Continuous
 62
     7
370
    25
100
AcDbSpline
210
0.0
220
0.0
230
1.0
 70
     8
 71
     3
 72
    19
 73
    15
 74
     0
 42
0.000000001
 43
0.00000001
 40
0.0
 40
0.0
 40
0.0
 40
0.0
 40
0.1646357217429309
 40
0.3290429474841396
 40
0.431297663219489
 40
0.4734942239700157
 40
0.4913855716037936
 40
0.4999057401527063
 40
0.5096179048024433
 40
0.543284408636096
 40
0.6761927839807603
 40
0.8107714853779632
 40
0.9454216446371044
 40
1.0
 40
1.0
 40
1.0
 40
1.0
 10
100.545618415383
 20
59.02967086733391
 30
0.0
 10
100.0566970011604
 20
59.30201606537518
 30
0.0
 10
99.0795327410546
 20
59.84632847672766
 30
0.0
 10
97.77408401485675
 20
60.57493768543913
 30
0.0
 10
96.86889539560342
 20
61.09820758710514
 30
0.0
 10
96.39811788176648
 20
61.36564203652784
 30
0.0
 10
96.1871346306104
 20
61.46235931665242
 30
0.0
 10
96.06273162022546
 20
61.48216942076959
 30
0.0
 10
95.8848769855286
 20
61.44896903785148
 30
0.0
 10
95.36945404389407
 20
61.15407818464334
 30
0.0
 10
94.49037018530984
 20
60.65169186679601
 30
0.0
 10
93.27951621269513
 20
59.97033692670188
 30
0.0
 10
92.30550517199089
 20
59.43127242409101
 30
0.0
 10
91.74845627375986
 20
59.11957297911745
 30
0.0
 10
91.5877890889918
 20
59.02967086733391
 30
0.0
  0
CIRCLE
  5
284
330
1F
100
AcDbEntity
  8
0
  6
Continuous
 62
     7
370
    25
100
AcDbCircle
 10
96.0667037522
 20
55.4296709292
 30
0.0
 40
10.47749999999985
  0
LINE
  5
285
330
1F
100
AcDbEntity
  8
0
  6
Continuous
 62
     7
370
    25
100
AcDbLine
 10
85.5892037158
 20
23.191671788
 30
0.0
 11
106.5442037885
 21
23.191671788
 31
0.0
  0
LINE
  5
286
330
1F
100
AcDbEntity
  8
0
  6
Continuous
 62
     7
370
    25
100
AcDbLine
 10
108.3984754165
 20
54.9296709054
 30
0.0
 11
109.0667040204
 21
54.9296709054
 31
0.0
  0
LINE
  5
287
330
1F
100
AcDbEntity
  8
0
  6
Continuous
 62
     7
370
    25
100
AcDbLine
 10
83.7349320879
 20
54.9296709054
 30
0.0
 11
83.066703484
 21
54.9296709054
 31
0.0
  0
LINE
  5
288
330
1F
100
AcDbEntity
  8
0
  6
Continuous
 62
     7
370
    25
100
AcDbLine
 10
108.3984754165
 20
54.9296709054
 30
0.0
 11
107.8074040939
 21
54.9296709054
 31
0.0
  0
LINE
  5
289
330
1F
100
AcDbEntity
  8
0
  6
Continuous
 62
     7
370
    25
100
AcDbLine
 10
83.7349320879
 20
54.9296709054
 30
0.0
 11
84.3260034104
 21
54.9296709054
 31
0.0
  0
LINE
  5
28A
330
1F
100
AcDbEntity
  8
0
  6
Continuous
 62
     7
370
    25
100
AcDbLine
 10
107.5770479744
 20
44.9296710707
 30
0.0
 11
107.0667036926
 21
44.9296710707
 31
0.0
  0
LINE
  5
28B
330
1F
100
AcDbEntity
  8
0
  6
Continuous
 62
     7
370
    25
100
AcDbLine
 10
84.55635953
 20
44.9296710707
 30
0.0
 11
85.0667038118
 21
44.9296710707
 31
0.0
  0
LINE
  5
28C
330
1F
100
AcDbEntity
  8
0
  6
Continuous
 62
     7
370
    25
100
AcDbLine
 10
84.3260034104
 20
54.9296709054
 30
0.0
 11
85.0667038118
 21
54.9296709054
 31
0.0
  0
LINE
  5
28D
330
1F
100
AcDbEntity
  8
0
  6
Continuous
 62
     7
370
    25
100
AcDbLine
 10
107.0667036926
 20
54.9296709054
 30
0.0
 11
107.8074040939
 21
54.9296709054
 31
0.0
  0
SPLINE
  5
28E
330
1F
100
AcDbEntity
  8
0
  6
Continuous
 62
     8
370
    18
100
AcDbSpline
210
0.0
220
0.0
230
1.0
 70
     8
 71
     3
 72
    12
 73
     8
 74
     0
 42
0.000000001
 43
0.00000001
 40
0.0
 40
0.0
 40
0.0
 40
0.0
 40
0.2291698939019428
 40
0.4603126492882004
 40
0.6874689666264684
 40
0.9026525370994491
 40
1.0
 40
1.0
 40
1.0
 40
1.0
 10
70.56670422902457
 20
68.35281473324706
 30
0.0
 10
70.3294413658341
 20
68.30042087214208
 30
0.0
 10
69.85287310779044
 20
68.19518210538683
 30
0.0
 10
69.22672225565009
 20
68.05356780883743
 30
0.0
 10
68.77932426956885
 20
67.95105912396177
 30
0.0
 10
68.58694597707874
 20
67.9065582571923
 30
0.0
 10
68.57151145941114
 20
67.90298789347742
 30
0.0
 10
68.56670390119902
 20
67.90187579319884
 30
0.0
  0
LINE
  5
28F
330
1F
100
AcDbEntity
  8
0
  6
Continuous
 62
     8
370
    18
100
AcDbLine
 10
70.566704229
 20
68.3528147332
 30
0.0
 11
70.566704229
 21
31.6721852563
 31
0.0
  0
ARC
  5
290
330
1F
100
AcDbEntity
  8
0
  6
Continuous
 62
     8
370
    18
100
AcDbCircle
 10
96.0667037522
 20
-1.3278142342
 30
0.0
 40
74.20000000000002
100
AcDbArc
 50
69.8996294381
 51
110.1003705619
  0
LINE
  5
291
330
1F
100
AcDbEntity
  8
0
  6
Continuous
 62
     8
370
    18
100
AcDbLine
 10
121.5667032754
 20
68.3528147332
 30
0.0
 11
121.5667032754
 21
31.6721852563
 31
0.0
  0
LINE
  5
292
330
1F
100
AcDbEntity
  8
0
  6
Continuous
 62
     8
370
    18
100
AcDbLine
 10
109.3667035108
 20
58.6721857239
 30
0.0
 11
109.3667035108
 21
50.9721859984
 31
0.0
  0
ARC
  5
293
330
1F
100
AcDbEntity
  8
0
  6
Continuous
 62
     8
370
    18
100
AcDbCircle
 10
96.0667037522
 20
58.6721857658
 30
0.0
 40
13.3
100
AcDbArc
 50
0.0
 51
180.0
  0
LINE
  5
294
330
1F
100
AcDbEntity
  8
0
  6
Continuous
 62
     8
370
    18
100
AcDbLine
 10
82.7667039936
 20
50.9721859984
 30
0.0
 11
82.7667039936
 21
58.6721857239
 31
0.0
  0
ARC
  5
295
330
1F
100
AcDbEntity
  8
0
  6
Continuous
 62
     8
370
    18
100
AcDbCircle
 10
96.0667037522
 20
50.9721857658
 30
0.0
 40
13.3
100
AcDbArc
 50
180.0
 51
0.0
  0
SPLINE
  5
296
330
1F
100
AcDbEntity
  8
0
  6
Continuous
 62
     8
370
    18
100
AcDbSpline
210
0.0
220
0.0
230
1.0
 70
     8
 71
     3
 72
    12
 73
     8
 74
     0
 42
0.000000001
 43
0.00000001
 40
0.0
 40
0.0
 40
0.0
 40
0.0
 40
0.2291698939019428
 40
0.4603126492882004
 40
0.6874689666264684
 40
0.9026525370994491
 40
1.0
 40
1.0
 40
1.0
 40
1.0
 10
121.5667032753502
 20
68.35281473324706
 30
0.0
 10
121.8039661385407
 20
68.30042087214208
 30
0.0
 10
122.2805343965844
 20
68.19518210538683
 30
0.0
 10
122.9066852487247
 20
68.05356780883743
 30
0.0
 10
123.354083234806
 20
67.95105912396177
 30
0.0
 10
123.5464615272961
 20
67.9065582571923
 30
0.0
 10
123.5618960449637
 20
67.90298789347742
 30
0.0
 10
123.5667036031758
 20
67.90187579319884
 30
0.0
  0
LINE
  5
297
330
1F
100
AcDbEntity
  8
0
  6
Continuous
 62
     8
370
    18
100
AcDbLine
 10
82.7667039936
 20
50.9721859984
 30
0.0
 11
83.066703484
 21
50.9721859984
 31
0.0
  0
LINE
  5
298
330
1F
100
AcDbEntity
  8
0
  6
Continuous
 62
     8
370
    18
100
AcDbLine
 10
109.3667035108
 20
50.9721859984
 30
0.0
 11
109.0667040204
 21
50.9721859984
 31
0.0
  0
LINE
  5
299
330
1F
100
AcDbEntity
  8
0
  6
Continuous
 62
     8
370
    18
100
AcDbLine
 10
83.066703484
 20
58.6721857239
 30
0.0
 11
82.7667039936
 21
58.6721857239
 31
0.0
  0
LINE
  5
29A
330
1F
100
AcDbEntity
  8
0
  6
Continuous
 62
     8
370
    18
100
AcDbLine
 10
109.0667040204
 20
58.6721857239
 30
0.0
 11
109.3667035108
 21
58.6721857239
 31
0.0
  0
LWPOLYLINE
  5
29B
330
1F
100
AcDbEntity
  8
0
  6
Continuous
 62
     8
370
    18
100
AcDbPolyline
 90
        9
 70
   128
 43
0.0
 10
70.2917703544
 20
69.1040884398
 10
70.2970546787
 20
69.0896520086
 10
70.3126990353
 20
69.0469005771
 10
70.3381055151
 20
68.9774751358
 10
70.3722962295
 20
68.8840448551
 10
70.4139598762
 20
68.7701999836
 10
70.4614908551
 20
68.640314012
 10
70.5130674993
 20
68.4993806921
 10
70.566704229
 20
68.3528147332
  0
LWPOLYLINE
  5
29C
330
1F
100
AcDbEntity
  8
0
  6
Continuous
 62
     8
370
    18
100
AcDbPolyline
 90
        9
 70
   128
 43
0.0
 10
121.84163715
 20
69.1040884398
 10
121.8363528257
 20
69.0896520086
 10
121.8207084691
 20
69.0469005771
 10
121.7953019892
 20
68.9774751358
 10
121.7611112749
 20
68.8840448551
 10
121.7194476282
 20
68.7701999836
 10
121.6719166492
 20
68.640314012
 10
121.6203400051
 20
68.4993806921
 10
121.5667032754
 20
68.3528147332
  0
LINE
  5
29D
330
1F
100
AcDbEntity
  8
0
  6
Continuous
 62
     8
370
    18
100
AcDbLine
 10
101.4108594624
 20
69.9721853875
 30
0.0
 11
102.677298442
 21
69.8659354515
 31
0.0
  0
LINE
  5
29E
330
1F
100
AcDbEntity
  8
0
  6
Continuous
 62
     8
370
    18
100
AcDbLine
 10
90.722548042
 20
69.9721853875
 30
0.0
 11
89.4561090623
 21
69.8659354515
 31
0.0
  0
ARC
  5
29F
330
1F
100
AcDbEntity
  8
0
  6
Continuous
 62
     8
370
    18
100
AcDbCircle
 10
96.0667037522
 20
58.6721857658
 30
0.0
 40
12.5
100
AcDbArc
 50
64.6889348445
 51
115.3110651555
  0
LWPOLYLINE
  5
2A0
330
1F
100
AcDbEntity
  8
0
  6
Continuous
 62
     8
370
    18
100
AcDbPolyline
 90
        9
 70
   128
 43
0.0
 10
95.7180172787
 20
44.9579748951
 10
95.7173778385
 20
44.9387700923
 10
95.7154840231
 20
44.8818960853
 10
95.7124086796
 20
44.7895377569
 10
95.7082699403
 20
44.6652434461
 10
95.7032268576
 20
44.5137908377
 10
95.6974732632
 20
44.3409997664
 10
95.6912302587
 20
44.1535105623
 10
95.6847377471
 20
43.9585288681
  0
SPLINE
  5
2A1
330
1F
100
AcDbEntity
  8
0
  6
Continuous
 62
     8
370
    18
100
AcDbSpline
210
0.0
220
0.0
230
1.0
 70
     8
 71
     3
 72
     9
 73
     5
 74
     0
 42
0.000000001
 43
0.00000001
 40
0.0
 40
0.0
 40
0.0
 40
0.0
 40
0.4373618868494267
 40
0.9999999999999999
 40
0.9999999999999999
 40
0.9999999999999999
 40
0.9999999999999999
 10
95.68473774710796
 20
43.95852886811902
 30
0.0
 10
95.55224318506176
 20
43.9694915962017
 30
0.0
 10
95.24930283742277
 20
43.99455717327255
 30
0.0
 10
94.98827085788828
 20
44.05705659712072
 30
0.0
 10
94.84140431745104
 20
44.09222115502764
 30
0.0
  0
LWPOLYLINE
  5
2A2
330
1F
100
AcDbEntity
  8
0
  6
Continuous
 62
     8
370
    18
100
AcDbPolyline
 90
        9
 70
   128
 43
0.0
 10
94.4349234575
 20
45.0800191306
 10
94.5337654208
 20
45.0470875643
 10
94.6238825214
 20
44.9814321168
 10
94.7021863773
 20
44.885301932
 10
94.7659932659
 20
44.7619920291
 10
94.8131165584
 20
44.6157278188
 10
94.8419412249
 20
44.4515226103
 10
94.8514794815
 20
44.2750043862
 10
94.8414043175
 20
44.092221155
  0
SPLINE
  5
2A3
330
1F
100
AcDbEntity
  8
0
  6
Continuous
 62
     8
370
    18
100
AcDbSpline
210
0.0
220
0.0
230
1.0
 70
     8
 71
     3
 72
     9
 73
     5
 74
     0
 42
0.000000001
 43
0.00000001
 40
0.0
 40
0.0
 40
0.0
 40
0.0
 40
0.4373618868494267
 40
0.9999999999999999
 40
0.9999999999999999
 40
0.9999999999999999
 40
0.9999999999999999
 10
96.44866975726686
 20
43.95852886811902
 30
0.0
 10
96.58116431931307
 20
43.9694915962017
 30
0.0
 10
96.88410466695204
 20
43.99455717327255
 30
0.0
 10
97.14513664648653
 20
44.05705659712072
 30
0.0
 10
97.29200318692378
 20
44.09222115502764
 30
0.0
  0
LWPOLYLINE
  5
2A4
330
1F
100
AcDbEntity
  8
0
  6
Continuous
 62
     8
370
    18
100
AcDbPolyline
 90
        9
 70
   128
 43
0.0
 10
96.4153902256
 20
44.9579748951
 10
96.4160296659
 20
44.9387700923
 10
96.4179234812
 20
44.8818960853
 10
96.4209988248
 20
44.7895377569
 10
96.4251375641
 20
44.6652434461
 10
96.4301806468
 20
44.5137908377
 10
96.4359342412
 20
44.3409997664
 10
96.4421772457
 20
44.1535105623
 10
96.4486697573
 20
43.9585288681
  0
LWPOLYLINE
  5
2A5
330
1F
100
AcDbEntity
  8
0
  6
Continuous
 62
     8
370
    18
100
AcDbPolyline
 90
        9
 70
   128
 43
0.0
 10
97.6984840469
 20
45.0800191306
 10
97.5996420836
 20
45.0470875643
 10
97.5095249829
 20
44.9814321168
 10
97.4312211271
 20
44.885301932
 10
97.3674142384
 20
44.7619920291
 10
97.320290946
 20
44.6157278188
 10
97.2914662795
 20
44.4515226103
 10
97.2819280229
 20
44.2750043862
 10
97.2920031869
 20
44.092221155
  0
ARC
  5
2A6
330
1F
100
AcDbEntity
  8
0
  6
Continuous
 62
     8
370
    18
100
AcDbCircle
 10
96.0667037522
 20
55.4296709292
 30
0.0
 40
11.4775
100
AcDbArc
 50
268.0928702162
 51
271.9071297838
  0
ARC
  5
2A7
330
1F
100
AcDbEntity
  8
0
  6
Continuous
 62
     8
370
    18
100
AcDbCircle
 10
90.4155114892
 20
45.045541456
 30
0.0
 40
3.794023705516542
100
AcDbArc
 50
346.0990667094
 51
1.0973911728
  0
SPLINE
  5
2A8
330
1F
100
AcDbEntity
  8
0
  6
Continuous
 62
     8
370
    18
100
AcDbSpline
210
0.0
220
0.0
230
1.0
 70
     8
 71
     3
 72
    12
 73
     8
 74
     0
 42
0.000000001
 43
0.00000001
 40
0.0
 40
0.0
 40
0.0
 40
0.0
 40
0.1951804259227869
 40
0.3974029983899137
 40
0.5955292520988892
 40
0.7979941505031195
 40
1.0
 40
1.0
 40
1.0
 40
1.0
 10
94.09841798482589
 20
44.13405057714392
 30
0.0
 10
93.73336735192227
 20
44.22346859436927
 30
0.0
 10
92.99009499049487
 20
44.40553084773011
 30
0.0
 10
91.96562310707951
 20
44.83768603329925
 30
0.0
 10
91.0277919341262
 20
45.35857843989154
 30
0.0
 10
90.19006476401587
 20
45.94650237788279
 30
0.0
 10
89.71878537177886
 20
46.36944973848366
 30
0.0
 10
89.48341311192266
 20
46.58068340943267
 30
0.0
  0
ARC
  5
2A9
330
1F
100
AcDbEntity
  8
0
  6
Continuous
 62
     8
370
    18
100
AcDbCircle
 10
88.8942007326
 20
46.903080845
 30
0.0
 40
0.6716482221962582
100
AcDbArc
 50
331.3139864431
 51
41.9044888541
  0
ARC
  5
2AA
330
1F
100
AcDbEntity
  8
0
  6
Continuous
 62
     8
370
    18
100
AcDbCircle
 10
103.2392067717
 20
46.903080845
 30
0.0
 40
0.6716482221962706
100
AcDbArc
 50
138.0955111459
 51
208.686013557
  0
SPLINE
  5
2AB
330
1F
100
AcDbEntity
  8
0
  6
Continuous
 62
     8
370
    18
100
AcDbSpline
210
0.0
220
0.0
230
1.0
 70
     8
 71
     3
 72
    12
 73
     8
 74
     0
 42
0.000000001
 43
0.00000001
 40
0.0
 40
0.0
 40
0.0
 40
0.0
 40
0.1951804259227869
 40
0.3974029983899137
 40
0.5955292520988892
 40
0.7979941505031195
 40
1.0
 40
1.0
 40
1.0
 40
1.0
 10
98.03498951954893
 20
44.13405057714392
 30
0.0
 10
98.40004015245256
 20
44.22346859436927
 30
0.0
 10
99.14331251387996
 20
44.40553084773011
 30
0.0
 10
100.1677843972953
 20
44.83768603329925
 30
0.0
 10
101.1056155702486
 20
45.35857843989154
 30
0.0
 10
101.9433427403589
 20
45.94650237788279
 30
0.0
 10
102.414622132596
 20
46.36944973848366
 30
0.0
 10
102.6499943924522
 20
46.58068340943267
 30
0.0
  0
ARC
  5
2AC
330
1F
100
AcDbEntity
  8
0
  6
Continuous
 62
     8
370
    18
100
AcDbCircle
 10
101.7178960152
 20
45.045541456
 30
0.0
 40
3.794023705516542
100
AcDbArc
 50
178.9026088272
 51
193.9009332906
  0
SPLINE
  5
2AD
330
1F
100
AcDbEntity
  8
0
  6
Continuous
 62
     8
370
    18
100
AcDbSpline
210
0.0
220
0.0
230
1.0
 70
     8
 71
     3
 72
     9
 73
     5
 74
     0
 42
0.000000001
 43
0.00000001
 40
0.0
 40
0.0
 40
0.0
 40
0.0
 40
0.6415023189467203
 40
1.0
 40
1.0
 40
1.0
 40
1.0
 10
97.29200318692378
 20
44.09222115502764
 30
0.0
 10
97.4421047024761
 20
44.10025787107063
 30
0.0
 10
97.67608907185264
 20
44.11278583208592
 30
0.0
 10
97.9402782955089
 20
44.12843896521569
 30
0.0
 10
98.03498951954893
 20
44.13405057714392
 30
0.0
  0
SPLINE
  5
2AE
330
1F
100
AcDbEntity
  8
0
  6
Continuous
 62
     8
370
    18
100
AcDbSpline
210
0.0
220
0.0
230
1.0
 70
     8
 71
     3
 72
     9
 73
     5
 74
     0
 42
0.000000001
 43
0.00000001
 40
0.0
 40
0.0
 40
0.0
 40
0.0
 40
0.6415023189467203
 40
1.0
 40
1.0
 40
1.0
 40
1.0
 10
94.84140431745104
 20
44.09222115502764
 30
0.0
 10
94.69130280189871
 20
44.10025787107063
 30
0.0
 10
94.45731843252219
 20
44.11278583208592
 30
0.0
 10
94.19312920886593
 20
44.12843896521569
 30
0.0
 10
94.09841798482589
 20
44.13405057714392
 30
0.0
  0
LINE
  5
2AF
330
1F
100
AcDbEntity
  8
0
  6
Continuous
 62
     8
370
    18
100
AcDbLine
 10
95.6913229835
 20
37.9776060276
 30
0.0
 11
95.6847377471
 21
38.0974169515
 31
0.0
  0
SPLINE
  5
2B0
330
1F
100
AcDbEntity
  8
0
  6
Continuous
 62
     8
370
    18
100
AcDbSpline
210
0.0
220
0.0
230
1.0
 70
     8
 71
     3
 72
     9
 73
     5
 74
     0
 42
0.000000001
 43
0.00000001
 40
0.0
 40
0.0
 40
0.0
 40
0.0
 40
0.7840634067713569
 40
0.9999999999999999
 40
0.9999999999999999
 40
0.9999999999999999
 40
0.9999999999999999
 10
95.68473774710796
 20
38.09741695151736
 30
0.0
 10
95.88449797099288
 20
38.10405619382438
 30
0.0
 10
96.1392735697005
 20
38.11252393029784
 30
0.0
 10
96.39372449196844
 20
38.10009978016977
 30
0.0
 10
96.44866975726686
 20
38.09741695151736
 30
0.0
  0
LINE
  5
2B1
330
1F
100
AcDbEntity
  8
0
  6
Continuous
 62
     8
370
    18
100
AcDbLine
 10
96.4420845209
 20
37.9776060276
 30
0.0
 11
96.4486697573
 21
38.0974169515
 31
0.0
  0
SPLINE
  5
2B2
330
1F
100
AcDbEntity
  8
0
  6
Continuous
 62
     8
370
    18
100
AcDbSpline
210
0.0
220
0.0
230
1.0
 70
     8
 71
     3
 72
     9
 73
     5
 74
     0
 42
0.000000001
 43
0.00000001
 40
0.0
 40
0.0
 40
0.0
 40
0.0
 40
0.3281086070047838
 40
0.9999999999999999
 40
0.9999999999999999
 40
0.9999999999999999
 40
0.9999999999999999
 10
97.32002097884319
 20
38.40339180753638
 30
0.0
 10
97.330606288992
 20
38.36506924518288
 30
0.0
 10
97.36286789360346
 20
38.24827083899863
 30
0.0
 10
97.41258135677613
 20
38.13780160476419
 30
0.0
 10
97.44598340479783
 20
38.06357827709128
 30
0.0
  0
SPLINE
  5
2B3
330
1F
100
AcDbEntity
  8
0
  6
Continuous
 62
     8
370
    18
100
AcDbSpline
210
0.0
220
0.0
230
1.0
 70
     8
 71
     3
 72
    11
 73
     7
 74
     0
 42
0.000000001
 43
0.00000001
 40
0.0
 40
0.0
 40
0.0
 40
0.0
 40
0.2018394249842664
 40
0.3077605281351439
 40
0.806362312857653
 40
1.0
 40
1.0
 40
1.0
 40
1.0
 10
96.44866975726686
 20
38.09741695151736
 30
0.0
 10
96.51732231519658
 20
38.09541437275456
 30
0.0
 10
96.62200229775166
 20
38.09236088259664
 30
0.0
 10
96.87935462284774
 20
38.17399061113609
 30
0.0
 10
97.0928568760412
 20
38.33172900327079
 30
0.0
 10
97.24847318883076
 20
38.47359636725179
 30
0.0
 10
97.29200318692378
 20
38.51328042076041
 30
0.0
  0
LINE
  5
2B4
330
1F
100
AcDbEntity
  8
0
  6
Continuous
 62
     8
370
    18
100
AcDbLine
 10
97.2920031869
 20
38.5132804208
 30
0.0
 11
97.3200209788
 21
38.4033918075
 31
0.0
  0
SPLINE
  5
2B5
330
1F
100
AcDbEntity
  8
0
  6
Continuous
 62
     8
370
    18
100
AcDbSpline
210
0.0
220
0.0
230
1.0
 70
     8
 71
     3
 72
     9
 73
     5
 74
     0
 42
0.000000001
 43
0.00000001
 40
0.0
 40
0.0
 40
0.0
 40
0.0
 40
0.6600193098107815
 40
1.0
 40
1.0
 40
1.0
 40
1.0
 10
94.69716142634056
 20
38.08778707609584
 30
0.0
 10
94.72748751033188
 20
38.15551649958815
 30
0.0
 10
94.77343477814746
 20
38.2581338359078
 30
0.0
 10
94.803249944647
 20
38.36653686939336
 30
0.0
 10
94.81338652553163
 20
38.40339180753638
 30
0.0
  0
LINE
  5
2B6
330
1F
100
AcDbEntity
  8
0
  6
Continuous
 62
     8
370
    18
100
AcDbLine
 10
94.8414043175
 20
38.5132804208
 30
0.0
 11
94.8133865255
 21
38.4033918075
 31
0.0
  0
SPLINE
  5
2B7
330
1F
100
AcDbEntity
  8
0
  6
Continuous
 62
     8
370
    18
100
AcDbSpline
210
0.0
220
0.0
230
1.0
 70
     8
 71
     3
 72
    11
 73
     7
 74
     0
 42
0.000000001
 43
0.00000001
 40
0.0
 40
0.0
 40
0.0
 40
0.0
 40
0.4222991096542009
 40
0.6757769062349069
 40
0.8008336593545834
 40
1.0
 40
1.0
 40
1.0
 40
1.0
 10
94.84140431745104
 20
38.51328042076041
 30
0.0
 10
94.9384434330151
 20
38.42557011223065
 30
0.0
 10
95.09372861311729
 20
38.28521319556162
 30
0.0
 10
95.32228158502632
 20
38.15322845906214
 30
0.0
 10
95.50646659490424
 20
38.09223440879106
 30
0.0
 10
95.61689989885824
 20
38.09544482903615
 30
0.0
 10
95.68473774710796
 20
38.09741695151736
 30
0.0
  0
SPLINE
  5
2B8
330
1F
100
AcDbEntity
  8
0
  6
Continuous
 62
     8
370
    18
100
AcDbSpline
210
0.0
220
0.0
230
1.0
 70
     8
 71
     3
 72
     9
 73
     5
 74
     0
 42
0.000000001
 43
0.00000001
 40
0.0
 40
0.0
 40
0.0
 40
0.0
 40
0.6481983532627391
 40
1.0
 40
1.0
 40
1.0
 40
1.0
 10
94.11408748714379
 20
38.16382770166804
 30
0.0
 10
94.11175656236726
 20
38.23165280502753
 30
0.0
 10
94.10816055697046
 20
38.33628914515101
 30
0.0
 10
94.09998272579317
 20
38.44529669935898
 30
0.0
 10
94.09710575131825
 20
38.48364573643615
 30
0.0
  0
ARC
  5
2B9
330
1F
100
AcDbEntity
  8
0
  6
Continuous
 62
     8
370
    18
100
AcDbCircle
 10
75.4287297782
 20
-131.3715676157
 30
0.0
 40
170.8780318366611
100
AcDbArc
 50
83.4862598684
 51
83.7279333577
  0
LINE
  5
2BA
330
1F
100
AcDbEntity
  8
0
  6
Continuous
 62
     8
370
    18
100
AcDbLine
 10
93.1234985707
 20
38.3244678073
 30
0.0
 11
94.0971057513
 21
38.4836457364
 31
0.0
  0
SPLINE
  5
2BB
330
1F
100
AcDbEntity
  8
0
  6
Continuous
 62
     8
370
    18
100
AcDbSpline
210
0.0
220
0.0
230
1.0
 70
     8
 71
     3
 72
     9
 73
     5
 74
     0
 42
0.000000001
 43
0.00000001
 40
0.0
 40
0.0
 40
0.0
 40
0.0
 40
0.3447029275310546
 40
1.0
 40
1.0
 40
1.0
 40
1.0
 10
98.03630175305656
 20
38.48364573643615
 30
0.0
 10
98.03331802565509
 20
38.44376308414902
 30
0.0
 10
98.02466208698107
 20
38.32806156524175
 30
0.0
 10
98.02090110308825
 20
38.21708653496272
 30
0.0
 10
98.01843654135368
 20
38.14436492250373
 30
0.0
  0
ARC
  5
2BC
330
1F
100
AcDbEntity
  8
0
  6
Continuous
 62
     8
370
    18
100
AcDbCircle
 10
116.7046777261
 20
-131.3715676157
 30
0.0
 40
170.8780318366611
100
AcDbArc
 50
96.2720666423
 51
96.5137401316
  0
SPLINE
  5
2BD
330
1F
100
AcDbEntity
  8
0
  6
Continuous
 62
     8
370
    18
100
AcDbSpline
210
0.0
220
0.0
230
1.0
 70
     8
 71
     3
 72
     9
 73
     5
 74
     0
 42
0.000000001
 43
0.00000001
 40
0.0
 40
0.0
 40
0.0
 40
0.0
 40
0.2108553952391332
 40
1.0
 40
1.0
 40
1.0
 40
1.0
 10
98.03630175305656
 20
38.48364573643615
 30
0.0
 10
98.09976493961994
 20
38.47352746754429
 30
0.0
 10
98.4007446062365
 20
38.42554069973889
 30
0.0
 10
98.69634637503893
 20
38.37661602107232
 30
0.0
 10
98.92961891604713
 20
38.33800737486293
 30
0.0
  0
LINE
  5
2BE
330
1F
100
AcDbEntity
  8
0
  6
Continuous
 62
     8
370
    18
100
AcDbLine
 10
95.6847377471
 20
43.9585288681
 30
0.0
 11
95.6847377471
 21
38.0974169515
 31
0.0
  0
LINE
  5
2BF
330
1F
100
AcDbEntity
  8
0
  6
Continuous
 62
     8
370
    18
100
AcDbLine
 10
94.8414043175
 20
44.092221155
 30
0.0
 11
94.8414043175
 21
38.5132804208
 31
0.0
  0
LINE
  5
2C0
330
1F
100
AcDbEntity
  8
0
  6
Continuous
 62
     8
370
    18
100
AcDbLine
 10
96.4486697573
 20
43.9585288681
 30
0.0
 11
96.4486697573
 21
38.0974169515
 31
0.0
  0
LINE
  5
2C1
330
1F
100
AcDbEntity
  8
0
  6
Continuous
 62
     8
370
    18
100
AcDbLine
 10
97.2920031869
 20
44.092221155
 30
0.0
 11
97.2920031869
 21
38.5132804208
 31
0.0
  0
LINE
  5
2C2
330
1F
100
AcDbEntity
  8
0
  6
Continuous
 62
     8
370
    18
100
AcDbLine
 10
98.0349895195
 20
38.5132804208
 30
0.0
 11
98.0349895195
 21
44.1340505771
 31
0.0
  0
LINE
  5
2C3
330
1F
100
AcDbEntity
  8
0
  6
Continuous
 62
     8
370
    18
100
AcDbLine
 10
97.2920031869
 20
38.5132804208
 30
0.0
 11
98.0349895195
 21
38.5132804208
 31
0.0
  0
LINE
  5
2C4
330
1F
100
AcDbEntity
  8
0
  6
Continuous
 62
     8
370
    18
100
AcDbLine
 10
94.0984179848
 20
38.5132804208
 30
0.0
 11
94.8414043175
 21
38.5132804208
 31
0.0
  0
LINE
  5
2C5
330
1F
100
AcDbEntity
  8
0
  6
Continuous
 62
     8
370
    18
100
AcDbLine
 10
94.0984179848
 20
38.5132804208
 30
0.0
 11
94.0984179848
 21
44.1340505771
 31
0.0
  0
LINE
  5
2C6
330
1F
100
AcDbEntity
  8
0
  6
Continuous
 62
     8
370
    18
100
AcDbLine
 10
94.0971057513
 20
38.4836457364
 30
0.0
 11
94.0984179848
 21
38.5132804208
 31
0.0
  0
LINE
  5
2C7
330
1F
100
AcDbEntity
  8
0
  6
Continuous
 62
     8
370
    18
100
AcDbLine
 10
98.0349895195
 20
38.5132804208
 30
0.0
 11
98.0363017531
 21
38.4836457364
 31
0.0
  0
SPLINE
  5
2C8
330
1F
100
AcDbEntity
  8
0
  6
Continuous
 62
     8
370
    18
100
AcDbSpline
210
0.0
220
0.0
230
1.0
 70
     8
 71
     3
 72
     9
 73
     5
 74
     0
 42
0.000000001
 43
0.00000001
 40
0.0
 40
0.0
 40
0.0
 40
0.0
 40
0.4964006694938859
 40
1.0
 40
1.0
 40
1.0
 40
1.0
 10
87.84218664517752
 20
41.43321604208161
 30
0.0
 10
87.76248200691259
 20
41.44231238799949
 30
0.0
 10
87.6019168764381
 20
41.46063699245089
 30
0.0
 10
87.57875811420917
 20
41.46789753267146
 30
0.0
 10
87.56709537705532
 20
41.47155393586566
 30
0.0
  0
LINE
  5
2C9
330
1F
100
AcDbEntity
  8
0
  6
Continuous
 62
     8
370
    18
100
AcDbLine
 10
87.9555928638
 20
41.4648437567
 30
0.0
 11
87.8421866452
 21
41.4332160421
 31
0.0
  0
SPLINE
  5
2CA
330
1F
100
AcDbEntity
  8
0
  6
Continuous
 62
     8
370
    18
100
AcDbSpline
210
0.0
220
0.0
230
1.0
 70
     8
 71
     3
 72
    13
 73
     9
 74
     0
 42
0.000000001
 43
0.00000001
 40
0.0
 40
0.0
 40
0.0
 40
0.0
 40
0.2180378025208703
 40
0.4257846400258409
 40
0.64159680544835
 40
0.7605077058265682
 40
0.8792563472362313
 40
1.0
 40
1.0
 40
1.0
 40
1.0
 10
89.0258901869332
 20
44.42967098877837
 30
0.0
 10
89.01073713096564
 20
44.13737342425154
 30
0.0
 10
88.98114621413447
 20
43.566574178187
 30
0.0
 10
88.76613809282397
 20
42.77465918052242
 30
0.0
 10
88.52127139460165
 20
42.20067067908404
 30
0.0
 10
88.29736293949303
 20
41.82309476031476
 30
0.0
 10
88.11828485012579
 20
41.58530620070223
 30
0.0
 10
88.01012385900805
 20
41.5052202811337
 30
0.0
 10
87.95559286376587
 20
41.46484375671555
 30
0.0
  0
LINE
  5
2CB
330
1F
100
AcDbEntity
  8
0
  6
Continuous
 62
     8
370
    18
100
AcDbLine
 10
89.0258901869
 20
46.7569715969
 30
0.0
 11
89.0258901869
 21
44.4296709888
 31
0.0
  0
SPLINE
  5
2CC
330
1F
100
AcDbEntity
  8
0
  6
Continuous
 62
     8
370
    18
100
AcDbSpline
210
0.0
220
0.0
230
1.0
 70
     8
 71
     3
 72
    10
 73
     6
 74
     0
 42
0.000000001
 43
0.00000001
 40
0.0
 40
0.0
 40
0.0
 40
0.0
 40
0.6052763372191144
 40
0.8702444586451981
 40
1.0
 40
1.0
 40
1.0
 40
1.0
 10
89.48341311192266
 20
46.58068340943267
 30
0.0
 10
89.3937455814249
 20
46.65608431776965
 30
0.0
 10
89.2648248443371
 20
46.76449302074082
 30
0.0
 10
89.10389122894
 20
46.78773293474635
 30
0.0
 10
89.04518755344846
 20
46.76458191591356
 30
0.0
 10
89.0258901869332
 20
46.75697159693648
 30
0.0
  0
SPLINE
  5
2CD
330
1F
100
AcDbEntity
  8
0
  6
Continuous
 62
     8
370
    18
100
AcDbSpline
210
0.0
220
0.0
230
1.0
 70
     8
 71
     3
 72
    10
 73
     6
 74
     0
 42
0.000000001
 43
0.00000001
 40
0.0
 40
0.0
 40
0.0
 40
0.0
 40
0.6052763372191144
 40
0.8702444586451981
 40
1.0
 40
1.0
 40
1.0
 40
1.0
 10
102.6499943924522
 20
46.58068340943267
 30
0.0
 10
102.7396619229499
 20
46.65608431776965
 30
0.0
 10
102.8685826600377
 20
46.76449302074082
 30
0.0
 10
103.0295162754348
 20
46.78773293474635
 30
0.0
 10
103.0882199509264
 20
46.76458191591356
 30
0.0
 10
103.1075173174416
 20
46.75697159693648
 30
0.0
  0
LINE
  5
2CE
330
1F
100
AcDbEntity
  8
0
  6
Continuous
 62
     8
370
    18
100
AcDbLine
 10
103.1075173174
 20
46.7569715969
 30
0.0
 11
103.1075173174
 21
44.4296709888
 31
0.0
  0
SPLINE
  5
2CF
330
1F
100
AcDbEntity
  8
0
  6
Continuous
 62
     8
370
    18
100
AcDbSpline
210
0.0
220
0.0
230
1.0
 70
     8
 71
     3
 72
    13
 73
     9
 74
     0
 42
0.000000001
 43
0.00000001
 40
0.0
 40
0.0
 40
0.0
 40
0.0
 40
0.2180378025208703
 40
0.4257846400258409
 40
0.64159680544835
 40
0.7605077058265682
 40
0.8792563472362313
 40
1.0
 40
1.0
 40
1.0
 40
1.0
 10
103.1075173174416
 20
44.42967098877837
 30
0.0
 10
103.1226703734092
 20
44.13737342425154
 30
0.0
 10
103.1522612902404
 20
43.566574178187
 30
0.0
 10
103.3672694115509
 20
42.77465918052242
 30
0.0
 10
103.6121361097732
 20
42.20067067908404
 30
0.0
 10
103.8360445648818
 20
41.82309476031476
 30
0.0
 10
104.015122654249
 20
41.58530620070223
 30
0.0
 10
104.1232836453668
 20
41.5052202811337
 30
0.0
 10
104.1778146406089
 20
41.46484375671555
 30
0.0
  0
LINE
  5
2D0
330
1F
100
AcDbEntity
  8
0
  6
Continuous
 62
     8
370
    18
100
AcDbLine
 10
104.1778146406
 20
41.4648437567
 30
0.0
 11
104.2912208592
 21
41.4332160421
 31
0.0
  0
SPLINE
  5
2D1
330
1F
100
AcDbEntity
  8
0
  6
Continuous
 62
     8
370
    18
100
AcDbSpline
210
0.0
220
0.0
230
1.0
 70
     8
 71
     3
 72
     9
 73
     5
 74
     0
 42
0.000000001
 43
0.00000001
 40
0.0
 40
0.0
 40
0.0
 40
0.0
 40
0.4964006694938859
 40
1.0
 40
1.0
 40
1.0
 40
1.0
 10
104.2912208591973
 20
41.43321604208161
 30
0.0
 10
104.3709254974622
 20
41.44231238799949
 30
0.0
 10
104.5314906279367
 20
41.46063699245089
 30
0.0
 10
104.5546493901657
 20
41.46789753267146
 30
0.0
 10
104.5663121273195
 20
41.47155393586566
 30
0.0
  0
LWPOLYLINE
  5
2D2
330
1F
100
AcDbEntity
  8
0
  6
Continuous
 62
     8
370
    18
100
AcDbPolyline
 90
        9
 70
   128
 43
0.0
 10
86.0667039757
 20
47.9672313362
 10
86.3794113626
 20
48.2005872458
 10
86.680100963
 20
48.4249754503
 10
86.9572187891
 20
48.6317728341
 10
87.2001151671
 20
48.8130324215
 10
87.3994545197
 20
48.9617879197
 10
87.5475767185
 20
49.0723238021
 10
87.6387895202
 20
49.1403909095
 10
87.669589289
 20
49.1633745536
  0
SPLINE
  5
2D3
330
1F
100
AcDbEntity
  8
0
  6
Continuous
 62
     8
370
    18
100
AcDbSpline
210
0.0
220
0.0
230
1.0
 70
     8
 71
     3
 72
    12
 73
     8
 74
     0
 42
0.000000001
 43
0.00000001
 40
0.0
 40
0.0
 40
0.0
 40
0.0
 40
0.135838744560524
 40
0.272232585241947
 40
0.5077805309210771
 40
0.7442348792548614
 40
1.0
 40
1.0
 40
1.0
 40
1.0
 10
86.06670397570483
 20
47.96723133624603
 30
0.0
 10
85.97734846457986
 20
48.35308393709573
 30
0.0
 10
85.79827229689393
 20
49.12636590014301
 30
0.0
 10
85.55328660973359
 20
50.58361374015742
 30
0.0
 10
85.35108510706102
 20
52.3389659183565
 30
0.0
 10
85.22753224314725
 20
54.45410188027127
 30
0.0
 10
85.24913015989905
 20
55.88989808324438
 30
0.0
 10
85.26035278340927
 20
56.63596078959365
 30
0.0
  0
SPLINE
  5
2D4
330
1F
100
AcDbEntity
  8
0
  6
Continuous
 62
     8
370
    18
100
AcDbSpline
210
0.0
220
0.0
230
1.0
 70
     8
 71
     3
 72
     9
 73
     5
 74
     0
 42
0.000000001
 43
0.00000001
 40
0.0
 40
0.0
 40
0.0
 40
0.0
 40
0.4960586218450163
 40
0.9999999999999999
 40
0.9999999999999999
 40
0.9999999999999999
 40
0.9999999999999999
 10
85.59777095219246
 20
57.27793936823566
 30
0.0
 10
85.55246087569587
 20
57.16160374794295
 30
0.0
 10
85.46112071043864
 20
56.92708384410572
 30
0.0
 10
85.32762619399966
 20
56.73351043842603
 30
0.0
 10
85.26035278340927
 20
56.63596078959365
 30
0.0
  0
ARC
  5
2D5
330
1F
100
AcDbEntity
  8
0
  6
Continuous
 62
     8
370
    18
100
AcDbCircle
 10
85.51480728
 20
57.0834698392
 30
0.0
 40
0.2114269817950202
100
AcDbArc
 50
6.9611052435
 51
66.8961641024
  0
SPLINE
  5
2D6
330
1F
100
AcDbEntity
  8
0
  6
Continuous
 62
     8
370
    18
100
AcDbSpline
210
0.0
220
0.0
230
1.0
 70
     8
 71
     3
 72
     9
 73
     5
 74
     0
 42
0.000000001
 43
0.00000001
 40
0.0
 40
0.0
 40
0.0
 40
0.0
 40
0.4960586218450163
 40
0.9999999999999999
 40
0.9999999999999999
 40
0.9999999999999999
 40
0.9999999999999999
 10
106.5356365521824
 20
57.27793936823566
 30
0.0
 10
106.580946628679
 20
57.16160374794295
 30
0.0
 10
106.6722867939362
 20
56.92708384410572
 30
0.0
 10
106.8057813103752
 20
56.73351043842603
 30
0.0
 10
106.8730547209655
 20
56.63596078959365
 30
0.0
  0
SPLINE
  5
2D7
330
1F
100
AcDbEntity
  8
0
  6
Continuous
 62
     8
370
    18
100
AcDbSpline
210
0.0
220
0.0
230
1.0
 70
     8
 71
     3
 72
    12
 73
     8
 74
     0
 42
0.000000001
 43
0.00000001
 40
0.0
 40
0.0
 40
0.0
 40
0.0
 40
0.135838744560524
 40
0.272232585241947
 40
0.5077805309210771
 40
0.7442348792548614
 40
1.0
 40
1.0
 40
1.0
 40
1.0
 10
106.06670352867
 20
47.96723133624603
 30
0.0
 10
106.156059039795
 20
48.35308393709573
 30
0.0
 10
106.3351352074809
 20
49.12636590014301
 30
0.0
 10
106.5801208946412
 20
50.58361374015742
 30
0.0
 10
106.7823223973138
 20
52.3389659183565
 30
0.0
 10
106.9058752612276
 20
54.45410188027127
 30
0.0
 10
106.8842773444758
 20
55.88989808324438
 30
0.0
 10
106.8730547209655
 20
56.63596078959365
 30
0.0
  0
LWPOLYLINE
  5
2D8
330
1F
100
AcDbEntity
  8
0
  6
Continuous
 62
     8
370
    18
100
AcDbPolyline
 90
        9
 70
   128
 43
0.0
 10
106.0667035287
 20
47.9672313362
 10
105.7539961418
 20
48.2005872458
 10
105.4533065414
 20
48.4249754503
 10
105.1761887153
 20
48.6317728341
 10
104.9332923373
 20
48.8130324215
 10
104.7339529847
 20
48.9617879197
 10
104.5858307858
 20
49.0723238021
 10
104.4946179842
 20
49.1403909095
 10
104.4638182153
 20
49.1633745536
  0
ARC
  5
2D9
330
1F
100
AcDbEntity
  8
0
  6
Continuous
 62
     8
370
    18
100
AcDbCircle
 10
106.6186002243
 20
57.0834698392
 30
0.0
 40
0.2114269817950343
100
AcDbArc
 50
113.1038358976
 51
173.0388947565
  0
SPLINE
  5
2DA
330
1F
100
AcDbEntity
  8
0
  6
Continuous
 62
     8
370
    18
100
AcDbSpline
210
0.0
220
0.0
230
1.0
 70
     8
 71
     3
 72
    11
 73
     7
 74
     0
 42
0.000000001
 43
0.00000001
 40
0.0
 40
0.0
 40
0.0
 40
0.0
 40
0.0052943542231491
 40
0.2497768833236631
 40
0.6211985844991276
 40
1.0
 40
1.0
 40
1.0
 40
1.0
 10
87.44280013492457
 20
46.41211588607241
 30
0.0
 10
87.44549952170578
 20
46.41395177260306
 30
0.0
 10
87.5728511095817
 20
46.50056517178865
 30
0.0
 10
87.88785719111354
 20
46.71698199445388
 30
0.0
 10
88.36950438389398
 20
47.05650218915997
 30
0.0
 10
88.63221867689006
 20
47.24781642110848
 30
0.0
 10
88.76486794328443
 20
47.34441448674609
 30
0.0
  0
ARC
  5
2DB
330
1F
100
AcDbEntity
  8
0
  6
Continuous
 62
     8
370
    18
100
AcDbCircle
 10
96.0667037522
 20
55.4296709292
 30
0.0
 40
12.4775
100
AcDbArc
 50
216.7319181565
 51
226.2782857406
  0
SPLINE
  5
2DC
330
1F
100
AcDbEntity
  8
0
  6
Continuous
 62
     8
370
    18
100
AcDbSpline
210
0.0
220
0.0
230
1.0
 70
     8
 71
     3
 72
    10
 73
     6
 74
     0
 42
0.000000001
 43
0.00000001
 40
0.0
 40
0.0
 40
0.0
 40
0.0
 40
0.1502742603415042
 40
0.4382293870400698
 40
1.0
 40
1.0
 40
1.0
 40
1.0
 10
88.76486794328443
 20
47.34441448674609
 30
0.0
 10
88.7997508771827
 20
47.36754053488151
 30
0.0
 10
88.9014763936195
 20
47.43498065320927
 30
0.0
 10
89.12757215090932
 20
47.50280498077792
 30
0.0
 10
89.28801147989515
 20
47.41182032597641
 30
0.0
 10
89.39408111622683
 20
47.35166855827977
 30
0.0
  0
ARC
  5
2DD
330
1F
100
AcDbEntity
  8
0
  6
Continuous
 62
     8
370
    18
100
AcDbCircle
 10
96.0667037522
 20
55.4296709292
 30
0.0
 40
12.47750000000001
100
AcDbArc
 50
313.7217142594
 51
323.2680818435
  0
SPLINE
  5
2DE
330
1F
100
AcDbEntity
  8
0
  6
Continuous
 62
     8
370
    18
100
AcDbSpline
210
0.0
220
0.0
230
1.0
 70
     8
 71
     3
 72
    11
 73
     7
 74
     0
 42
0.000000001
 43
0.00000001
 40
0.0
 40
0.0
 40
0.0
 40
0.0
 40
0.0052943542231491
 40
0.2497768833236631
 40
0.6211985844991276
 40
1.0
 40
1.0
 40
1.0
 40
1.0
 10
104.6906073694502
 20
46.41211588607241
 30
0.0
 10
104.687907982669
 20
46.41395177260306
 30
0.0
 10
104.5605563947931
 20
46.50056517178865
 30
0.0
 10
104.2455503132613
 20
46.71698199445388
 30
0.0
 10
103.7639031204808
 20
47.05650218915997
 30
0.0
 10
103.5011888274848
 20
47.24781642110848
 30
0.0
 10
103.3685395610904
 20
47.34441448674609
 30
0.0
  0
SPLINE
  5
2DF
330
1F
100
AcDbEntity
  8
0
  6
Continuous
 62
     8
370
    18
100
AcDbSpline
210
0.0
220
0.0
230
1.0
 70
     8
 71
     3
 72
    10
 73
     6
 74
     0
 42
0.000000001
 43
0.00000001
 40
0.0
 40
0.0
 40
0.0
 40
0.0
 40
0.1502742603415042
 40
0.4382293870400698
 40
1.0
 40
1.0
 40
1.0
 40
1.0
 10
103.3685395610904
 20
47.34441448674609
 30
0.0
 10
103.3336566271921
 20
47.36754053488151
 30
0.0
 10
103.2319311107553
 20
47.43498065320927
 30
0.0
 10
103.0058353534655
 20
47.50280498077792
 30
0.0
 10
102.8453960244797
 20
47.41182032597641
 30
0.0
 10
102.739326388148
 20
47.35166855827977
 30
0.0
  0
ARC
  5
2E0
330
1F
100
AcDbEntity
  8
0
  6
Continuous
 62
     8
370
    18
100
AcDbCircle
 10
104.3818713058
 20
46.54244205
 30
0.0
 40
1.292285190742439
100
AcDbArc
 50
141.6411539578
 51
170.4442097437
  0
ARC
  5
2E1
330
1F
100
AcDbEntity
  8
0
  6
Continuous
 62
     8
370
    18
100
AcDbCircle
 10
87.7515361986
 20
46.54244205
 30
0.0
 40
1.292285190742439
100
AcDbArc
 50
9.5557902563
 51
38.3588460422
  0
SPLINE
  5
2E2
330
1F
100
AcDbEntity
  8
0
  6
Continuous
 62
     8
370
    18
100
AcDbSpline
210
0.0
220
0.0
230
1.0
 70
     8
 71
     3
 72
    11
 73
     7
 74
     0
 42
0.000000001
 43
0.00000001
 40
0.0
 40
0.0
 40
0.0
 40
0.0
 40
0.3473362980242194
 40
0.6174147209187266
 40
0.89055676425733
 40
1.0
 40
1.0
 40
1.0
 40
1.0
 10
86.14175739934794
 20
58.78726646044363
 30
0.0
 10
86.06906639175553
 20
58.62048304103522
 30
0.0
 10
85.93985300858404
 20
58.32401377210575
 30
0.0
 10
85.73792435096388
 20
57.88138921484831
 30
0.0
 10
85.64890444384618
 20
57.53446167160178
 30
0.0
 10
85.60914471329126
 20
57.33499831924097
 30
0.0
 10
85.59777095219246
 20
57.27793936823566
 30
0.0
  0
SPLINE
  5
2E3
330
1F
100
AcDbEntity
  8
0
  6
Continuous
 62
     8
370
    18
100
AcDbSpline
210
0.0
220
0.0
230
1.0
 70
     8
 71
     3
 72
    11
 73
     7
 74
     0
 42
0.000000001
 43
0.00000001
 40
0.0
 40
0.0
 40
0.0
 40
0.0
 40
0.3473362980242194
 40
0.6174147209187266
 40
0.89055676425733
 40
1.0
 40
1.0
 40
1.0
 40
1.0
 10
105.9916501050269
 20
58.78726646044363
 30
0.0
 10
106.0643411126193
 20
58.62048304103522
 30
0.0
 10
106.1935544957908
 20
58.32401377210575
 30
0.0
 10
106.395483153411
 20
57.88138921484831
 30
0.0
 10
106.4845030605287
 20
57.53446167160178
 30
0.0
 10
106.5242627910836
 20
57.33499831924097
 30
0.0
 10
106.5356365521824
 20
57.27793936823566
 30
0.0
  0
ARC
  5
2E4
330
1F
100
AcDbEntity
  8
0
  6
Continuous
 62
     8
370
    18
100
AcDbCircle
 10
85.9008917476
 20
41.3921041396
 30
0.0
 40
2.055988260841357
100
AcDbArc
 50
2.0275130366
 51
85.3741614475
  0
SPLINE
  5
2E5
330
1F
100
AcDbEntity
  8
0
  6
Continuous
 62
     8
370
    18
100
AcDbSpline
210
0.0
220
0.0
230
1.0
 70
     8
 71
     3
 72
    13
 73
     9
 74
     0
 42
0.000000001
 43
0.00000001
 40
0.0
 40
0.0
 40
0.0
 40
0.0
 40
0.1423015793187478
 40
0.4250295037967294
 40
0.6598824159646263
 40
0.8457173973085795
 40
0.928039508743549
 40
1.0
 40
1.0
 40
1.0
 40
1.0
 10
86.06670397570483
 20
43.44139524475743
 30
0.0
 10
86.13733696133139
 20
43.45520612648932
 30
0.0
 10
86.34830512469443
 20
43.49645677344351
 30
0.0
 10
86.70622596542098
 20
43.63836141412312
 30
0.0
 10
87.07861887630257
 20
43.8547342256211
 30
0.0
 10
87.31616509796685
 20
44.07656689095677
 30
0.0
 10
87.427063878217
 20
44.27703822069462
 30
0.0
 10
87.43779494893876
 20
44.38112352250447
 30
0.0
 10
87.44280013492457
 20
44.42967098877837
 30
0.0
  0
LINE
  5
2E6
330
1F
100
AcDbEntity
  8
0
  6
Continuous
 62
     8
370
    18
100
AcDbLine
 10
89.0258901869
 20
44.4296709888
 30
0.0
 11
87.4428001349
 21
44.4296709888
 31
0.0
  0
SPLINE
  5
2E7
330
1F
100
AcDbEntity
  8
0
  6
Continuous
 62
     8
370
    18
100
AcDbSpline
210
0.0
220
0.0
230
1.0
 70
     8
 71
     3
 72
    13
 73
     9
 74
     0
 42
0.000000001
 43
0.00000001
 40
0.0
 40
0.0
 40
0.0
 40
0.0
 40
0.1423015793187478
 40
0.4250295037967294
 40
0.6598824159646263
 40
0.8457173973085795
 40
0.928039508743549
 40
1.0
 40
1.0
 40
1.0
 40
1.0
 10
106.06670352867
 20
43.44139524475743
 30
0.0
 10
105.9960705430434
 20
43.45520612648932
 30
0.0
 10
105.7851023796804
 20
43.49645677344351
 30
0.0
 10
105.4271815389538
 20
43.63836141412312
 30
0.0
 10
105.0547886280723
 20
43.8547342256211
 30
0.0
 10
104.817242406408
 20
44.07656689095677
 30
0.0
 10
104.7063436261578
 20
44.27703822069462
 30
0.0
 10
104.6956125554361
 20
44.38112352250447
 30
0.0
 10
104.6906073694502
 20
44.42967098877837
 30
0.0
  0
ARC
  5
2E8
330
1F
100
AcDbEntity
  8
0
  6
Continuous
 62
     8
370
    18
100
AcDbCircle
 10
106.2325157568
 20
41.3921041396
 30
0.0
 40
2.055988260841357
100
AcDbArc
 50
94.6258385525
 51
177.9724869634
  0
LINE
  5
2E9
330
1F
100
AcDbEntity
  8
0
  6
Continuous
 62
     8
370
    18
100
AcDbLine
 10
103.1075173174
 20
44.4296709888
 30
0.0
 11
104.6906073695
 21
44.4296709888
 31
0.0
  0
SPLINE
  5
2EA
330
1F
100
AcDbEntity
  8
0
  6
Continuous
 62
     8
370
    18
100
AcDbSpline
210
0.0
220
0.0
230
1.0
 70
     8
 71
     3
 72
    11
 73
     7
 74
     0
 42
0.000000001
 43
0.00000001
 40
0.0
 40
0.0
 40
0.0
 40
0.0
 40
0.0052884283852888
 40
0.2496048750866974
 40
0.6210722179689775
 40
1.0
 40
1.0
 40
1.0
 40
1.0
 10
87.44280013492457
 20
46.41211588607241
 30
0.0
 10
87.44599245355192
 20
46.41279822293821
 30
0.0
 10
87.59666449336449
 20
46.44500336891824
 30
0.0
 10
87.97065061802081
 20
46.52533878941973
 30
0.0
 10
88.54705826036141
 20
46.65089418809826
 30
0.0
 10
88.86522513818073
 20
46.72137887406909
 30
0.0
 10
89.0258901869332
 20
46.75697159693648
 30
0.0
  0
SPLINE
  5
2EB
330
1F
100
AcDbEntity
  8
0
  6
Continuous
 62
     8
370
    18
100
AcDbSpline
210
0.0
220
0.0
230
1.0
 70
     8
 71
     3
 72
    11
 73
     7
 74
     0
 42
0.000000001
 43
0.00000001
 40
0.0
 40
0.0
 40
0.0
 40
0.0
 40
0.0052884283852888
 40
0.2496048750866974
 40
0.6210722179689775
 40
1.0
 40
1.0
 40
1.0
 40
1.0
 10
104.6906073694502
 20
46.41211588607241
 30
0.0
 10
104.6874150508229
 20
46.41279822293821
 30
0.0
 10
104.5367430110103
 20
46.44500336891824
 30
0.0
 10
104.162756886354
 20
46.52533878941973
 30
0.0
 10
103.5863492440134
 20
46.65089418809826
 30
0.0
 10
103.2681823661941
 20
46.72137887406909
 30
0.0
 10
103.1075173174416
 20
46.75697159693648
 30
0.0
  0
LINE
  5
2EC
330
1F
100
AcDbEntity
  8
0
  6
Continuous
 62
     8
370
    18
100
AcDbLine
 10
104.6906073695
 20
44.4296709888
 30
0.0
 11
104.6906073695
 21
46.4121158861
 31
0.0
  0
LINE
  5
2ED
330
1F
100
AcDbEntity
  8
0
  6
Continuous
 62
     8
370
    18
100
AcDbLine
 10
87.4428001349
 20
44.4296709888
 30
0.0
 11
87.4428001349
 21
46.4121158861
 31
0.0
  0
ARC
  5
2EE
330
1F
100
AcDbEntity
  8
0
  6
Continuous
 62
     8
370
    18
100
AcDbCircle
 10
86.9661789797
 20
57.5086957956
 30
0.0
 40
1.387728020405707
100
AcDbArc
 50
144.3443336837
 51
189.5718102018
  0
ARC
  5
2EF
330
1F
100
AcDbEntity
  8
0
  6
Continuous
 62
     8
370
    18
100
AcDbCircle
 10
105.1668233386
 20
57.5086876332
 30
0.0
 40
1.388126210184372
100
AcDbArc
 50
350.4313029948
 51
35.4732717874
  0
SPLINE
  5
2F0
330
1F
100
AcDbEntity
  8
0
  6
Continuous
 62
     8
370
    18
100
AcDbSpline
210
0.0
220
0.0
230
1.0
 70
     8
 71
     3
 72
    11
 73
     7
 74
     0
 42
0.000000001
 43
0.00000001
 40
0.0
 40
0.0
 40
0.0
 40
0.0
 40
0.2542774277702006
 40
0.5099026111111129
 40
0.7635720648401789
 40
1.0
 40
1.0
 40
1.0
 40
1.0
 10
106.1697310884868
 20
58.4243493780594
 30
0.0
 10
106.2767699090415
 20
58.38931314013666
 30
0.0
 10
106.4914148917664
 20
58.3190549604902
 30
0.0
 10
106.7732256153178
 20
57.90895080114483
 30
0.0
 10
106.9162393225243
 20
57.33697806310461
 30
0.0
 10
106.8871079767011
 20
56.86408782247386
 30
0.0
 10
106.8730547209655
 20
56.63596078959365
 30
0.0
  0
SPLINE
  5
2F1
330
1F
100
AcDbEntity
  8
0
  6
Continuous
 62
     8
370
    18
100
AcDbSpline
210
0.0
220
0.0
230
1.0
 70
     8
 71
     3
 72
    11
 73
     7
 74
     0
 42
0.000000001
 43
0.00000001
 40
0.0
 40
0.0
 40
0.0
 40
0.0
 40
0.2542774277702006
 40
0.5099026111111129
 40
0.7635720648401789
 40
1.0
 40
1.0
 40
1.0
 40
1.0
 10
85.96367641588799
 20
58.4243493780594
 30
0.0
 10
85.85663759533334
 20
58.38931314013666
 30
0.0
 10
85.64199261260842
 20
58.3190549604902
 30
0.0
 10
85.36018188905703
 20
57.90895080114483
 30
0.0
 10
85.21716818185052
 20
57.33697806310461
 30
0.0
 10
85.2462995276737
 20
56.86408782247386
 30
0.0
 10
85.26035278340927
 20
56.63596078959365
 30
0.0
  0
LINE
  5
2F2
330
1F
100
AcDbEntity
  8
0
  6
Continuous
 62
     8
370
    18
100
AcDbLine
 10
106.1153064599
 20
43.4308526732
 30
0.0
 11
106.0667035287
 21
43.4413952448
 31
0.0
  0
LINE
  5
2F3
330
1F
100
AcDbEntity
  8
0
  6
Continuous
 62
     8
370
    18
100
AcDbLine
 10
106.0667035287
 20
44.4296709888
 30
0.0
 11
106.0667035287
 21
43.4413952448
 31
0.0
  0
LINE
  5
2F4
330
1F
100
AcDbEntity
  8
0
  6
Continuous
 62
     8
370
    18
100
AcDbLine
 10
107.0667036926
 20
44.4296709888
 30
0.0
 11
106.0667035287
 21
44.4296709888
 31
0.0
  0
LINE
  5
2F5
330
1F
100
AcDbEntity
  8
0
  6
Continuous
 62
     8
370
    18
100
AcDbLine
 10
106.0667035287
 20
44.4296709888
 30
0.0
 11
104.6906073695
 21
44.4296709888
 31
0.0
  0
LINE
  5
2F6
330
1F
100
AcDbEntity
  8
0
  6
Continuous
 62
     8
370
    18
100
AcDbLine
 10
86.0667039757
 20
44.4296709888
 30
0.0
 11
87.4428001349
 21
44.4296709888
 31
0.0
  0
LINE
  5
2F7
330
1F
100
AcDbEntity
  8
0
  6
Continuous
 62
     8
370
    18
100
AcDbLine
 10
86.0667039757
 20
44.4296709888
 30
0.0
 11
86.0667039757
 21
43.4413952448
 31
0.0
  0
LINE
  5
2F8
330
1F
100
AcDbEntity
  8
0
  6
Continuous
 62
     8
370
    18
100
AcDbLine
 10
85.0667038118
 20
44.4296709888
 30
0.0
 11
86.0667039757
 21
44.4296709888
 31
0.0
  0
LINE
  5
2F9
330
1F
100
AcDbEntity
  8
0
  6
Continuous
 62
     8
370
    18
100
AcDbLine
 10
86.0181010445
 20
43.4308526732
 30
0.0
 11
86.0667039757
 21
43.4413952448
 31
0.0
  0
LINE
  5
2FA
330
1F
100
AcDbEntity
  8
0
  6
Continuous
 62
     8
370
    18
100
AcDbLine
 10
86.0667039757
 20
47.9672313362
 30
0.0
 11
86.0667039757
 21
44.4296709888
 31
0.0
  0
LINE
  5
2FB
330
1F
100
AcDbEntity
  8
0
  6
Continuous
 62
     8
370
    18
100
AcDbLine
 10
85.2603527834
 20
56.6359607896
 30
0.0
 11
85.0667038118
 21
56.6359607896
 31
0.0
  0
LINE
  5
2FC
330
1F
100
AcDbEntity
  8
0
  6
Continuous
 62
     8
370
    18
100
AcDbLine
 10
106.0667035287
 20
47.9672313362
 30
0.0
 11
106.0667035287
 21
44.4296709888
 31
0.0
  0
LINE
  5
2FD
330
1F
100
AcDbEntity
  8
0
  6
Continuous
 62
     8
370
    18
100
AcDbLine
 10
106.873054721
 20
56.6359607896
 30
0.0
 11
107.0667036926
 21
56.6359607896
 31
0.0
  0
ARC
  5
2FE
330
1F
100
AcDbEntity
  8
0
  6
Continuous
 62
     8
370
    18
100
AcDbCircle
 10
106.2481166504
 20
41.4779562907
 30
0.0
 40
1.957407169612963
100
AcDbArc
 50
93.8905109623
 51
181.3097176286
  0
ARC
  5
2FF
330
1F
100
AcDbEntity
  8
0
  6
Continuous
 62
     8
370
    18
100
AcDbCircle
 10
85.8852908539
 20
41.4779562907
 30
0.0
 40
1.957407169612963
100
AcDbArc
 50
358.6902823714
 51
86.1094890377
  0
LINE
  5
300
330
1F
100
AcDbEntity
  8
0
  6
Continuous
 62
     8
370
    18
100
AcDbLine
 10
108.1029397552
 20
54.6296709494
 30
0.0
 11
108.1029397552
 21
46.0600545324
 31
0.0
  0
LINE
  5
301
330
1F
100
AcDbEntity
  8
0
  6
Continuous
 62
     8
370
    18
100
AcDbLine
 10
109.0667040204
 20
54.6296709494
 30
0.0
 11
108.1029397552
 21
54.6296709494
 31
0.0
  0
LINE
  5
302
330
1F
100
AcDbEntity
  8
0
  6
Continuous
 62
     8
370
    18
100
AcDbLine
 10
83.066703484
 20
54.6296709494
 30
0.0
 11
84.0304677491
 21
54.6296709494
 31
0.0
  0
LINE
  5
303
330
1F
100
AcDbEntity
  8
0
  6
Continuous
 62
     8
370
    18
100
AcDbLine
 10
84.0304677491
 20
54.6296709494
 30
0.0
 11
84.0304677491
 21
46.0600545324
 31
0.0
  0
ARC
  5
304
330
1F
100
AcDbEntity
  8
0
  6
Continuous
 62
     8
370
    18
100
AcDbCircle
 10
108.4007237086
 20
54.6318871923
 30
0.0
 40
0.2977922003899689
100
AcDbArc
 50
90.4325797354
 51
180.4264132445
  0
ARC
  5
305
330
1F
100
AcDbEntity
  8
0
  6
Continuous
 62
     8
370
    18
100
AcDbCircle
 10
83.7326837958
 20
54.6318871923
 30
0.0
 40
0.2977922003899689
100
AcDbArc
 50
359.5735867555
 51
89.5674202646
  0
LINE
  5
306
330
1F
100
AcDbEntity
  8
0
  6
Continuous
 62
     8
370
    18
100
AcDbLine
 10
107.8074040939
 20
45.39043267
 30
0.0
 11
107.8074040939
 21
54.6296709494
 31
0.0
  0
LINE
  5
307
330
1F
100
AcDbEntity
  8
0
  6
Continuous
 62
     8
370
    18
100
AcDbLine
 10
107.8074040939
 20
54.6296709494
 30
0.0
 11
108.1029397552
 21
54.6296709494
 31
0.0
  0
LINE
  5
308
330
1F
100
AcDbEntity
  8
0
  6
Continuous
 62
     8
370
    18
100
AcDbLine
 10
84.3260034104
 20
54.6296709494
 30
0.0
 11
84.0304677491
 21
54.6296709494
 31
0.0
  0
LINE
  5
309
330
1F
100
AcDbEntity
  8
0
  6
Continuous
 62
     8
370
    18
100
AcDbLine
 10
84.3260034104
 20
45.39043267
 30
0.0
 11
84.3260034104
 21
54.6296709494
 31
0.0
  0
LINE
  5
30A
330
1F
100
AcDbEntity
  8
0
  6
Continuous
 62
     8
370
    18
100
AcDbLine
 10
107.8074040939
 20
54.9296709054
 30
0.0
 11
107.8074040939
 21
54.6296709494
 31
0.0
  0
LINE
  5
30B
330
1F
100
AcDbEntity
  8
0
  6
Continuous
 62
     8
370
    18
100
AcDbLine
 10
84.3260034104
 20
54.9296709054
 30
0.0
 11
84.3260034104
 21
54.6296709494
 31
0.0
  0
LINE
  5
30C
330
1F
100
AcDbEntity
  8
0
  6
Continuous
 62
     8
370
    18
100
AcDbLine
 10
107.0667036926
 20
45.2296705611
 30
0.0
 11
107.7296163072
 21
45.2296705611
 31
0.0
  0
LINE
  5
30D
330
1F
100
AcDbEntity
  8
0
  6
Continuous
 62
     8
370
    18
100
AcDbLine
 10
85.0667038118
 20
45.2296705611
 30
0.0
 11
84.4037911971
 21
45.2296705611
 31
0.0
  0
LINE
  5
30E
330
1F
100
AcDbEntity
  8
0
  6
Continuous
 62
     8
370
    18
100
AcDbLine
 10
107.8074040939
 20
54.6296709494
 30
0.0
 11
107.0667036926
 21
54.6296709494
 31
0.0
  0
LINE
  5
30F
330
1F
100
AcDbEntity
  8
0
  6
Continuous
 62
     8
370
    18
100
AcDbLine
 10
85.0667038118
 20
54.6296709494
 30
0.0
 11
84.3260034104
 21
54.6296709494
 31
0.0
  0
LINE
  5
310
330
1F
100
AcDbEntity
  8
DEFAULT_LAYER
  6
PHANTOM
370
    18
100
AcDbLine
 10
68.5667037522
 20
31.6721857658
 30
0.0
 11
51.396306014
 21
31.6721857658
 31
0.0
  0
LINE
  5
311
330
1F
100
AcDbEntity
  8
DEFAULT_LAYER
370
    18
100
AcDbLine
 10
58.2275608834
 20
27.5346825092
 30
0.0
 11
58.4314789392
 21
27.5346825092
 31
0.0
  0
LINE
  5
312
330
1F
100
AcDbEntity
  8
DEFAULT_LAYER
  6
PHANTOM
370
    18
100
AcDbLine
 10
123.5667037522
 20
31.6721857658
 30
0.0
 11
135.7572098835
 21
31.6721857658
 31
0.0
  0
DIMENSION
  5
313
330
1F
100
AcDbEntity
  8
DEFAULT_LAYER
100
AcDbDimension
  2
_D_5
 10
145.9964286088
 20
31.6721857658
 30
0.0
 11
145.9964286088
 21
43.6499823385
 31
0.0
 70
   160
  1
<>
 71
     2
 42
-1.0
  3
SLDDIMSTYLE3
100
AcDbAlignedDimension
 13
109.0442037522
 23
55.4296709292
 33
0.0
 14
135.7572098835
 24
31.6721857658
 34
0.0
 50
90.0
100
AcDbRotatedDimension
  0
MTEXT
  5
31F
330
1F
100
AcDbEntity
  8
DEFAULT_LAYER
100
AcDbMText
 10
89.3733335283
 20
16.2577773938
 30
0.0
 40
3.175
 41
0.0
 71
     1
 72
     1
  1
矢視図 P
  7
SLDTEXTSTYLE0
 73
     1
 44
1.0
  0
INSERT
  5
325
330
1F
100
AcDbEntity
  8
DEFAULT_LAYER
100
AcDbBlockReference
  2
SW_NOTE_5
 10
126.6287128713
 20
74.197579861
 30
0.0
  0
LEADER
  5
326
330
1F
100
AcDbEntity
  8
DEFAULT_LAYER
100
AcDbLeader
  3
SLDDIMSTYLE2
 76
     2
 10
104.6121802181
 20
61.4920828437
 30
0.0
 10
126.6287128713
 20
74.197579861
 30
0.0
  0
MTEXT
  5
327
330
1F
100
AcDbEntity
  8
DEFAULT_LAYER
100
AcDbMText
 10
124.7293819325
 20
73.2030666773
 30
0.0
 40
2.1166666667
 41
0.0
 71
     1
 72
     1
  1
（シャワーエルボ接続）
  7
SLDTEXTSTYLE0
 73
     1
 44
1.0
  0
MTEXT
  5
328
330
1F
100
AcDbEntity
  8
DEFAULT_LAYER
100
AcDbMText
 10
132.2807612157
 20
34.0411689122
 30
0.0
 40
2.1166666667
 41
0.0
 71
     1
 72
     1
  1
▽
  7
SLDTEXTSTYLE0
 73
     1
 44
1.0
  0
MTEXT
  5
329
330
1F
100
AcDbEntity
  8
DEFAULT_LAYER
100
AcDbMText
 10
127.231881685
 20
34.5810248037
 30
0.0
 40
2.1166666667
 41
0.0
 71
     1
 72
     1
  1
W.L.
  7
SLDTEXTSTYLE0
 73
     1
 44
1.0
  0
INSERT
  5
335
330
1F
100
AcDbEntity
  8
DEFAULT_LAYER
100
AcDbBlockReference
  2
SW_CENTERMARKSYMBOL_0
 10
96.0667037522
 20
55.4296709292
 30
0.0
  0
LINE
  5
336
330
1F
100
AcDbEntity
  8
DEFAULT_LAYER
  6
CENTERX2
370
    18
100
AcDbLine
 10
96.0667037522
 20
19.4785663911
 30
0.0
 11
96.0667037522
 21
77.7643736009
 31
0.0
  0
ENDSEC
  0
SECTION
  2
OBJECTS
  0
DICTIONARY
  5
C
330
0
100
AcDbDictionary
281
     1
  3
ACAD_GROUP
350
D
  3
ACAD_LAYOUT
350
1A
  3
ACAD_MLINESTYLE
350
17
  3
ACAD_PLOTSETTINGS
350
19
  3
ACAD_PLOTSTYLENAME
350
E
  3
ACAD_SCALELIST
350
47
  0
DICTIONARY
  5
D
102
{ACAD_REACTORS
330
C
102
}
330
C
100
AcDbDictionary
281
     1
  0
DICTIONARY
  5
1A
102
{ACAD_REACTORS
330
C
102
}
330
C
100
AcDbDictionary
281
     1
  3
Layout1
350
1E
  3
Layout2
350
26
  3
Model
350
22
  0
DICTIONARY
  5
17
102
{ACAD_REACTORS
330
C
102
}
330
C
100
AcDbDictionary
281
     1
  3
Standard
350
18
  0
DICTIONARY
  5
19
102
{ACAD_REACTORS
330
C
102
}
330
C
100
AcDbDictionary
281
     1
  0
ACDBDICTIONARYWDFLT
  5
E
102
{ACAD_REACTORS
330
C
102
}
330
C
100
AcDbDictionary
281
     1
  3
Normal
350
F
100
AcDbDictionaryWithDefault
340
F
  0
DICTIONARY
  5
47
102
{ACAD_REACTORS
330
C
102
}
330
C
100
AcDbDictionary
281
     1
  3
A0
350
48
  3
A1
350
49
  3
A2
350
4A
  3
A3
350
4B
  3
A4
350
4C
  3
A5
350
4D
  3
A6
350
4E
  3
A7
350
4F
  3
A8
350
50
  3
A9
350
51
  3
B0
350
52
  3
B1
350
53
  3
B2
350
54
  3
B3
350
55
  3
B4
350
56
  3
B5
350
57
  3
B6
350
58
  3
B7
350
59
  3
B8
350
5A
  3
B9
350
5B
  3
C0
350
5C
  3
C1
350
5D
  3
C2
350
5E
  3
C3
350
5F
  3
C4
350
60
  3
C5
350
61
  3
C6
350
62
  3
C7
350
63
  3
C8
350
64
  3
C9
350
65
  3
D0
350
66
  3
D1
350
67
  3
D2
350
68
  0
LAYOUT
  5
1E
102
{ACAD_REACTORS
330
1A
102
}
330
1A
100
AcDbPlotSettings
  1

  2
none_device
  4

  6

 40
0.0
 41
0.0
 42
0.0
 43
0.0
 44
0.0
 45
0.0
 46
0.0
 47
0.0
 48
0.0
 49
0.0
140
0.0
141
0.0
142
1.0
143
1.0
 70
   688
 72
     1
 73
     0
 74
     5
  7

 75
    16
147
1.0
148
0.0
149
0.0
100
AcDbLayout
  1
Layout1
 70
     1
 71
     1
 10
0.0
 20
0.0
 11
420.0
 21
297.0
 12
0.0
 22
0.0
 32
0.0
 14
1.0000000000E+20
 24
1.0000000000E+20
 34
1.0000000000E+20
 15
-1.0000000000E+20
 25
-1.0000000000E+20
 35
-1.0000000000E+20
146
0.0
 13
0.0
 23
0.0
 33
0.0
 16
1.0
 26
0.0
 36
0.0
 17
0.0
 27
1.0
 37
0.0
 76
     0
330
1B
  0
LAYOUT
  5
26
102
{ACAD_REACTORS
330
1A
102
}
330
1A
100
AcDbPlotSettings
  1

  2
none_device
  4

  6

 40
0.0
 41
0.0
 42
0.0
 43
0.0
 44
0.0
 45
0.0
 46
0.0
 47
0.0
 48
0.0
 49
0.0
140
0.0
141
0.0
142
1.0
143
1.0
 70
   688
 72
     1
 73
     0
 74
     5
  7

 75
    16
147
1.0
148
0.0
149
0.0
100
AcDbLayout
  1
Layout2
 70
     1
 71
     2
 10
0.0
 20
0.0
 11
0.0
 21
0.0
 12
0.0
 22
0.0
 32
0.0
 14
0.0
 24
0.0
 34
0.0
 15
0.0
 25
0.0
 35
0.0
146
0.0
 13
0.0
 23
0.0
 33
0.0
 16
1.0
 26
0.0
 36
0.0
 17
0.0
 27
1.0
 37
0.0
 76
     0
330
23
  0
LAYOUT
  5
22
102
{ACAD_REACTORS
330
1A
102
}
330
1A
100
AcDbPlotSettings
  1

  2
none_device
  4
Letter_(8.50_x_11.00_Inches)
  6

 40
6.35
 41
6.35
 42
6.35000508
 43
6.35000508
 44
215.9
 45
279.4
 46
0.0
 47
0.0
 48
0.0
 49
0.0
140
0.0
141
0.0
142
1.0
143
1.0
 70
  1712
 72
     1
 73
     0
 74
     0
  7

 75
     0
147
1.0
148
0.0
149
0.0
100
AcDbLayout
  1
Model
 70
     1
 71
     0
 10
0.0
 20
0.0
 11
420.0
 21
297.0
 12
0.0
 22
0.0
 32
0.0
 14
0.0
 24
0.0
 34
0.0
 15
420.0
 25
297.0
 35
0.0
146
0.0
 13
0.0
 23
0.0
 33
0.0
 16
1.0
 26
0.0
 36
0.0
 17
0.0
 27
1.0
 37
0.0
 76
     0
330
1F
331
29
  0
MLINESTYLE
  5
18
102
{ACAD_REACTORS
330
17
102
}
330
17
100
AcDbMlineStyle
  2
Standard
 70
     0
  3

 62
   256
 51
90.0
 52
90.0
 71
     2
 49
0.5
 62
   256
  6
BYLAYER
 49
-0.5
 62
   256
  6
BYLAYER
  0
ACDBPLACEHOLDER
  5
F
102
{ACAD_REACTORS
330
E
102
}
330
E
  0
SCALE
  5
48
102
{ACAD_REACTORS
330
47
102
}
330
47
100
AcDbScale
 70
     0
300
1:1
140
1.0
141
1.0
290
     1
  0
SCALE
  5
49
102
{ACAD_REACTORS
330
47
102
}
330
47
100
AcDbScale
 70
     0
300
1:2
140
1.0
141
2.0
290
     0
  0
SCALE
  5
4A
102
{ACAD_REACTORS
330
47
102
}
330
47
100
AcDbScale
 70
     0
300
1:4
140
1.0
141
4.0
290
     0
  0
SCALE
  5
4B
102
{ACAD_REACTORS
330
47
102
}
330
47
100
AcDbScale
 70
     0
300
1:5
140
1.0
141
5.0
290
     0
  0
SCALE
  5
4C
102
{ACAD_REACTORS
330
47
102
}
330
47
100
AcDbScale
 70
     0
300
1:8
140
1.0
141
8.0
290
     0
  0
SCALE
  5
4D
102
{ACAD_REACTORS
330
47
102
}
330
47
100
AcDbScale
 70
     0
300
1:10
140
1.0
141
10.0
290
     0
  0
SCALE
  5
4E
102
{ACAD_REACTORS
330
47
102
}
330
47
100
AcDbScale
 70
     0
300
1:16
140
1.0
141
16.0
290
     0
  0
SCALE
  5
4F
102
{ACAD_REACTORS
330
47
102
}
330
47
100
AcDbScale
 70
     0
300
1:20
140
1.0
141
20.0
290
     0
  0
SCALE
  5
50
102
{ACAD_REACTORS
330
47
102
}
330
47
100
AcDbScale
 70
     0
300
1:30
140
1.0
141
30.0
290
     0
  0
SCALE
  5
51
102
{ACAD_REACTORS
330
47
102
}
330
47
100
AcDbScale
 70
     0
300
1:40
140
1.0
141
40.0
290
     0
  0
SCALE
  5
52
102
{ACAD_REACTORS
330
47
102
}
330
47
100
AcDbScale
 70
     0
300
1:50
140
1.0
141
50.0
290
     0
  0
SCALE
  5
53
102
{ACAD_REACTORS
330
47
102
}
330
47
100
AcDbScale
 70
     0
300
1:100
140
1.0
141
100.0
290
     0
  0
SCALE
  5
54
102
{ACAD_REACTORS
330
47
102
}
330
47
100
AcDbScale
 70
     0
300
2:1
140
2.0
141
1.0
290
     0
  0
SCALE
  5
55
102
{ACAD_REACTORS
330
47
102
}
330
47
100
AcDbScale
 70
     0
300
4:1
140
4.0
141
1.0
290
     0
  0
SCALE
  5
56
102
{ACAD_REACTORS
330
47
102
}
330
47
100
AcDbScale
 70
     0
300
8:1
140
8.0
141
1.0
290
     0
  0
SCALE
  5
57
102
{ACAD_REACTORS
330
47
102
}
330
47
100
AcDbScale
 70
     0
300
10:1
140
10.0
141
1.0
290
     0
  0
SCALE
  5
58
102
{ACAD_REACTORS
330
47
102
}
330
47
100
AcDbScale
 70
     0
300
100:1
140
100.0
141
1.0
290
     0
  0
SCALE
  5
59
102
{ACAD_REACTORS
330
47
102
}
330
47
100
AcDbScale
 70
     0
300
1/128" = 1'-0"
140
0.0078125
141
12.0
290
     0
  0
SCALE
  5
5A
102
{ACAD_REACTORS
330
47
102
}
330
47
100
AcDbScale
 70
     0
300
1/64" = 1'-0"
140
0.015625
141
12.0
290
     0
  0
SCALE
  5
5B
102
{ACAD_REACTORS
330
47
102
}
330
47
100
AcDbScale
 70
     0
300
1/32" = 1'-0"
140
0.03125
141
12.0
290
     0
  0
SCALE
  5
5C
102
{ACAD_REACTORS
330
47
102
}
330
47
100
AcDbScale
 70
     0
300
1/16" = 1'-0"
140
0.0625
141
12.0
290
     0
  0
SCALE
  5
5D
102
{ACAD_REACTORS
330
47
102
}
330
47
100
AcDbScale
 70
     0
300
3/32" = 1'-0"
140
0.09375
141
12.0
290
     0
  0
SCALE
  5
5E
102
{ACAD_REACTORS
330
47
102
}
330
47
100
AcDbScale
 70
     0
300
1/8" = 1'-0"
140
0.125
141
12.0
290
     0
  0
SCALE
  5
5F
102
{ACAD_REACTORS
330
47
102
}
330
47
100
AcDbScale
 70
     0
300
3/16" = 1'-0"
140
0.1875
141
12.0
290
     0
  0
SCALE
  5
60
102
{ACAD_REACTORS
330
47
102
}
330
47
100
AcDbScale
 70
     0
300
1/4" = 1'-0"
140
0.25
141
12.0
290
     0
  0
SCALE
  5
61
102
{ACAD_REACTORS
330
47
102
}
330
47
100
AcDbScale
 70
     0
300
3/8" = 1'-0"
140
0.375
141
12.0
290
     0
  0
SCALE
  5
62
102
{ACAD_REACTORS
330
47
102
}
330
47
100
AcDbScale
 70
     0
300
1/2" = 1'-0"
140
0.5
141
12.0
290
     0
  0
SCALE
  5
63
102
{ACAD_REACTORS
330
47
102
}
330
47
100
AcDbScale
 70
     0
300
3/4" = 1'-0"
140
0.75
141
12.0
290
     0
  0
SCALE
  5
64
102
{ACAD_REACTORS
330
47
102
}
330
47
100
AcDbScale
 70
     0
300
1" = 1'-0"
140
1.0
141
12.0
290
     0
  0
SCALE
  5
65
102
{ACAD_REACTORS
330
47
102
}
330
47
100
AcDbScale
 70
     0
300
1-1/2" = 1'-0"
140
1.5
141
12.0
290
     0
  0
SCALE
  5
66
102
{ACAD_REACTORS
330
47
102
}
330
47
100
AcDbScale
 70
     0
300
3" = 1'-0"
140
3.0
141
12.0
290
     0
  0
SCALE
  5
67
102
{ACAD_REACTORS
330
47
102
}
330
47
100
AcDbScale
 70
     0
300
6" = 1'-0"
140
6.0
141
12.0
290
     0
  0
SCALE
  5
68
102
{ACAD_REACTORS
330
47
102
}
330
47
100
AcDbScale
 70
     0
300
1'-0" = 1'-0"
140
12.0
141
12.0
290
     0
  0
ENDSEC
  0
EOF
