  0
SECTION
  2
HEADER
  9
$ACADVER
  1
AC1015
  9
$ACADMAINTVER
 70
     6
  9
$DWGCODEPAGE
  3
DOS932
  9
$INSBASE
 10
0.0
 20
0.0
 30
0.0
  9
$EXTMIN
 10
0.0
 20
0.0
 30
0.0
  9
$EXTMAX
 10
420.0
 20
297.0
 30
0.0
  9
$LIMMIN
 10
0.0
 20
0.0
  9
$LIMMAX
 10
420.0
 20
297.0
  9
$ORTHOMODE
 70
     0
  9
$REGENMODE
 70
     1
  9
$FILLMODE
 70
     1
  9
$QTEXTMODE
 70
     0
  9
$MIRRTEXT
 70
     1
  9
$LTSCALE
 40
1.0
  9
$ATTMODE
 70
     1
  9
$TEXTSIZE
 40
2.8222222222
  9
$TRACEWID
 40
1.0
  9
$TEXTSTYLE
  7
Standard
  9
$CLAYER
  8
0
  9
$CELTYPE
  6
ByLayer
  9
$CECOLOR
 62
   256
  9
$CELTSCALE
 40
1.0
  9
$DISPSILH
 70
     0
  9
$DIMSCALE
 40
1.0
  9
$DIMASZ
 40
2.5
  9
$DIMEXO
 40
0.0
  9
$DIMDLI
 40
3.75
  9
$DIMRND
 40
0.0
  9
$DIMDLE
 40
0.0
  9
$DIMEXE
 40
1.0
  9
$DIMTP
 40
0.0
  9
$DIMTM
 40
0.0
  9
$DIMTXT
 40
2.8222222222
  9
$DIMCEN
 40
2.5
  9
$DIMTSZ
 40
0.0
  9
$DIMTOL
 70
     0
  9
$DIMLIM
 70
     0
  9
$DIMTIH
 70
     1
  9
$DIMTOH
 70
     1
  9
$DIMSE1
 70
     0
  9
$DIMSE2
 70
     0
  9
$DIMTAD
 70
     1
  9
$DIMZIN
 70
     0
  9
$DIMBLK
  1

  9
$DIMASO
 70
     1
  9
$DIMSHO
 70
     1
  9
$DIMPOST
  1

  9
$DIMAPOST
  1

  9
$DIMALT
 70
     0
  9
$DIMALTD
 70
     3
  9
$DIMALTF
 40
0.0393700787
  9
$DIMLFAC
 40
1.0
  9
$DIMTOFL
 70
     1
  9
$DIMTVP
 40
0.0
  9
$DIMTIX
 70
     0
  9
$DIMSOXD
 70
     0
  9
$DIMSAH
 70
     0
  9
$DIMBLK1
  1

  9
$DIMBLK2
  1

  9
$DIMSTYLE
  2
ISO-25
  9
$DIMCLRD
 70
     0
  9
$DIMCLRE
 70
     0
  9
$DIMCLRT
 70
     0
  9
$DIMTFAC
 40
1.0
  9
$DIMGAP
 40
1.524
  9
$DIMJUST
 70
     0
  9
$DIMSD1
 70
     0
  9
$DIMSD2
 70
     0
  9
$DIMTOLJ
 70
     0
  9
$DIMTZIN
 70
     0
  9
$DIMALTZ
 70
     0
  9
$DIMALTTZ
 70
     0
  9
$DIMUPT
 70
     0
  9
$DIMDEC
 70
     1
  9
$DIMTDEC
 70
     1
  9
$DIMALTU
 70
     2
  9
$DIMALTTD
 70
     3
  9
$DIMTXSTY
  7
Standard
  9
$DIMAUNIT
 70
     0
  9
$DIMADEC
 70
     2
  9
$DIMALTRND
 40
0.0
  9
$DIMAZIN
 70
     0
  9
$DIMDSEP
 70
    44
  9
$DIMATFIT
 70
     3
  9
$DIMFRAC
 70
     0
  9
$DIMLDRBLK
  1

  9
$DIMLUNIT
 70
     2
  9
$DIMLWD
 70
    -2
  9
$DIMLWE
 70
    -2
  9
$DIMTMOVE
 70
     0
  9
$LUNITS
 70
     2
  9
$LUPREC
 70
     1
  9
$SKETCHINC
 40
1.0
  9
$FILLETRAD
 40
10.0
  9
$AUNITS
 70
     0
  9
$AUPREC
 70
     2
  9
$MENU
  1
.
  9
$ELEVATION
 40
0.0
  9
$PELEVATION
 40
0.0
  9
$THICKNESS
 40
0.0
  9
$LIMCHECK
 70
     0
  9
$CHAMFERA
 40
0.0
  9
$CHAMFERB
 40
0.0
  9
$CHAMFERC
 40
0.0
  9
$CHAMFERD
 40
0.0
  9
$SKPOLY
 70
     0
  9
$TDCREATE
 40
2459571.441385579
  9
$TDUCREATE
 40
2459571.066385579
  9
$TDUPDATE
 40
2459571.441390717
  9
$TDUUPDATE
 40
2459571.066390717
  9
$TDINDWG
 40
0.0000000116
  9
$TDUSRTIMER
 40
0.0000000116
  9
$USRTIMER
 70
     1
  9
$ANGBASE
 50
0.0
  9
$ANGDIR
 70
     0
  9
$PDMODE
 70
     0
  9
$PDSIZE
 40
-1.0
  9
$PLINEWID
 40
0.0
  9
$SPLFRAME
 70
     0
  9
$SPLINETYPE
 70
     6
  9
$SPLINESEGS
 70
     8
  9
$HANDSEED
  5
341
  9
$SURFTAB1
 70
     6
  9
$SURFTAB2
 70
     6
  9
$SURFTYPE
 70
     6
  9
$SURFU
 70
     6
  9
$SURFV
 70
     6
  9
$UCSBASE
  2

  9
$UCSNAME
  2

  9
$UCSORG
 10
0.0
 20
0.0
 30
0.0
  9
$UCSXDIR
 10
1.0
 20
0.0
 30
0.0
  9
$UCSYDIR
 10
0.0
 20
1.0
 30
0.0
  9
$UCSORTHOREF
  2

  9
$UCSORTHOVIEW
 70
     0
  9
$UCSORGTOP
 10
0.0
 20
0.0
 30
0.0
  9
$UCSORGBOTTOM
 10
0.0
 20
0.0
 30
0.0
  9
$UCSORGLEFT
 10
0.0
 20
0.0
 30
0.0
  9
$UCSORGRIGHT
 10
0.0
 20
0.0
 30
0.0
  9
$UCSORGFRONT
 10
0.0
 20
0.0
 30
0.0
  9
$UCSORGBACK
 10
0.0
 20
0.0
 30
0.0
  9
$PUCSBASE
  2

  9
$PUCSNAME
  2

  9
$PUCSORG
 10
0.0
 20
0.0
 30
0.0
  9
$PUCSXDIR
 10
1.0
 20
0.0
 30
0.0
  9
$PUCSYDIR
 10
0.0
 20
1.0
 30
0.0
  9
$PUCSORTHOREF
  2

  9
$PUCSORTHOVIEW
 70
     0
  9
$PUCSORGTOP
 10
0.0
 20
0.0
 30
0.0
  9
$PUCSORGBOTTOM
 10
0.0
 20
0.0
 30
0.0
  9
$PUCSORGLEFT
 10
0.0
 20
0.0
 30
0.0
  9
$PUCSORGRIGHT
 10
0.0
 20
0.0
 30
0.0
  9
$PUCSORGFRONT
 10
0.0
 20
0.0
 30
0.0
  9
$PUCSORGBACK
 10
0.0
 20
0.0
 30
0.0
  9
$USERI1
 70
     0
  9
$USERI2
 70
     0
  9
$USERI3
 70
     0
  9
$USERI4
 70
     0
  9
$USERI5
 70
     0
  9
$USERR1
 40
0.0
  9
$USERR2
 40
0.0
  9
$USERR3
 40
0.0
  9
$USERR4
 40
0.0
  9
$USERR5
 40
0.0
  9
$WORLDVIEW
 70
     1
  9
$SHADEDGE
 70
     3
  9
$SHADEDIF
 70
    70
  9
$TILEMODE
 70
     1
  9
$MAXACTVP
 70
    64
  9
$PINSBASE
 10
0.0
 20
0.0
 30
0.0
  9
$PLIMCHECK
 70
     0
  9
$PEXTMIN
 10
1.0000000000E+20
 20
1.0000000000E+20
 30
1.0000000000E+20
  9
$PEXTMAX
 10
-1.0000000000E+20
 20
-1.0000000000E+20
 30
-1.0000000000E+20
  9
$PLIMMIN
 10
0.0
 20
0.0
  9
$PLIMMAX
 10
420.0
 20
297.0
  9
$UNITMODE
 70
     0
  9
$VISRETAIN
 70
     1
  9
$PLINEGEN
 70
     0
  9
$PSLTSCALE
 70
     1
  9
$TREEDEPTH
 70
  3020
  9
$CMLSTYLE
  2
Standard
  9
$CMLJUST
 70
     0
  9
$CMLSCALE
 40
20.0
  9
$PROXYGRAPHICS
 70
     1
  9
$MEASUREMENT
 70
     1
  9
$CELWEIGHT
370
    -1
  9
$ENDCAPS
280
     0
  9
$JOINSTYLE
280
     0
  9
$LWDISPLAY
290
     1
  9
$INSUNITS
 70
     4
  9
$HYPERLINKBASE
  1

  9
$STYLESHEET
  1

  9
$XEDIT
290
     1
  9
$CEPSNTYPE
380
     0
  9
$PSTYLEMODE
290
     1
  9
$FINGERPRINTGUID
  2
{D0A92EE9-DD81-46CE-825F-EE95015C7990}
  9
$VERSIONGUID
  2
{FAEB1C32-E019-11D5-929B-00C0DF256EC4}
  9
$EXTNAMES
290
     1
  9
$PSVPSCALE
 40
0.0
  9
$OLESTARTUP
290
     0
  0
ENDSEC
  0
SECTION
  2
CLASSES
  0
CLASS
  1
ACDBDICTIONARYWDFLT
  2
AcDbDictionaryWithDefault
  3
ObjectDBX Classes
 90
        0
280
     0
281
     0
  0
CLASS
  1
VISUALSTYLE
  2
AcDbVisualStyle
  3
ObjectDBX Classes
 90
     4095
280
     0
281
     0
  0
CLASS
  1
MATERIAL
  2
AcDbMaterial
  3
ObjectDBX Classes
 90
     1153
280
     0
281
     0
  0
CLASS
  1
SCALE
  2
AcDbScale
  3
ObjectDBX Classes
 90
     1153
280
     0
281
     0
  0
CLASS
  1
TABLESTYLE
  2
AcDbTableStyle
  3
ObjectDBX Classes
 90
     4095
280
     0
281
     0
  0
CLASS
  1
MLEADERSTYLE
  2
AcDbMLeaderStyle
  3
ACDB_MLEADERSTYLE_CLASS
 90
     4095
280
     0
281
     0
  0
CLASS
  1
SUN
  2
AcDbSun
  3
SCENEOE
 90
     1153
280
     0
281
     0
  0
CLASS
  1
ACDBPLACEHOLDER
  2
AcDbPlaceHolder
  3
ObjectDBX Classes
 90
        0
280
     0
281
     0
  0
CLASS
  1
LAYOUT
  2
AcDbLayout
  3
ObjectDBX Classes
 90
        0
280
     0
281
     0
  0
ENDSEC
  0
SECTION
  2
TABLES
  0
TABLE
  2
VPORT
  5
8
330
0
100
AcDbSymbolTable
 70
     1
  0
VPORT
  5
29
330
8
100
AcDbSymbolTableRecord
100
AcDbViewportTableRecord
  2
*Active
 70
     0
 10
0.0
 20
0.0
 11
1.0
 21
1.0
 12
210.0
 22
148.5
 13
0.0
 23
0.0
 14
10.0
 24
10.0
 15
10.0
 25
10.0
 16
0.0
 26
0.0
 36
1.0
 17
0.0
 27
0.0
 37
0.0
 40
297.0
 41
1.4141414141
 42
50.0
 43
0.0
 44
0.0
 50
0.0
 51
0.0
 71
     0
 72
  2000
 73
     1
 74
     3
 75
     0
 76
     0
 77
     0
 78
     0
281
     0
 65
     1
110
0.0
120
0.0
130
0.0
111
1.0
121
0.0
131
0.0
112
0.0
122
1.0
132
0.0
 79
     0
146
0.0
  0
ENDTAB
  0
TABLE
  2
LTYPE
  5
5
330
0
100
AcDbSymbolTable
 70
     6
  0
LTYPE
  5
14
330
5
100
AcDbSymbolTableRecord
100
AcDbLinetypeTableRecord
  2
ByBlock
 70
     0
  3

 72
    65
 73
     0
 40
0.0
  0
LTYPE
  5
15
330
5
100
AcDbSymbolTableRecord
100
AcDbLinetypeTableRecord
  2
ByLayer
 70
     0
  3

 72
    65
 73
     0
 40
0.0
  0
LTYPE
  5
16
330
5
100
AcDbSymbolTableRecord
100
AcDbLinetypeTableRecord
  2
Continuous
 70
     0
  3
Solid line
 72
    65
 73
     0
 40
0.0
  0
LTYPE
  5
6E
330
5
100
AcDbSymbolTableRecord
100
AcDbLinetypeTableRecord
  2
HIDDEN
 70
     0
  3
Hidden __ __ __ __ __ __ __ __ __ __ __ __ __ __
 72
    65
 73
     2
 40
1.905
 49
1.27
 74
     0
 49
-0.635
 74
     0
  0
LTYPE
  5
6F
330
5
100
AcDbSymbolTableRecord
100
AcDbLinetypeTableRecord
  2
PHANTOM
 70
     0
  3
Phantom ______  __  __  ______  __  __  ______
 72
    65
 73
     6
 40
12.7
 49
6.35
 74
     0
 49
-1.27
 74
     0
 49
1.27
 74
     0
 49
-1.27
 74
     0
 49
1.27
 74
     0
 49
-1.27
 74
     0
  0
LTYPE
  5
70
330
5
100
AcDbSymbolTableRecord
100
AcDbLinetypeTableRecord
  2
CENTER
 70
     0
  3
Center ____ _ ____ _ ____ _ ____ _ ____ _ ____
 72
    65
 73
     4
 40
10.16
 49
6.35
 74
     0
 49
-1.27
 74
     0
 49
1.27
 74
     0
 49
-1.27
 74
     0
  0
LTYPE
  5
71
330
5
100
AcDbSymbolTableRecord
100
AcDbLinetypeTableRecord
  2
CENTERX2
 70
     0
  3
Center (2x) ________  __  ________  __  _____
 72
    65
 73
     4
 40
20.32
 49
12.7
 74
     0
 49
-2.54
 74
     0
 49
2.54
 74
     0
 49
-2.54
 74
     0
  0
LTYPE
  5
72
330
5
100
AcDbSymbolTableRecord
100
AcDbLinetypeTableRecord
  2
DOT2
 70
     0
  3
Dot (.5x) ........................................
 72
    65
 73
     2
 40
0.635
 49
0.0
 74
     0
 49
-0.635
 74
     0
  0
ENDTAB
  0
TABLE
  2
LAYER
  5
2
330
0
100
AcDbSymbolTable
 70
    11
  0
LAYER
  5
10
330
2
100
AcDbSymbolTableRecord
100
AcDbLayerTableRecord
  2
0
 70
     0
 62
     7
  6
Continuous
370
    -3
390
F
  0
LAYER
  5
73
330
2
100
AcDbSymbolTableRecord
100
AcDbLayerTableRecord
  2
DEFAULT_LAYER
 70
     0
 62
     7
  6
Continuous
370
    -3
390
F
  0
LAYER
  5
74
330
2
100
AcDbSymbolTableRecord
100
AcDbLayerTableRecord
  2
新図枠仮線
 70
     0
 62
     7
  6
Continuous
370
    -3
390
F
  0
LAYER
  5
75
330
2
100
AcDbSymbolTableRecord
100
AcDbLayerTableRecord
  2
LOGO
 70
     0
 62
     7
  6
Continuous
370
    25
390
F
  0
LAYER
  5
76
330
2
100
AcDbSymbolTableRecord
100
AcDbLayerTableRecord
  2
DRAW1
 70
     0
 62
     7
  6
Continuous
370
    -3
390
F
  0
LAYER
  5
77
330
2
100
AcDbSymbolTableRecord
100
AcDbLayerTableRecord
  2
PIC06
 70
     0
 62
     7
  6
Continuous
370
    -3
390
F
  0
LAYER
  5
78
330
2
100
AcDbSymbolTableRecord
100
AcDbLayerTableRecord
  2
PIC02
 70
     0
 62
     7
  6
Continuous
370
    -3
390
F
  0
LAYER
  5
79
330
2
100
AcDbSymbolTableRecord
100
AcDbLayerTableRecord
  2
PIC04
 70
     0
 62
     7
  6
Continuous
370
    -3
390
F
  0
LAYER
  5
7A
330
2
100
AcDbSymbolTableRecord
100
AcDbLayerTableRecord
  2
PIC05
 70
     0
 62
     7
  6
Continuous
370
    -3
390
F
  0
LAYER
  5
7B
330
2
100
AcDbSymbolTableRecord
100
AcDbLayerTableRecord
  2
PIC01
 70
     0
 62
     7
  6
Continuous
370
    -3
390
F
  0
LAYER
  5
7C
330
2
100
AcDbSymbolTableRecord
100
AcDbLayerTableRecord
  2
PIC03
 70
     0
 62
     7
  6
Continuous
370
    -3
390
F
  0
ENDTAB
  0
TABLE
  2
STYLE
  5
3
330
0
100
AcDbSymbolTable
 70
     2
  0
STYLE
  5
11
330
3
100
AcDbSymbolTableRecord
100
AcDbTextStyleTableRecord
  2
Standard
 70
     0
 40
0.0
 41
1.0
 50
0.0
 71
     0
 42
2.8222222222
  3
txt
  4
bigfont
  0
STYLE
  5
125
330
3
100
AcDbSymbolTableRecord
100
AcDbTextStyleTableRecord
  2
SLDTEXTSTYLE0
 70
     0
 40
0.0
 41
0.7
 50
0.0
 71
     0
 42
2.8222222222
  3
TXT
  4
bigfont
  0
ENDTAB
  0
TABLE
  2
VIEW
  5
6
330
0
100
AcDbSymbolTable
 70
     0
  0
ENDTAB
  0
TABLE
  2
UCS
  5
7
330
0
100
AcDbSymbolTable
 70
     0
  0
ENDTAB
  0
TABLE
  2
APPID
  5
9
330
0
100
AcDbSymbolTable
 70
     1
  0
APPID
  5
12
330
9
100
AcDbSymbolTableRecord
100
AcDbRegAppTableRecord
  2
ACAD
 70
     0
  0
ENDTAB
  0
TABLE
  2
DIMSTYLE
  5
A
330
0
100
AcDbSymbolTable
 70
     5
100
AcDbDimStyleTable
  0
DIMSTYLE
105
27
330
A
100
AcDbSymbolTableRecord
100
AcDbDimStyleTableRecord
  2
ISO-25
 70
     0
 41
2.5
 42
0.625
 43
3.75
 44
1.25
 73
     0
 74
     0
 77
     1
 78
     8
140
2.5
141
2.5
143
0.0393700787
147
0.625
171
     3
172
     1
178
     0
271
     2
272
     2
274
     3
278
    44
283
     0
284
     8
340
11
  0
DIMSTYLE
105
1C7
102
{ACAD_REACTORS
330
1C6
330
1D7
330
1E1
330
1EB
330
238
330
25A
102
}
330
A
100
AcDbSymbolTableRecord
100
AcDbDimStyleTableRecord
  2
SLDDIMSTYLE0
 70
     0
 41
2.5
 44
0.0
 45
0.000000001
 73
     0
 74
     0
 77
     3
 78
    12
 79
     3
140
2.4253472222
147
0.6063368056
173
     1
178
     0
271
     1
272
     1
276
     2
284
    12
340
125
341
1C8
343
1C8
344
1C8
  0
DIMSTYLE
105
243
102
{ACAD_REACTORS
330
242
102
}
330
A
100
AcDbSymbolTableRecord
100
AcDbDimStyleTableRecord
  2
SLDDIMSTYLE1
 70
     0
 41
2.5
 44
0.0
 45
0.000000001
 47
4.0
 48
4.0
 71
     1
 73
     0
 74
     0
 77
     3
 78
    12
 79
     3
140
2.4253472222
147
0.6063368056
173
     1
178
     0
271
     1
272
     0
276
     2
284
     8
340
125
341
1C8
343
1C8
344
1C8
  0
DIMSTYLE
105
250
102
{ACAD_REACTORS
330
24F
102
}
330
A
100
AcDbSymbolTableRecord
100
AcDbDimStyleTableRecord
  2
SLDDIMSTYLE2
 70
     0
 41
2.5
 44
0.0
 45
0.000000001
 47
4.0
 48
4.0
 71
     1
 73
     0
 74
     0
 77
     3
 78
    12
 79
     3
140
2.4253472222
147
0.6063368056
173
     1
178
     0
271
     0
272
     0
276
     2
284
     8
340
125
341
1C8
343
1C8
344
1C8
  0
DIMSTYLE
105
268
330
A
100
AcDbSymbolTableRecord
100
AcDbDimStyleTableRecord
  2
SLDDIMSTYLE3
 70
     0
 41
2.5
 44
0.0
 45
0.000000001
146
2.5
147
0.0
173
     1
178
     0
271
     0
272
     0
276
     2
340
11
341
1C8
343
1C8
344
1C8
  0
ENDTAB
  0
TABLE
  2
BLOCK_RECORD
  5
1
330
0
100
AcDbSymbolTable
 70
    17
  0
BLOCK_RECORD
  5
1F
330
1
100
AcDbSymbolTableRecord
100
AcDbBlockTableRecord
  2
*Model_Space
340
22
  0
BLOCK_RECORD
  5
1B
330
1
100
AcDbSymbolTableRecord
100
AcDbBlockTableRecord
  2
*Paper_Space
340
1E
  0
BLOCK_RECORD
  5
23
330
1
100
AcDbSymbolTableRecord
100
AcDbBlockTableRecord
  2
*Paper_Space0
340
26
  0
BLOCK_RECORD
  5
7D
330
1
100
AcDbSymbolTableRecord
100
AcDbBlockTableRecord
  2
ﾌﾞﾛｯｸ7
340
0
102
{BLKREFS
331
120
102
}
  0
BLOCK_RECORD
  5
88
330
1
100
AcDbSymbolTableRecord
100
AcDbBlockTableRecord
  2
ﾌﾞﾛｯｸ5
340
0
102
{BLKREFS
331
121
102
}
  0
BLOCK_RECORD
  5
122
330
1
100
AcDbSymbolTableRecord
100
AcDbBlockTableRecord
  2
SW_NOTE_0
340
0
102
{BLKREFS
331
128
102
}
  0
BLOCK_RECORD
  5
132
330
1
100
AcDbSymbolTableRecord
100
AcDbBlockTableRecord
  2
SW_NOTE_1
340
0
102
{BLKREFS
331
13E
102
}
  0
BLOCK_RECORD
  5
1C8
330
1
100
AcDbSymbolTableRecord
100
AcDbBlockTableRecord
  2
_OPEN30
340
0
102
{BLKREFS
331
1D1
331
1D2
331
1DB
331
1DC
331
1E5
331
1E6
331
1EF
331
1F0
331
23C
331
23D
331
247
331
248
331
254
331
255
331
25E
331
25F
102
}
  0
BLOCK_RECORD
  5
1CE
330
1
100
AcDbSymbolTableRecord
100
AcDbBlockTableRecord
  2
_D
340
0
  0
BLOCK_RECORD
  5
1D8
330
1
100
AcDbSymbolTableRecord
100
AcDbBlockTableRecord
  2
_D_1
340
0
  0
BLOCK_RECORD
  5
1E2
330
1
100
AcDbSymbolTableRecord
100
AcDbBlockTableRecord
  2
_D_2
340
0
  0
BLOCK_RECORD
  5
1EC
330
1
100
AcDbSymbolTableRecord
100
AcDbBlockTableRecord
  2
_D_3
340
0
  0
BLOCK_RECORD
  5
239
330
1
100
AcDbSymbolTableRecord
100
AcDbBlockTableRecord
  2
_D_4
340
0
  0
BLOCK_RECORD
  5
244
330
1
100
AcDbSymbolTableRecord
100
AcDbBlockTableRecord
  2
_D_5
340
0
  0
BLOCK_RECORD
  5
251
330
1
100
AcDbSymbolTableRecord
100
AcDbBlockTableRecord
  2
_D_6
340
0
  0
BLOCK_RECORD
  5
25B
330
1
100
AcDbSymbolTableRecord
100
AcDbBlockTableRecord
  2
_D_7
340
0
  0
BLOCK_RECORD
  5
262
330
1
100
AcDbSymbolTableRecord
100
AcDbBlockTableRecord
  2
SW_NOTE_2
340
0
102
{BLKREFS
331
267
102
}
  0
BLOCK_RECORD
  5
26C
330
1
100
AcDbSymbolTableRecord
100
AcDbBlockTableRecord
  2
SW_NOTE_3
340
0
102
{BLKREFS
331
271
102
}
  0
BLOCK_RECORD
  5
339
330
1
100
AcDbSymbolTableRecord
100
AcDbBlockTableRecord
  2
SW_NOTE_4
340
0
102
{BLKREFS
331
33E
102
}
  0
ENDTAB
  0
ENDSEC
  0
SECTION
  2
BLOCKS
  0
BLOCK
  5
20
330
1F
100
AcDbEntity
  8
0
100
AcDbBlockBegin
  2
*Model_Space
 70
     0
 10
0.0
 20
0.0
 30
0.0
  3
*Model_Space
  1

  0
ENDBLK
  5
21
330
1F
100
AcDbEntity
  8
0
100
AcDbBlockEnd
  0
BLOCK
  5
1C
330
1B
100
AcDbEntity
 67
     1
  8
0
100
AcDbBlockBegin
  2
*Paper_Space
 70
     0
 10
0.0
 20
0.0
 30
0.0
  3
*Paper_Space
  1

  0
ENDBLK
  5
1D
330
1B
100
AcDbEntity
 67
     1
  8
0
100
AcDbBlockEnd
  0
BLOCK
  5
24
330
23
100
AcDbEntity
  8
0
100
AcDbBlockBegin
  2
*Paper_Space0
 70
     0
 10
0.0
 20
0.0
 30
0.0
  3
*Paper_Space0
  1

  0
ENDBLK
  5
25
330
23
100
AcDbEntity
  8
0
100
AcDbBlockEnd
  0
BLOCK
  5
7E
330
7D
100
AcDbEntity
  8
0
100
AcDbBlockBegin
  2
ﾌﾞﾛｯｸ7
 70
     0
 10
0.0
 20
0.0
 30
0.0
  3
ﾌﾞﾛｯｸ7
  1

  0
CIRCLE
  5
80
330
7D
100
AcDbEntity
  8
0
  6
Continuous
 62
     7
370
    25
100
AcDbCircle
 10
2.6
 20
2.6
 30
0.0
 40
0.7499999999999729
  0
CIRCLE
  5
81
330
7D
100
AcDbEntity
  8
0
  6
Continuous
 62
     7
370
    25
100
AcDbCircle
 10
2.6
 20
2.6
 30
0.0
 40
1.600000000000101
  0
LINE
  5
82
330
7D
100
AcDbEntity
  8
0
  6
CENTER
 62
     7
370
    25
100
AcDbLine
 10
2.6
 20
5.2
 30
0.0
 11
2.6
 21
0.0
 31
0.0
  0
LINE
  5
83
330
7D
100
AcDbEntity
  8
0
  6
Continuous
 62
     7
370
    25
100
AcDbLine
 10
6.7
 20
3.35
 30
0.0
 11
6.7
 21
1.85
 31
0.0
  0
LINE
  5
84
330
7D
100
AcDbEntity
  8
0
  6
Continuous
 62
     7
370
    25
100
AcDbLine
 10
10.7
 20
4.2
 30
0.0
 11
6.7
 21
3.35
 31
0.0
  0
LINE
  5
85
330
7D
100
AcDbEntity
  8
0
  6
CENTER
 62
     7
370
    25
100
AcDbLine
 10
0.0
 20
2.6
 30
0.0
 11
11.7
 21
2.6
 31
0.0
  0
LINE
  5
86
330
7D
100
AcDbEntity
  8
0
  6
Continuous
 62
     7
370
    25
100
AcDbLine
 10
10.7
 20
1.0
 30
0.0
 11
10.7
 21
4.2
 31
0.0
  0
LINE
  5
87
330
7D
100
AcDbEntity
  8
0
  6
Continuous
 62
     7
370
    25
100
AcDbLine
 10
6.7
 20
1.85
 30
0.0
 11
10.7
 21
1.0
 31
0.0
  0
ENDBLK
  5
7F
330
7D
100
AcDbEntity
  8
0
100
AcDbBlockEnd
  0
BLOCK
  5
89
330
88
100
AcDbEntity
  8
0
100
AcDbBlockBegin
  2
ﾌﾞﾛｯｸ5
 70
     0
 10
0.0
 20
0.0
 30
0.0
  3
ﾌﾞﾛｯｸ5
  1

  0
LINE
  5
8B
330
88
100
AcDbEntity
  8
0
  6
Continuous
 62
     7
370
    25
100
AcDbLine
 10
4.6054066828
 20
0.2149741001
 30
0.0
 11
4.6054066828
 21
0.8722987523
 31
0.0
  0
LINE
  5
8C
330
88
100
AcDbEntity
  8
0
  6
Continuous
 62
     7
370
    25
100
AcDbLine
 10
4.6054066828
 20
0.8722987523
 30
0.0
 11
3.8605765476
 21
0.8722987523
 31
0.0
  0
LINE
  5
8D
330
88
100
AcDbEntity
  8
0
  6
Continuous
 62
     7
370
    25
100
AcDbLine
 10
3.5098655958
 20
1.2230097041
 30
0.0
 11
3.5098655958
 21
4.8231368611
 31
0.0
  0
LINE
  5
8E
330
88
100
AcDbEntity
  8
0
  6
Continuous
 62
     7
370
    25
100
AcDbLine
 10
3.5098655958
 20
4.8231368611
 30
0.0
 11
4.107245547
 21
4.8231368611
 31
0.0
  0
LINE
  5
8F
330
88
100
AcDbEntity
  8
0
  6
Continuous
 62
     7
370
    25
100
AcDbLine
 10
5.0022819446
 20
3.7234616568
 30
0.0
 11
5.0022819446
 21
3.5071095176
 31
0.0
  0
LINE
  5
90
330
88
100
AcDbEntity
  8
0
  6
Continuous
 62
     7
370
    25
100
AcDbLine
 10
5.0022819446
 20
3.5071095176
 30
0.0
 11
5.7016367894
 21
3.5071095176
 31
0.0
  0
LINE
  5
91
330
88
100
AcDbEntity
  8
0
  6
Continuous
 62
     7
370
    25
100
AcDbLine
 10
5.7016367894
 20
3.5071095176
 30
0.0
 11
5.7016367894
 21
5.4783944547
 31
0.0
  0
LINE
  5
92
330
88
100
AcDbEntity
  8
0
  6
Continuous
 62
     7
370
    25
100
AcDbLine
 10
5.7016367894
 20
5.4783944547
 30
0.0
 11
0.0
 21
5.4783944547
 31
0.0
  0
LINE
  5
93
330
88
100
AcDbEntity
  8
0
  6
Continuous
 62
     7
370
    25
100
AcDbLine
 10
0.0
 20
5.4783944547
 30
0.0
 11
0.0
 21
3.5071095176
 31
0.0
  0
LINE
  5
94
330
88
100
AcDbEntity
  8
0
  6
Continuous
 62
     7
370
    25
100
AcDbLine
 10
0.0
 20
3.5071095176
 30
0.0
 11
0.700732884
 21
3.5071095176
 31
0.0
  0
LINE
  5
95
330
88
100
AcDbEntity
  8
0
  6
Continuous
 62
     7
370
    25
100
AcDbLine
 10
0.700732884
 20
3.5071095176
 30
0.0
 11
0.700732884
 21
3.7234616568
 31
0.0
  0
LINE
  5
96
330
88
100
AcDbEntity
  8
0
  6
Continuous
 62
     7
370
    25
100
AcDbLine
 10
1.5937022228
 20
4.8231368611
 30
0.0
 11
2.1917711936
 21
4.8231368611
 31
0.0
  0
LINE
  5
97
330
88
100
AcDbEntity
  8
0
  6
Continuous
 62
     7
370
    25
100
AcDbLine
 10
2.1917711936
 20
4.8231368611
 30
0.0
 11
2.1917711936
 21
1.2230097041
 31
0.0
  0
LINE
  5
98
330
88
100
AcDbEntity
  8
0
  6
Continuous
 62
     7
370
    25
100
AcDbLine
 10
1.8410602419
 20
0.8722987523
 30
0.0
 11
1.0962301066
 21
0.8722987523
 31
0.0
  0
LINE
  5
99
330
88
100
AcDbEntity
  8
0
  6
Continuous
 62
     7
370
    25
100
AcDbLine
 10
1.0962301066
 20
0.8722987523
 30
0.0
 11
1.0962301066
 21
0.2149741001
 31
0.0
  0
LINE
  5
9A
330
88
100
AcDbEntity
  8
0
  6
Continuous
 62
     7
370
    25
100
AcDbLine
 10
1.0962301066
 20
0.2149741001
 30
0.0
 11
4.6054066828
 21
0.2149741001
 31
0.0
  0
LINE
  5
9B
330
88
100
AcDbEntity
  8
0
  6
Continuous
 62
     7
370
    25
100
AcDbLine
 10
10.791424217
 20
2.9166197619
 30
0.0
 11
10.791424217
 21
2.7808829102
 31
0.0
  0
LINE
  5
9C
330
88
100
AcDbEntity
  8
0
  6
Continuous
 62
     7
370
    25
100
AcDbLine
 10
7.6357146707
 20
2.7808829102
 30
0.0
 11
7.6357146707
 21
2.9166197619
 31
0.0
  0
LINE
  5
9D
330
88
100
AcDbEntity
  8
0
  6
Continuous
 62
     7
370
    25
100
AcDbLine
 10
12.2817735071
 20
2.851851924
 30
0.0
 11
12.2817735071
 21
3.0020581863
 31
0.0
  0
LINE
  5
9E
330
88
100
AcDbEntity
  8
0
  6
Continuous
 62
     7
370
    25
100
AcDbLine
 10
6.1405422438
 20
3.0020581863
 30
0.0
 11
6.1405422438
 21
2.851851924
 31
0.0
  0
LINE
  5
9F
330
88
100
AcDbEntity
  8
0
  6
Continuous
 62
     7
370
    25
100
AcDbLine
 10
6.1405422438
 20
2.851851924
 30
0.0
 11
6.1405422438
 21
2.6947554663
 31
0.0
  0
LINE
  5
A0
330
88
100
AcDbEntity
  8
0
  6
Continuous
 62
     7
370
    25
100
AcDbLine
 10
12.2817735071
 20
2.6947554663
 30
0.0
 11
12.2817735071
 21
2.851851924
 31
0.0
  0
LINE
  5
A1
330
88
100
AcDbEntity
  8
0
  6
Continuous
 62
     7
370
    25
100
AcDbLine
 10
17.3233295661
 20
0.2149741001
 30
0.0
 11
17.3233295661
 21
0.8722987523
 31
0.0
  0
LINE
  5
A2
330
88
100
AcDbEntity
  8
0
  6
Continuous
 62
     7
370
    25
100
AcDbLine
 10
17.3233295661
 20
0.8722987523
 30
0.0
 11
16.5784994309
 21
0.8722987523
 31
0.0
  0
LINE
  5
A3
330
88
100
AcDbEntity
  8
0
  6
Continuous
 62
     7
370
    25
100
AcDbLine
 10
16.2291665182
 20
1.2230097041
 30
0.0
 11
16.2291665182
 21
4.8231368611
 31
0.0
  0
LINE
  5
A4
330
88
100
AcDbEntity
  8
0
  6
Continuous
 62
     7
370
    25
100
AcDbLine
 10
16.2291665182
 20
4.8231368611
 30
0.0
 11
16.8244794108
 21
4.8231368611
 31
0.0
  0
LINE
  5
A5
330
88
100
AcDbEntity
  8
0
  6
Continuous
 62
     7
370
    25
100
AcDbLine
 10
17.7195158083
 20
3.7234616568
 30
0.0
 11
17.7195158083
 21
3.5071095176
 31
0.0
  0
LINE
  5
A6
330
88
100
AcDbEntity
  8
0
  6
Continuous
 62
     7
370
    25
100
AcDbLine
 10
17.7195158083
 20
3.5071095176
 30
0.0
 11
18.4195596727
 21
3.5071095176
 31
0.0
  0
LINE
  5
A7
330
88
100
AcDbEntity
  8
0
  6
Continuous
 62
     7
370
    25
100
AcDbLine
 10
18.4195596727
 20
3.5071095176
 30
0.0
 11
18.4195596727
 21
5.4783944547
 31
0.0
  0
LINE
  5
A8
330
88
100
AcDbEntity
  8
0
  6
Continuous
 62
     7
370
    25
100
AcDbLine
 10
18.4195596727
 20
5.4783944547
 30
0.0
 11
12.7193009224
 21
5.4783944547
 31
0.0
  0
LINE
  5
A9
330
88
100
AcDbEntity
  8
0
  6
Continuous
 62
     7
370
    25
100
AcDbLine
 10
12.7193009224
 20
5.4783944547
 30
0.0
 11
12.7193009224
 21
3.5071095176
 31
0.0
  0
LINE
  5
AA
330
88
100
AcDbEntity
  8
0
  6
Continuous
 62
     7
370
    25
100
AcDbLine
 10
12.7193009224
 20
3.5071095176
 30
0.0
 11
13.4186557673
 21
3.5071095176
 31
0.0
  0
LINE
  5
AB
330
88
100
AcDbEntity
  8
0
  6
Continuous
 62
     7
370
    25
100
AcDbLine
 10
13.4186557673
 20
3.5071095176
 30
0.0
 11
13.4186557673
 21
3.7234616568
 31
0.0
  0
LINE
  5
AC
330
88
100
AcDbEntity
  8
0
  6
Continuous
 62
     7
370
    25
100
AcDbLine
 10
14.3136921648
 20
4.8231368611
 30
0.0
 11
14.911072116
 21
4.8231368611
 31
0.0
  0
LINE
  5
AD
330
88
100
AcDbEntity
  8
0
  6
Continuous
 62
     7
370
    25
100
AcDbLine
 10
14.911072116
 20
4.8231368611
 30
0.0
 11
14.911072116
 21
1.2230097041
 31
0.0
  0
LINE
  5
AE
330
88
100
AcDbEntity
  8
0
  6
Continuous
 62
     7
370
    25
100
AcDbLine
 10
14.5589831251
 20
0.8722987523
 30
0.0
 11
13.8175980876
 21
0.8722987523
 31
0.0
  0
LINE
  5
AF
330
88
100
AcDbEntity
  8
0
  6
Continuous
 62
     7
370
    25
100
AcDbLine
 10
13.8175980876
 20
0.8722987523
 30
0.0
 11
13.8175980876
 21
0.2149741001
 31
0.0
  0
LINE
  5
B0
330
88
100
AcDbEntity
  8
0
  6
Continuous
 62
     7
370
    25
100
AcDbLine
 10
13.8175980876
 20
0.2149741001
 30
0.0
 11
17.3233295661
 21
0.2149741001
 31
0.0
  0
LINE
  5
B1
330
88
100
AcDbEntity
  8
0
  6
Continuous
 62
     7
370
    25
100
AcDbLine
 10
23.5107251394
 20
2.9166197619
 30
0.0
 11
23.5107251394
 21
2.7808829102
 31
0.0
  0
LINE
  5
B2
330
88
100
AcDbEntity
  8
0
  6
Continuous
 62
     7
370
    25
100
AcDbLine
 10
20.3550155931
 20
2.7808829102
 30
0.0
 11
20.3550155931
 21
2.9166197619
 31
0.0
  0
LINE
  5
B3
330
88
100
AcDbEntity
  8
0
  6
Continuous
 62
     7
370
    25
100
AcDbLine
 10
24.9996963904
 20
2.851851924
 30
0.0
 11
24.9996963904
 21
3.0020581863
 31
0.0
  0
LINE
  5
B4
330
88
100
AcDbEntity
  8
0
  6
Continuous
 62
     7
370
    25
100
AcDbLine
 10
18.8619102248
 20
3.0020581863
 30
0.0
 11
18.8619102248
 21
2.851851924
 31
0.0
  0
LINE
  5
B5
330
88
100
AcDbEntity
  8
0
  6
Continuous
 62
     7
370
    25
100
AcDbLine
 10
18.8619102248
 20
2.851851924
 30
0.0
 11
18.8619102248
 21
2.6947554663
 31
0.0
  0
LINE
  5
B6
330
88
100
AcDbEntity
  8
0
  6
Continuous
 62
     7
370
    25
100
AcDbLine
 10
24.9996963904
 20
2.6947554663
 30
0.0
 11
24.9996963904
 21
2.851851924
 31
0.0
  0
SPLINE
  5
B7
330
88
100
AcDbEntity
  8
0
  6
Continuous
 62
     8
370
    25
100
AcDbSpline
210
0.0
220
0.0
230
1.0
 70
     8
 71
     3
 72
     8
 73
     4
 74
     0
 42
0.000000001
 43
0.00000001
 40
2.0
 40
2.0
 40
2.0
 40
2.0
 40
3.0
 40
3.0
 40
3.0
 40
3.0
 10
3.860576547571881
 20
0.8722987523158976
 30
0.0
 10
3.66765107312611
 20
0.8722987523158976
 30
0.0
 10
3.509865595811401
 20
1.030084229630496
 30
0.0
 10
3.509865595811401
 20
1.223009704076405
 30
0.0
  0
SPLINE
  5
B8
330
88
100
AcDbEntity
  8
0
  6
Continuous
 62
     8
370
    25
100
AcDbSpline
210
0.0
220
0.0
230
1.0
 70
     8
 71
     3
 72
     8
 73
     4
 74
     0
 42
0.000000001
 43
0.00000001
 40
5.0
 40
5.0
 40
5.0
 40
5.0
 40
6.0
 40
6.0
 40
6.0
 40
6.0
 10
4.107245547042004
 20
4.823136861146299
 30
0.0
 10
4.421438462568094
 20
4.823136861146299
 30
0.0
 10
5.002281944560371
 20
4.561309431541205
 30
0.0
 10
5.002281944560371
 20
3.723461656804983
 30
0.0
  0
SPLINE
  5
B9
330
88
100
AcDbEntity
  8
0
  6
Continuous
 62
     8
370
    25
100
AcDbSpline
210
0.0
220
0.0
230
1.0
 70
     8
 71
     3
 72
     8
 73
     4
 74
     0
 42
0.000000001
 43
0.00000001
 40
13.0
 40
13.0
 40
13.0
 40
13.0
 40
14.0
 40
14.0
 40
14.0
 40
14.0
 10
0.7007328839694904
 20
3.723461656804983
 30
0.0
 10
0.7007328839694904
 20
4.561309431541205
 30
0.0
 10
1.281576365961767
 20
4.823136861146299
 30
0.0
 10
1.593702222833115
 20
4.823136861146299
 30
0.0
  0
SPLINE
  5
BA
330
88
100
AcDbEntity
  8
0
  6
Continuous
 62
     8
370
    25
100
AcDbSpline
210
0.0
220
0.0
230
1.0
 70
     8
 71
     3
 72
     8
 73
     4
 74
     0
 42
0.000000001
 43
0.00000001
 40
16.0
 40
16.0
 40
16.0
 40
16.0
 40
17.0
 40
17.0
 40
17.0
 40
17.0
 10
2.191771193615299
 20
1.223009704076405
 30
0.0
 10
2.191771193615299
 20
1.030084229630496
 30
0.0
 10
2.03398571630059
 20
0.8722987523158976
 30
0.0
 10
1.841060241854764
 20
0.8722987523158976
 30
0.0
  0
SPLINE
  5
BB
330
88
100
AcDbEntity
  8
0
  6
Continuous
 62
     8
370
    25
100
AcDbSpline
210
0.0
220
0.0
230
1.0
 70
     8
 71
     3
 72
     8
 73
     4
 74
     0
 42
0.000000001
 43
0.00000001
 40
0.0
 40
0.0
 40
0.0
 40
0.0
 40
1.0
 40
1.0
 40
1.0
 40
1.0
 10
7.635714670746252
 20
2.916619761890421
 30
0.0
 10
7.635714670746252
 20
3.691077737880105
 30
0.0
 10
7.827951125640553
 20
4.182348678165498
 30
0.0
 10
8.076687183765364
 20
4.477938065798604
 30
0.0
  0
SPLINE
  5
BC
330
88
100
AcDbEntity
  8
0
  6
Continuous
 62
     8
370
    25
100
AcDbSpline
210
0.0
220
0.0
230
1.0
 70
     8
 71
     3
 72
     8
 73
     4
 74
     0
 42
0.000000001
 43
0.00000001
 40
1.0
 40
1.0
 40
1.0
 40
1.0
 40
2.0
 40
2.0
 40
2.0
 40
2.0
 10
8.076687183765364
 20
4.477938065798604
 30
0.0
 10
8.51421459902657
 20
5.000214885905574
 30
0.0
 10
9.105393374292781
 20
4.998147827250804
 30
0.0
 10
9.213569443892789
 20
4.998147827250804
 30
0.0
  0
SPLINE
  5
BD
330
88
100
AcDbEntity
  8
0
  6
Continuous
 62
     8
370
    25
100
AcDbSpline
210
0.0
220
0.0
230
1.0
 70
     8
 71
     3
 72
     8
 73
     4
 74
     0
 42
0.000000001
 43
0.00000001
 40
2.0
 40
2.0
 40
2.0
 40
2.0
 40
3.0
 40
3.0
 40
3.0
 40
3.0
 10
9.213569443892789
 20
4.998147827250804
 30
0.0
 10
9.332080806766674
 20
4.998147827250804
 30
0.0
 10
9.908790171449356
 20
5.000214885905574
 30
0.0
 10
10.35320778222648
 20
4.477938065798604
 30
0.0
  0
SPLINE
  5
BE
330
88
100
AcDbEntity
  8
0
  6
Continuous
 62
     8
370
    25
100
AcDbSpline
210
0.0
220
0.0
230
1.0
 70
     8
 71
     3
 72
     8
 73
     4
 74
     0
 42
0.000000001
 43
0.00000001
 40
3.0
 40
3.0
 40
3.0
 40
3.0
 40
4.0
 40
4.0
 40
4.0
 40
4.0
 10
10.35320778222648
 20
4.477938065798604
 30
0.0
 10
10.59780972304175
 20
4.182348678165498
 30
0.0
 10
10.79142421703921
 20
3.691077737880105
 30
0.0
 10
10.79142421703921
 20
2.916619761890421
 30
0.0
  0
SPLINE
  5
BF
330
88
100
AcDbEntity
  8
0
  6
Continuous
 62
     8
370
    25
100
AcDbSpline
210
0.0
220
0.0
230
1.0
 70
     8
 71
     3
 72
     8
 73
     4
 74
     0
 42
0.000000001
 43
0.00000001
 40
5.0
 40
5.0
 40
5.0
 40
5.0
 40
6.0
 40
6.0
 40
6.0
 40
6.0
 10
10.79142421703921
 20
2.780882910226684
 30
0.0
 10
10.79142421703921
 20
2.005735914685308
 30
0.0
 10
10.59780972304175
 20
1.517910072157902
 30
0.0
 10
10.35320778222648
 20
1.223009704076405
 30
0.0
  0
SPLINE
  5
C0
330
88
100
AcDbEntity
  8
0
  6
Continuous
 62
     8
370
    25
100
AcDbSpline
210
0.0
220
0.0
230
1.0
 70
     8
 71
     3
 72
     8
 73
     4
 74
     0
 42
0.000000001
 43
0.00000001
 40
6.0
 40
6.0
 40
6.0
 40
6.0
 40
7.0
 40
7.0
 40
7.0
 40
7.0
 10
10.35320778222648
 20
1.223009704076405
 30
0.0
 10
9.908790171449356
 20
0.6952207275567057
 30
0.0
 10
9.327257669905498
 20
0.6993548448661902
 30
0.0
 10
9.213569443892789
 20
0.6993548448661902
 30
0.0
  0
SPLINE
  5
C1
330
88
100
AcDbEntity
  8
0
  6
Continuous
 62
     8
370
    25
100
AcDbSpline
210
0.0
220
0.0
230
1.0
 70
     8
 71
     3
 72
     8
 73
     4
 74
     0
 42
0.000000001
 43
0.00000001
 40
7.0
 40
7.0
 40
7.0
 40
7.0
 40
8.0
 40
8.0
 40
8.0
 40
8.0
 10
9.213569443892789
 20
0.6993548448661902
 30
0.0
 10
9.105393374292781
 20
0.6993548448661902
 30
0.0
 10
8.51421459902657
 20
0.6952207275567057
 30
0.0
 10
8.076687183765364
 20
1.223009704076405
 30
0.0
  0
SPLINE
  5
C2
330
88
100
AcDbEntity
  8
0
  6
Continuous
 62
     8
370
    25
100
AcDbSpline
210
0.0
220
0.0
230
1.0
 70
     8
 71
     3
 72
     8
 73
     4
 74
     0
 42
0.000000001
 43
0.00000001
 40
8.0
 40
8.0
 40
8.0
 40
8.0
 40
9.0
 40
9.0
 40
9.0
 40
9.0
 10
8.076687183765364
 20
1.223009704076405
 30
0.0
 10
7.827951125640553
 20
1.517910072157902
 30
0.0
 10
7.635714670746252
 20
2.005735914685308
 30
0.0
 10
7.635714670746252
 20
2.780882910226684
 30
0.0
  0
SPLINE
  5
C3
330
88
100
AcDbEntity
  8
0
  6
Continuous
 62
     8
370
    25
100
AcDbSpline
210
0.0
220
0.0
230
1.0
 70
     8
 71
     3
 72
     8
 73
     4
 74
     0
 42
0.000000001
 43
0.00000001
 40
1.0
 40
1.0
 40
1.0
 40
1.0
 40
2.0
 40
2.0
 40
2.0
 40
2.0
 10
12.2817735071335
 20
3.002058186287793
 30
0.0
 10
12.2817735071335
 20
3.822680472234302
 30
0.0
 10
11.90487981241239
 20
4.540638844993506
 30
0.0
 10
11.36331044486089
 20
5.000214885905574
 30
0.0
  0
SPLINE
  5
C4
330
88
100
AcDbEntity
  8
0
  6
Continuous
 62
     8
370
    25
100
AcDbSpline
210
0.0
220
0.0
230
1.0
 70
     8
 71
     3
 72
     8
 73
     4
 74
     0
 42
0.000000001
 43
0.00000001
 40
2.0
 40
2.0
 40
2.0
 40
2.0
 40
3.0
 40
3.0
 40
3.0
 40
3.0
 10
11.36331044486089
 20
5.000214885905574
 30
0.0
 10
10.81002774493217
 20
5.46599210278198
 30
0.0
 10
10.04177094490677
 20
5.700258750323401
 30
0.0
 10
9.213569443892789
 20
5.700258750323401
 30
0.0
  0
SPLINE
  5
C5
330
88
100
AcDbEntity
  8
0
  6
Continuous
 62
     8
370
    25
100
AcDbSpline
210
0.0
220
0.0
230
1.0
 70
     8
 71
     3
 72
     8
 73
     4
 74
     0
 42
0.000000001
 43
0.00000001
 40
3.0
 40
3.0
 40
3.0
 40
3.0
 40
4.0
 40
4.0
 40
4.0
 40
4.0
 10
9.213569443892789
 20
5.700258750323401
 30
0.0
 10
8.383300884223955
 20
5.700258750323401
 30
0.0
 10
7.61297702554381
 20
5.46599210278198
 30
0.0
 10
7.065895501579488
 20
5.000214885905574
 30
0.0
  0
SPLINE
  5
C6
330
88
100
AcDbEntity
  8
0
  6
Continuous
 62
     8
370
    25
100
AcDbSpline
210
0.0
220
0.0
230
1.0
 70
     8
 71
     3
 72
     8
 73
     4
 74
     0
 42
0.000000001
 43
0.00000001
 40
4.0
 40
4.0
 40
4.0
 40
4.0
 40
5.0
 40
5.0
 40
5.0
 40
5.0
 10
7.065895501579488
 20
5.000214885905574
 30
0.0
 10
6.517435938512007
 20
4.540638844993506
 30
0.0
 10
6.140542243790903
 20
3.822680472234302
 30
0.0
 10
6.140542243790903
 20
3.002058186287793
 30
0.0
  0
SPLINE
  5
C7
330
88
100
AcDbEntity
  8
0
  6
Continuous
 62
     8
370
    25
100
AcDbSpline
210
0.0
220
0.0
230
1.0
 70
     8
 71
     3
 72
     8
 73
     4
 74
     0
 42
0.000000001
 43
0.00000001
 40
7.0
 40
7.0
 40
7.0
 40
7.0
 40
8.0
 40
8.0
 40
8.0
 40
8.0
 10
6.140542243790903
 20
2.694755466277593
 30
0.0
 10
6.140542243790903
 20
1.876889258537517
 30
0.0
 10
6.517435938512007
 20
1.156863827123517
 30
0.0
 10
7.065895501579488
 20
0.6952207275567057
 30
0.0
  0
SPLINE
  5
C8
330
88
100
AcDbEntity
  8
0
  6
Continuous
 62
     8
370
    25
100
AcDbSpline
210
0.0
220
0.0
230
1.0
 70
     8
 71
     3
 72
     8
 73
     4
 74
     0
 42
0.000000001
 43
0.00000001
 40
8.0
 40
8.0
 40
8.0
 40
8.0
 40
9.0
 40
9.0
 40
9.0
 40
9.0
 10
7.065895501579488
 20
0.6952207275567057
 30
0.0
 10
7.61297702554381
 20
0.2349556670930009
 30
0.0
 10
8.383300884223955
 20
0.0
 30
0.0
 10
9.213569443892789
 20
0.0
 30
0.0
  0
SPLINE
  5
C9
330
88
100
AcDbEntity
  8
0
  6
Continuous
 62
     8
370
    25
100
AcDbSpline
210
0.0
220
0.0
230
1.0
 70
     8
 71
     3
 72
     8
 73
     4
 74
     0
 42
0.000000001
 43
0.00000001
 40
9.0
 40
9.0
 40
9.0
 40
9.0
 40
10.0
 40
10.0
 40
10.0
 40
10.0
 10
9.213569443892789
 20
0.0
 30
0.0
 10
10.04177094490677
 20
0.0
 30
0.0
 10
10.81002774493217
 20
0.2349556670930009
 30
0.0
 10
11.36331044486089
 20
0.6952207275567057
 30
0.0
  0
SPLINE
  5
CA
330
88
100
AcDbEntity
  8
0
  6
Continuous
 62
     8
370
    25
100
AcDbSpline
210
0.0
220
0.0
230
1.0
 70
     8
 71
     3
 72
     8
 73
     4
 74
     0
 42
0.000000001
 43
0.00000001
 40
10.0
 40
10.0
 40
10.0
 40
10.0
 40
11.0
 40
11.0
 40
11.0
 40
11.0
 10
11.36331044486089
 20
0.6952207275567057
 30
0.0
 10
11.90487981241239
 20
1.156863827123517
 30
0.0
 10
12.2817735071335
 20
1.876889258537517
 30
0.0
 10
12.2817735071335
 20
2.694755466277593
 30
0.0
  0
SPLINE
  5
CB
330
88
100
AcDbEntity
  8
0
  6
Continuous
 62
     8
370
    25
100
AcDbSpline
210
0.0
220
0.0
230
1.0
 70
     8
 71
     3
 72
     8
 73
     4
 74
     0
 42
0.000000001
 43
0.00000001
 40
2.0
 40
2.0
 40
2.0
 40
2.0
 40
3.0
 40
3.0
 40
3.0
 40
3.0
 10
16.57849943086326
 20
0.8722987523158976
 30
0.0
 10
16.38626297596896
 20
0.8722987523158976
 30
0.0
 10
16.229166518206
 20
1.030084229630496
 30
0.0
 10
16.229166518206
 20
1.223009704076405
 30
0.0
  0
SPLINE
  5
CC
330
88
100
AcDbEntity
  8
0
  6
Continuous
 62
     8
370
    25
100
AcDbSpline
210
0.0
220
0.0
230
1.0
 70
     8
 71
     3
 72
     8
 73
     4
 74
     0
 42
0.000000001
 43
0.00000001
 40
5.0
 40
5.0
 40
5.0
 40
5.0
 40
6.0
 40
6.0
 40
6.0
 40
6.0
 10
16.8244794107818
 20
4.823136861146299
 30
0.0
 10
17.14142840451422
 20
4.823136861146299
 30
0.0
 10
17.71951580830017
 20
4.561309431541205
 30
0.0
 10
17.71951580830017
 20
3.723461656804983
 30
0.0
  0
SPLINE
  5
CD
330
88
100
AcDbEntity
  8
0
  6
Continuous
 62
     8
370
    25
100
AcDbSpline
210
0.0
220
0.0
230
1.0
 70
     8
 71
     3
 72
     8
 73
     4
 74
     0
 42
0.000000001
 43
0.00000001
 40
13.0
 40
13.0
 40
13.0
 40
13.0
 40
14.0
 40
14.0
 40
14.0
 40
14.0
 10
13.41865576726081
 20
3.723461656804983
 30
0.0
 10
13.41865576726081
 20
4.561309431541205
 30
0.0
 10
14.00087728835625
 20
4.823136861146299
 30
0.0
 10
14.31369216477929
 20
4.823136861146299
 30
0.0
  0
SPLINE
  5
CE
330
88
100
AcDbEntity
  8
0
  6
Continuous
 62
     8
370
    25
100
AcDbSpline
210
0.0
220
0.0
230
1.0
 70
     8
 71
     3
 72
     8
 73
     4
 74
     0
 42
0.000000001
 43
0.00000001
 40
16.0
 40
16.0
 40
16.0
 40
16.0
 40
17.0
 40
17.0
 40
17.0
 40
17.0
 10
14.91107211600978
 20
1.223009704076405
 30
0.0
 10
14.91107211600978
 20
1.030084229630496
 30
0.0
 10
14.7546646777984
 20
0.8722987523158976
 30
0.0
 10
14.55898312514609
 20
0.8722987523158976
 30
0.0
  0
SPLINE
  5
CF
330
88
100
AcDbEntity
  8
0
  6
Continuous
 62
     8
370
    25
100
AcDbSpline
210
0.0
220
0.0
230
1.0
 70
     8
 71
     3
 72
     8
 73
     4
 74
     0
 42
0.000000001
 43
0.00000001
 40
0.0
 40
0.0
 40
0.0
 40
0.0
 40
1.0
 40
1.0
 40
1.0
 40
1.0
 10
20.3550155931409
 20
2.916619761890421
 30
0.0
 10
20.3550155931409
 20
3.691077737880105
 30
0.0
 10
20.5472520480352
 20
4.182348678165498
 30
0.0
 10
20.79667712571159
 20
4.477938065798604
 30
0.0
  0
SPLINE
  5
D0
330
88
100
AcDbEntity
  8
0
  6
Continuous
 62
     8
370
    25
100
AcDbSpline
210
0.0
220
0.0
230
1.0
 70
     8
 71
     3
 72
     8
 73
     4
 74
     0
 42
0.000000001
 43
0.00000001
 40
1.0
 40
1.0
 40
1.0
 40
1.0
 40
2.0
 40
2.0
 40
2.0
 40
2.0
 10
20.79667712571159
 20
4.477938065798604
 30
0.0
 10
21.23558258007591
 20
5.000214885905574
 30
0.0
 10
21.82676135534206
 20
4.998147827250804
 30
0.0
 10
21.93355938583891
 20
4.998147827250804
 30
0.0
  0
SPLINE
  5
D1
330
88
100
AcDbEntity
  8
0
  6
Continuous
 62
     8
370
    25
100
AcDbSpline
210
0.0
220
0.0
230
1.0
 70
     8
 71
     3
 72
     8
 73
     4
 74
     0
 42
0.000000001
 43
0.00000001
 40
2.0
 40
2.0
 40
2.0
 40
2.0
 40
3.0
 40
3.0
 40
3.0
 40
3.0
 10
21.93355938583891
 20
4.998147827250804
 30
0.0
 10
22.05138172916116
 20
4.998147827250804
 30
0.0
 10
22.62878011339559
 20
5.000214885905574
 30
0.0
 10
23.0718196850695
 20
4.477938065798604
 30
0.0
  0
SPLINE
  5
D2
330
88
100
AcDbEntity
  8
0
  6
Continuous
 62
     8
370
    25
100
AcDbSpline
210
0.0
220
0.0
230
1.0
 70
     8
 71
     3
 72
     8
 73
     4
 74
     0
 42
0.000000001
 43
0.00000001
 40
3.0
 40
3.0
 40
3.0
 40
3.0
 40
4.0
 40
4.0
 40
4.0
 40
4.0
 10
23.0718196850695
 20
4.477938065798604
 30
0.0
 10
23.31779966498787
 20
4.182348678165498
 30
0.0
 10
23.51072513943381
 20
3.691077737880105
 30
0.0
 10
23.51072513943381
 20
2.916619761890421
 30
0.0
  0
SPLINE
  5
D3
330
88
100
AcDbEntity
  8
0
  6
Continuous
 62
     8
370
    25
100
AcDbSpline
210
0.0
220
0.0
230
1.0
 70
     8
 71
     3
 72
     8
 73
     4
 74
     0
 42
0.000000001
 43
0.00000001
 40
5.0
 40
5.0
 40
5.0
 40
5.0
 40
6.0
 40
6.0
 40
6.0
 40
6.0
 10
23.51072513943381
 20
2.780882910226684
 30
0.0
 10
23.51072513943381
 20
2.005735914685308
 30
0.0
 10
23.31779966498787
 20
1.517910072157902
 30
0.0
 10
23.0718196850695
 20
1.223009704076405
 30
0.0
  0
SPLINE
  5
D4
330
88
100
AcDbEntity
  8
0
  6
Continuous
 62
     8
370
    25
100
AcDbSpline
210
0.0
220
0.0
230
1.0
 70
     8
 71
     3
 72
     8
 73
     4
 74
     0
 42
0.000000001
 43
0.00000001
 40
6.0
 40
6.0
 40
6.0
 40
6.0
 40
7.0
 40
7.0
 40
7.0
 40
7.0
 10
23.0718196850695
 20
1.223009704076405
 30
0.0
 10
22.62878011339559
 20
0.6952207275567057
 30
0.0
 10
22.04655859230009
 20
0.6993548448661902
 30
0.0
 10
21.93355938583891
 20
0.6993548448661902
 30
0.0
  0
SPLINE
  5
D5
330
88
100
AcDbEntity
  8
0
  6
Continuous
 62
     8
370
    25
100
AcDbSpline
210
0.0
220
0.0
230
1.0
 70
     8
 71
     3
 72
     8
 73
     4
 74
     0
 42
0.000000001
 43
0.00000001
 40
7.0
 40
7.0
 40
7.0
 40
7.0
 40
8.0
 40
8.0
 40
8.0
 40
8.0
 10
21.93355938583891
 20
0.6993548448661902
 30
0.0
 10
21.82676135534206
 20
0.6993548448661902
 30
0.0
 10
21.23558258007591
 20
0.6952207275567057
 30
0.0
 10
20.79667712571159
 20
1.223009704076405
 30
0.0
  0
SPLINE
  5
D6
330
88
100
AcDbEntity
  8
0
  6
Continuous
 62
     8
370
    25
100
AcDbSpline
210
0.0
220
0.0
230
1.0
 70
     8
 71
     3
 72
     8
 73
     4
 74
     0
 42
0.000000001
 43
0.00000001
 40
8.0
 40
8.0
 40
8.0
 40
8.0
 40
9.0
 40
9.0
 40
9.0
 40
9.0
 10
20.79667712571159
 20
1.223009704076405
 30
0.0
 10
20.5472520480352
 20
1.517910072157902
 30
0.0
 10
20.3550155931409
 20
2.005735914685308
 30
0.0
 10
20.3550155931409
 20
2.780882910226684
 30
0.0
  0
SPLINE
  5
D7
330
88
100
AcDbEntity
  8
0
  6
Continuous
 62
     8
370
    25
100
AcDbSpline
210
0.0
220
0.0
230
1.0
 70
     8
 71
     3
 72
     8
 73
     4
 74
     0
 42
0.000000001
 43
0.00000001
 40
1.0
 40
1.0
 40
1.0
 40
1.0
 40
2.0
 40
2.0
 40
2.0
 40
2.0
 10
24.99969639042476
 20
3.002058186287793
 30
0.0
 10
24.99969639042476
 20
3.822680472234302
 30
0.0
 10
24.62211367615219
 20
4.540638844993506
 30
0.0
 10
24.08054430860068
 20
5.000214885905574
 30
0.0
  0
SPLINE
  5
D8
330
88
100
AcDbEntity
  8
0
  6
Continuous
 62
     8
370
    25
100
AcDbSpline
210
0.0
220
0.0
230
1.0
 70
     8
 71
     3
 72
     8
 73
     4
 74
     0
 42
0.000000001
 43
0.00000001
 40
2.0
 40
2.0
 40
2.0
 40
2.0
 40
3.0
 40
3.0
 40
3.0
 40
3.0
 10
24.08054430860068
 20
5.000214885905574
 30
0.0
 10
23.5320847455332
 20
5.46599210278198
 30
0.0
 10
22.76107186730131
 20
5.700258750323401
 30
0.0
 10
21.93149232718411
 20
5.700258750323401
 30
0.0
  0
SPLINE
  5
D9
330
88
100
AcDbEntity
  8
0
  6
Continuous
 62
     8
370
    25
100
AcDbSpline
210
0.0
220
0.0
230
1.0
 70
     8
 71
     3
 72
     8
 73
     4
 74
     0
 42
0.000000001
 43
0.00000001
 40
3.0
 40
3.0
 40
3.0
 40
3.0
 40
4.0
 40
4.0
 40
4.0
 40
4.0
 10
21.93149232718411
 20
5.700258750323401
 30
0.0
 10
21.10191278706697
 20
5.700258750323401
 30
0.0
 10
20.33227794793829
 20
5.46599210278198
 30
0.0
 10
19.78381838487081
 20
5.000214885905574
 30
0.0
  0
SPLINE
  5
DA
330
88
100
AcDbEntity
  8
0
  6
Continuous
 62
     8
370
    25
100
AcDbSpline
210
0.0
220
0.0
230
1.0
 70
     8
 71
     3
 72
     8
 73
     4
 74
     0
 42
0.000000001
 43
0.00000001
 40
4.0
 40
4.0
 40
4.0
 40
4.0
 40
5.0
 40
5.0
 40
5.0
 40
5.0
 10
19.78381838487081
 20
5.000214885905574
 30
0.0
 10
19.23742588045807
 20
4.540638844993506
 30
0.0
 10
18.86191022484029
 20
3.822680472234302
 30
0.0
 10
18.86191022484029
 20
3.002058186287793
 30
0.0
  0
SPLINE
  5
DB
330
88
100
AcDbEntity
  8
0
  6
Continuous
 62
     8
370
    25
100
AcDbSpline
210
0.0
220
0.0
230
1.0
 70
     8
 71
     3
 72
     8
 73
     4
 74
     0
 42
0.000000001
 43
0.00000001
 40
7.0
 40
7.0
 40
7.0
 40
7.0
 40
8.0
 40
8.0
 40
8.0
 40
8.0
 10
18.86191022484029
 20
2.694755466277593
 30
0.0
 10
18.86191022484029
 20
1.876889258537517
 30
0.0
 10
19.23742588045807
 20
1.156863827123517
 30
0.0
 10
19.78381838487081
 20
0.6952207275567057
 30
0.0
  0
SPLINE
  5
DC
330
88
100
AcDbEntity
  8
0
  6
Continuous
 62
     8
370
    25
100
AcDbSpline
210
0.0
220
0.0
230
1.0
 70
     8
 71
     3
 72
     8
 73
     4
 74
     0
 42
0.000000001
 43
0.00000001
 40
8.0
 40
8.0
 40
8.0
 40
8.0
 40
9.0
 40
9.0
 40
9.0
 40
9.0
 10
19.78381838487081
 20
0.6952207275567057
 30
0.0
 10
20.33227794793829
 20
0.2349556670930009
 30
0.0
 10
21.10191278706697
 20
0.0
 30
0.0
 10
21.93149232718411
 20
0.0
 30
0.0
  0
SPLINE
  5
DD
330
88
100
AcDbEntity
  8
0
  6
Continuous
 62
     8
370
    25
100
AcDbSpline
210
0.0
220
0.0
230
1.0
 70
     8
 71
     3
 72
     8
 73
     4
 74
     0
 42
0.000000001
 43
0.00000001
 40
9.0
 40
9.0
 40
9.0
 40
9.0
 40
10.0
 40
10.0
 40
10.0
 40
10.0
 10
21.93149232718411
 20
0.0
 30
0.0
 10
22.76107186730131
 20
0.0
 30
0.0
 10
23.5320847455332
 20
0.2349556670930009
 30
0.0
 10
24.08054430860068
 20
0.6952207275567057
 30
0.0
  0
SPLINE
  5
DE
330
88
100
AcDbEntity
  8
0
  6
Continuous
 62
     8
370
    25
100
AcDbSpline
210
0.0
220
0.0
230
1.0
 70
     8
 71
     3
 72
     8
 73
     4
 74
     0
 42
0.000000001
 43
0.00000001
 40
10.0
 40
10.0
 40
10.0
 40
10.0
 40
11.0
 40
11.0
 40
11.0
 40
11.0
 10
24.08054430860068
 20
0.6952207275567057
 30
0.0
 10
24.62211367615219
 20
1.156863827123517
 30
0.0
 10
24.99969639042476
 20
1.876889258537517
 30
0.0
 10
24.99969639042476
 20
2.694755466277593
 30
0.0
  0
HATCH
  5
DF
330
88
100
AcDbEntity
  8
0
  6
Continuous
 62
     7
100
AcDbHatch
 10
0.0
 20
0.0
 30
0.0
210
0.0
220
0.0
230
1.0
  2
0_TOTO_Metal
 70
     0
 71
     0
 91
        1
 92
        0
 93
       20
 72
     4
 94
        3
 73
     1
 74
     0
 95
        8
 96
        4
 40
16.0
 40
16.0
 40
16.0
 40
16.0
 40
17.0
 40
17.0
 40
17.0
 40
17.0
 10
2.191771193615299
 20
1.223009704076405
 42
1.0
 10
2.191771193615299
 20
1.030084229630496
 42
1.0
 10
2.03398571630059
 20
0.8722987523158976
 42
1.0
 10
1.841060241854764
 20
0.8722987523158976
 42
1.0
 72
     1
 10
1.841060241854764
 20
0.8722987523158976
 11
1.096230106583496
 21
0.8722987523158976
 72
     1
 10
1.096230106583496
 20
0.8722987523158976
 11
1.096230106583496
 21
0.2149741000967986
 72
     1
 10
1.096230106583496
 20
0.2149741000967986
 11
4.605406682843205
 21
0.2149741000967986
 72
     1
 10
4.605406682843205
 20
0.2149741000967986
 11
4.605406682843205
 21
0.8722987523158976
 72
     1
 10
4.605406682843205
 20
0.8722987523158976
 11
3.860576547571881
 21
0.8722987523158976
 72
     4
 94
        3
 73
     1
 74
     0
 95
        8
 96
        4
 40
2.0
 40
2.0
 40
2.0
 40
2.0
 40
3.0
 40
3.0
 40
3.0
 40
3.0
 10
3.860576547571881
 20
0.8722987523158976
 42
1.0
 10
3.66765107312611
 20
0.8722987523158976
 42
1.0
 10
3.509865595811401
 20
1.030084229630496
 42
1.0
 10
3.509865595811401
 20
1.223009704076405
 42
1.0
 72
     1
 10
3.509865595811401
 20
1.223009704076405
 11
3.509865595811401
 21
4.823136861146299
 72
     1
 10
3.509865595811401
 20
4.823136861146299
 11
4.107245547042004
 21
4.823136861146299
 72
     4
 94
        3
 73
     1
 74
     0
 95
        8
 96
        4
 40
5.0
 40
5.0
 40
5.0
 40
5.0
 40
6.0
 40
6.0
 40
6.0
 40
6.0
 10
4.107245547042004
 20
4.823136861146299
 42
1.0
 10
4.421438462568094
 20
4.823136861146299
 42
1.0
 10
5.002281944560371
 20
4.561309431541205
 42
1.0
 10
5.002281944560371
 20
3.723461656804983
 42
1.0
 72
     1
 10
5.002281944560371
 20
3.723461656804983
 11
5.002281944560371
 21
3.507109517604995
 72
     1
 10
5.002281944560371
 20
3.507109517604995
 11
5.70163678942659
 21
3.507109517604995
 72
     1
 10
5.70163678942659
 20
3.507109517604995
 11
5.70163678942659
 21
5.478394454710683
 72
     1
 10
5.70163678942659
 20
5.478394454710683
 11
0.0
 21
5.478394454710683
 72
     1
 10
0.0
 20
5.478394454710683
 11
0.0
 21
3.507109517604995
 72
     1
 10
0.0
 20
3.507109517604995
 11
0.7007328839694904
 21
3.507109517604995
 72
     1
 10
0.7007328839694904
 20
3.507109517604995
 11
0.7007328839694904
 21
3.723461656804983
 72
     4
 94
        3
 73
     1
 74
     0
 95
        8
 96
        4
 40
13.0
 40
13.0
 40
13.0
 40
13.0
 40
14.0
 40
14.0
 40
14.0
 40
14.0
 10
0.7007328839694904
 20
3.723461656804983
 42
1.0
 10
0.7007328839694904
 20
4.561309431541205
 42
1.0
 10
1.281576365961767
 20
4.823136861146299
 42
1.0
 10
1.593702222833115
 20
4.823136861146299
 42
1.0
 72
     1
 10
1.593702222833115
 20
4.823136861146299
 11
2.191771193615299
 21
4.823136861146299
 72
     1
 10
2.191771193615299
 20
4.823136861146299
 11
2.191771193615299
 21
1.223009704076405
 97
        0
 75
     0
 76
     2
 52
0.0
 41
0.0625
 77
     0
 78
     1
 53
45.00000209717174
 43
0.0
 44
0.0
 45
-0.1324587826340992
 46
0.1324587729374407
 79
     0
 98
        1
 10
0.0
 20
0.0
  0
HATCH
  5
E0
330
88
100
AcDbEntity
  8
0
  6
Continuous
 62
     7
100
AcDbHatch
 10
0.0
 20
0.0
 30
0.0
210
0.0
220
0.0
230
1.0
  2
0_TOTO_Metal
 70
     0
 71
     0
 91
        2
 92
        0
 93
       12
 72
     4
 94
        3
 73
     1
 74
     0
 95
        8
 96
        4
 40
10.0
 40
10.0
 40
10.0
 40
10.0
 40
11.0
 40
11.0
 40
11.0
 40
11.0
 10
11.36331044486089
 20
0.6952207275567057
 42
1.0
 10
11.90487981241239
 20
1.156863827123517
 42
1.0
 10
12.2817735071335
 20
1.876889258537517
 42
1.0
 10
12.2817735071335
 20
2.694755466277593
 42
1.0
 72
     1
 10
12.2817735071335
 20
2.694755466277593
 11
12.2817735071335
 21
2.851851924040694
 72
     1
 10
12.2817735071335
 20
2.851851924040694
 11
12.2817735071335
 21
3.002058186287793
 72
     4
 94
        3
 73
     1
 74
     0
 95
        8
 96
        4
 40
1.0
 40
1.0
 40
1.0
 40
1.0
 40
2.0
 40
2.0
 40
2.0
 40
2.0
 10
12.2817735071335
 20
3.002058186287793
 42
1.0
 10
12.2817735071335
 20
3.822680472234302
 42
1.0
 10
11.90487981241239
 20
4.540638844993506
 42
1.0
 10
11.36331044486089
 20
5.000214885905574
 42
1.0
 72
     4
 94
        3
 73
     1
 74
     0
 95
        8
 96
        4
 40
2.0
 40
2.0
 40
2.0
 40
2.0
 40
3.0
 40
3.0
 40
3.0
 40
3.0
 10
11.36331044486089
 20
5.000214885905574
 42
1.0
 10
10.81002774493217
 20
5.46599210278198
 42
1.0
 10
10.04177094490677
 20
5.700258750323401
 42
1.0
 10
9.213569443892789
 20
5.700258750323401
 42
1.0
 72
     4
 94
        3
 73
     1
 74
     0
 95
        8
 96
        4
 40
3.0
 40
3.0
 40
3.0
 40
3.0
 40
4.0
 40
4.0
 40
4.0
 40
4.0
 10
9.213569443892789
 20
5.700258750323401
 42
1.0
 10
8.383300884223955
 20
5.700258750323401
 42
1.0
 10
7.61297702554381
 20
5.46599210278198
 42
1.0
 10
7.065895501579488
 20
5.000214885905574
 42
1.0
 72
     4
 94
        3
 73
     1
 74
     0
 95
        8
 96
        4
 40
4.0
 40
4.0
 40
4.0
 40
4.0
 40
5.0
 40
5.0
 40
5.0
 40
5.0
 10
7.065895501579488
 20
5.000214885905574
 42
1.0
 10
6.517435938512007
 20
4.540638844993506
 42
1.0
 10
6.140542243790903
 20
3.822680472234302
 42
1.0
 10
6.140542243790903
 20
3.002058186287793
 42
1.0
 72
     1
 10
6.140542243790903
 20
3.002058186287793
 11
6.140542243790903
 21
2.851851924040694
 72
     1
 10
6.140542243790903
 20
2.851851924040694
 11
6.140542243790903
 21
2.694755466277593
 72
     4
 94
        3
 73
     1
 74
     0
 95
        8
 96
        4
 40
7.0
 40
7.0
 40
7.0
 40
7.0
 40
8.0
 40
8.0
 40
8.0
 40
8.0
 10
6.140542243790903
 20
2.694755466277593
 42
1.0
 10
6.140542243790903
 20
1.876889258537517
 42
1.0
 10
6.517435938512007
 20
1.156863827123517
 42
1.0
 10
7.065895501579488
 20
0.6952207275567057
 42
1.0
 72
     4
 94
        3
 73
     1
 74
     0
 95
        8
 96
        4
 40
8.0
 40
8.0
 40
8.0
 40
8.0
 40
9.0
 40
9.0
 40
9.0
 40
9.0
 10
7.065895501579488
 20
0.6952207275567057
 42
1.0
 10
7.61297702554381
 20
0.2349556670930009
 42
1.0
 10
8.383300884223955
 20
0.0
 42
1.0
 10
9.213569443892789
 20
0.0
 42
1.0
 72
     4
 94
        3
 73
     1
 74
     0
 95
        8
 96
        4
 40
9.0
 40
9.0
 40
9.0
 40
9.0
 40
10.0
 40
10.0
 40
10.0
 40
10.0
 10
9.213569443892789
 20
0.0
 42
1.0
 10
10.04177094490677
 20
0.0
 42
1.0
 10
10.81002774493217
 20
0.2349556670930009
 42
1.0
 10
11.36331044486089
 20
0.6952207275567057
 42
1.0
 97
        0
 92
        0
 93
       10
 72
     4
 94
        3
 73
     1
 74
     0
 95
        8
 96
        4
 40
7.0
 40
7.0
 40
7.0
 40
7.0
 40
8.0
 40
8.0
 40
8.0
 40
8.0
 10
9.213569443892789
 20
0.6993548448661902
 42
1.0
 10
9.105393374292781
 20
0.6993548448661902
 42
1.0
 10
8.51421459902657
 20
0.6952207275567057
 42
1.0
 10
8.076687183765364
 20
1.223009704076405
 42
1.0
 72
     4
 94
        3
 73
     1
 74
     0
 95
        8
 96
        4
 40
8.0
 40
8.0
 40
8.0
 40
8.0
 40
9.0
 40
9.0
 40
9.0
 40
9.0
 10
8.076687183765364
 20
1.223009704076405
 42
1.0
 10
7.827951125640553
 20
1.517910072157902
 42
1.0
 10
7.635714670746252
 20
2.005735914685308
 42
1.0
 10
7.635714670746252
 20
2.780882910226684
 42
1.0
 72
     1
 10
7.635714670746252
 20
2.780882910226684
 11
7.635714670746252
 21
2.916619761890421
 72
     4
 94
        3
 73
     1
 74
     0
 95
        8
 96
        4
 40
0.0
 40
0.0
 40
0.0
 40
0.0
 40
1.0
 40
1.0
 40
1.0
 40
1.0
 10
7.635714670746252
 20
2.916619761890421
 42
1.0
 10
7.635714670746252
 20
3.691077737880105
 42
1.0
 10
7.827951125640553
 20
4.182348678165498
 42
1.0
 10
8.076687183765364
 20
4.477938065798604
 42
1.0
 72
     4
 94
        3
 73
     1
 74
     0
 95
        8
 96
        4
 40
1.0
 40
1.0
 40
1.0
 40
1.0
 40
2.0
 40
2.0
 40
2.0
 40
2.0
 10
8.076687183765364
 20
4.477938065798604
 42
1.0
 10
8.51421459902657
 20
5.000214885905574
 42
1.0
 10
9.105393374292781
 20
4.998147827250804
 42
1.0
 10
9.213569443892789
 20
4.998147827250804
 42
1.0
 72
     4
 94
        3
 73
     1
 74
     0
 95
        8
 96
        4
 40
2.0
 40
2.0
 40
2.0
 40
2.0
 40
3.0
 40
3.0
 40
3.0
 40
3.0
 10
9.213569443892789
 20
4.998147827250804
 42
1.0
 10
9.332080806766674
 20
4.998147827250804
 42
1.0
 10
9.908790171449356
 20
5.000214885905574
 42
1.0
 10
10.35320778222648
 20
4.477938065798604
 42
1.0
 72
     4
 94
        3
 73
     1
 74
     0
 95
        8
 96
        4
 40
3.0
 40
3.0
 40
3.0
 40
3.0
 40
4.0
 40
4.0
 40
4.0
 40
4.0
 10
10.35320778222648
 20
4.477938065798604
 42
1.0
 10
10.59780972304175
 20
4.182348678165498
 42
1.0
 10
10.79142421703921
 20
3.691077737880105
 42
1.0
 10
10.79142421703921
 20
2.916619761890421
 42
1.0
 72
     1
 10
10.79142421703921
 20
2.916619761890421
 11
10.79142421703921
 21
2.780882910226684
 72
     4
 94
        3
 73
     1
 74
     0
 95
        8
 96
        4
 40
5.0
 40
5.0
 40
5.0
 40
5.0
 40
6.0
 40
6.0
 40
6.0
 40
6.0
 10
10.79142421703921
 20
2.780882910226684
 42
1.0
 10
10.79142421703921
 20
2.005735914685308
 42
1.0
 10
10.59780972304175
 20
1.517910072157902
 42
1.0
 10
10.35320778222648
 20
1.223009704076405
 42
1.0
 72
     4
 94
        3
 73
     1
 74
     0
 95
        8
 96
        4
 40
6.0
 40
6.0
 40
6.0
 40
6.0
 40
7.0
 40
7.0
 40
7.0
 40
7.0
 10
10.35320778222648
 20
1.223009704076405
 42
1.0
 10
9.908790171449356
 20
0.6952207275567057
 42
1.0
 10
9.327257669905498
 20
0.6993548448661902
 42
1.0
 10
9.213569443892789
 20
0.6993548448661902
 42
1.0
 97
        0
 75
     0
 76
     2
 52
0.0
 41
0.0625
 77
     0
 78
     1
 53
45.00000209717174
 43
0.0
 44
0.0
 45
-0.1324587826340992
 46
0.1324587729374407
 79
     0
 98
        1
 10
0.0
 20
0.0
  0
HATCH
  5
E1
330
88
100
AcDbEntity
  8
0
  6
Continuous
 62
     7
100
AcDbHatch
 10
0.0
 20
0.0
 30
0.0
210
0.0
220
0.0
230
1.0
  2
0_TOTO_Metal
 70
     0
 71
     0
 91
        1
 92
        0
 93
       20
 72
     4
 94
        3
 73
     1
 74
     0
 95
        8
 96
        4
 40
16.0
 40
16.0
 40
16.0
 40
16.0
 40
17.0
 40
17.0
 40
17.0
 40
17.0
 10
14.91107211600978
 20
1.223009704076405
 42
1.0
 10
14.91107211600978
 20
1.030084229630496
 42
1.0
 10
14.7546646777984
 20
0.8722987523158976
 42
1.0
 10
14.55898312514609
 20
0.8722987523158976
 42
1.0
 72
     1
 10
14.55898312514609
 20
0.8722987523158976
 11
13.81759808763278
 21
0.8722987523158976
 72
     1
 10
13.81759808763278
 20
0.8722987523158976
 11
13.81759808763278
 21
0.2149741000967986
 72
     1
 10
13.81759808763278
 20
0.2149741000967986
 11
17.32332956613458
 21
0.2149741000967986
 72
     1
 10
17.32332956613458
 20
0.2149741000967986
 11
17.32332956613458
 21
0.8722987523158976
 72
     1
 10
17.32332956613458
 20
0.8722987523158976
 11
16.57849943086326
 21
0.8722987523158976
 72
     4
 94
        3
 73
     1
 74
     0
 95
        8
 96
        4
 40
2.0
 40
2.0
 40
2.0
 40
2.0
 40
3.0
 40
3.0
 40
3.0
 40
3.0
 10
16.57849943086326
 20
0.8722987523158976
 42
1.0
 10
16.38626297596896
 20
0.8722987523158976
 42
1.0
 10
16.229166518206
 20
1.030084229630496
 42
1.0
 10
16.229166518206
 20
1.223009704076405
 42
1.0
 72
     1
 10
16.229166518206
 20
1.223009704076405
 11
16.229166518206
 21
4.823136861146299
 72
     1
 10
16.229166518206
 20
4.823136861146299
 11
16.8244794107818
 21
4.823136861146299
 72
     4
 94
        3
 73
     1
 74
     0
 95
        8
 96
        4
 40
5.0
 40
5.0
 40
5.0
 40
5.0
 40
6.0
 40
6.0
 40
6.0
 40
6.0
 10
16.8244794107818
 20
4.823136861146299
 42
1.0
 10
17.14142840451422
 20
4.823136861146299
 42
1.0
 10
17.71951580830017
 20
4.561309431541205
 42
1.0
 10
17.71951580830017
 20
3.723461656804983
 42
1.0
 72
     1
 10
17.71951580830017
 20
3.723461656804983
 11
17.71951580830017
 21
3.507109517604995
 72
     1
 10
17.71951580830017
 20
3.507109517604995
 11
18.41955967271797
 21
3.507109517604995
 72
     1
 10
18.41955967271797
 20
3.507109517604995
 11
18.41955967271797
 21
5.478394454710683
 72
     1
 10
18.41955967271797
 20
5.478394454710683
 11
12.71930092239459
 21
5.478394454710683
 72
     1
 10
12.71930092239459
 20
5.478394454710683
 11
12.71930092239459
 21
3.507109517604995
 72
     1
 10
12.71930092239459
 20
3.507109517604995
 11
13.41865576726081
 21
3.507109517604995
 72
     1
 10
13.41865576726081
 20
3.507109517604995
 11
13.41865576726081
 21
3.723461656804983
 72
     4
 94
        3
 73
     1
 74
     0
 95
        8
 96
        4
 40
13.0
 40
13.0
 40
13.0
 40
13.0
 40
14.0
 40
14.0
 40
14.0
 40
14.0
 10
13.41865576726081
 20
3.723461656804983
 42
1.0
 10
13.41865576726081
 20
4.561309431541205
 42
1.0
 10
14.00087728835625
 20
4.823136861146299
 42
1.0
 10
14.31369216477929
 20
4.823136861146299
 42
1.0
 72
     1
 10
14.31369216477929
 20
4.823136861146299
 11
14.91107211600978
 21
4.823136861146299
 72
     1
 10
14.91107211600978
 20
4.823136861146299
 11
14.91107211600978
 21
1.223009704076405
 97
        0
 75
     0
 76
     2
 52
0.0
 41
0.0625
 77
     0
 78
     1
 53
45.00000209717174
 43
0.0
 44
0.0
 45
-0.1324587826340992
 46
0.1324587729374407
 79
     0
 98
        1
 10
0.0
 20
0.0
  0
HATCH
  5
E2
330
88
100
AcDbEntity
  8
0
  6
Continuous
 62
     7
100
AcDbHatch
 10
0.0
 20
0.0
 30
0.0
210
0.0
220
0.0
230
1.0
  2
0_TOTO_Metal
 70
     0
 71
     0
 91
        2
 92
        0
 93
       12
 72
     4
 94
        3
 73
     1
 74
     0
 95
        8
 96
        4
 40
10.0
 40
10.0
 40
10.0
 40
10.0
 40
11.0
 40
11.0
 40
11.0
 40
11.0
 10
24.08054430860068
 20
0.6952207275567057
 42
1.0
 10
24.62211367615219
 20
1.156863827123517
 42
1.0
 10
24.99969639042476
 20
1.876889258537517
 42
1.0
 10
24.99969639042476
 20
2.694755466277593
 42
1.0
 72
     1
 10
24.99969639042476
 20
2.694755466277593
 11
24.99969639042476
 21
2.851851924040694
 72
     1
 10
24.99969639042476
 20
2.851851924040694
 11
24.99969639042476
 21
3.002058186287793
 72
     4
 94
        3
 73
     1
 74
     0
 95
        8
 96
        4
 40
1.0
 40
1.0
 40
1.0
 40
1.0
 40
2.0
 40
2.0
 40
2.0
 40
2.0
 10
24.99969639042476
 20
3.002058186287793
 42
1.0
 10
24.99969639042476
 20
3.822680472234302
 42
1.0
 10
24.62211367615219
 20
4.540638844993506
 42
1.0
 10
24.08054430860068
 20
5.000214885905574
 42
1.0
 72
     4
 94
        3
 73
     1
 74
     0
 95
        8
 96
        4
 40
2.0
 40
2.0
 40
2.0
 40
2.0
 40
3.0
 40
3.0
 40
3.0
 40
3.0
 10
24.08054430860068
 20
5.000214885905574
 42
1.0
 10
23.5320847455332
 20
5.46599210278198
 42
1.0
 10
22.76107186730131
 20
5.700258750323401
 42
1.0
 10
21.93149232718411
 20
5.700258750323401
 42
1.0
 72
     4
 94
        3
 73
     1
 74
     0
 95
        8
 96
        4
 40
3.0
 40
3.0
 40
3.0
 40
3.0
 40
4.0
 40
4.0
 40
4.0
 40
4.0
 10
21.93149232718411
 20
5.700258750323401
 42
1.0
 10
21.10191278706697
 20
5.700258750323401
 42
1.0
 10
20.33227794793829
 20
5.46599210278198
 42
1.0
 10
19.78381838487081
 20
5.000214885905574
 42
1.0
 72
     4
 94
        3
 73
     1
 74
     0
 95
        8
 96
        4
 40
4.0
 40
4.0
 40
4.0
 40
4.0
 40
5.0
 40
5.0
 40
5.0
 40
5.0
 10
19.78381838487081
 20
5.000214885905574
 42
1.0
 10
19.23742588045807
 20
4.540638844993506
 42
1.0
 10
18.86191022484029
 20
3.822680472234302
 42
1.0
 10
18.86191022484029
 20
3.002058186287793
 42
1.0
 72
     1
 10
18.86191022484029
 20
3.002058186287793
 11
18.86191022484029
 21
2.851851924040694
 72
     1
 10
18.86191022484029
 20
2.851851924040694
 11
18.86191022484029
 21
2.694755466277593
 72
     4
 94
        3
 73
     1
 74
     0
 95
        8
 96
        4
 40
7.0
 40
7.0
 40
7.0
 40
7.0
 40
8.0
 40
8.0
 40
8.0
 40
8.0
 10
18.86191022484029
 20
2.694755466277593
 42
1.0
 10
18.86191022484029
 20
1.876889258537517
 42
1.0
 10
19.23742588045807
 20
1.156863827123517
 42
1.0
 10
19.78381838487081
 20
0.6952207275567057
 42
1.0
 72
     4
 94
        3
 73
     1
 74
     0
 95
        8
 96
        4
 40
8.0
 40
8.0
 40
8.0
 40
8.0
 40
9.0
 40
9.0
 40
9.0
 40
9.0
 10
19.78381838487081
 20
0.6952207275567057
 42
1.0
 10
20.33227794793829
 20
0.2349556670930009
 42
1.0
 10
21.10191278706697
 20
0.0
 42
1.0
 10
21.93149232718411
 20
0.0
 42
1.0
 72
     4
 94
        3
 73
     1
 74
     0
 95
        8
 96
        4
 40
9.0
 40
9.0
 40
9.0
 40
9.0
 40
10.0
 40
10.0
 40
10.0
 40
10.0
 10
21.93149232718411
 20
0.0
 42
1.0
 10
22.76107186730131
 20
0.0
 42
1.0
 10
23.5320847455332
 20
0.2349556670930009
 42
1.0
 10
24.08054430860068
 20
0.6952207275567057
 42
1.0
 97
        0
 92
        0
 93
       10
 72
     4
 94
        3
 73
     1
 74
     0
 95
        8
 96
        4
 40
7.0
 40
7.0
 40
7.0
 40
7.0
 40
8.0
 40
8.0
 40
8.0
 40
8.0
 10
21.93355938583891
 20
0.6993548448661902
 42
1.0
 10
21.82676135534206
 20
0.6993548448661902
 42
1.0
 10
21.23558258007591
 20
0.6952207275567057
 42
1.0
 10
20.79667712571159
 20
1.223009704076405
 42
1.0
 72
     4
 94
        3
 73
     1
 74
     0
 95
        8
 96
        4
 40
8.0
 40
8.0
 40
8.0
 40
8.0
 40
9.0
 40
9.0
 40
9.0
 40
9.0
 10
20.79667712571159
 20
1.223009704076405
 42
1.0
 10
20.5472520480352
 20
1.517910072157902
 42
1.0
 10
20.3550155931409
 20
2.005735914685308
 42
1.0
 10
20.3550155931409
 20
2.780882910226684
 42
1.0
 72
     1
 10
20.3550155931409
 20
2.780882910226684
 11
20.3550155931409
 21
2.916619761890421
 72
     4
 94
        3
 73
     1
 74
     0
 95
        8
 96
        4
 40
0.0
 40
0.0
 40
0.0
 40
0.0
 40
1.0
 40
1.0
 40
1.0
 40
1.0
 10
20.3550155931409
 20
2.916619761890421
 42
1.0
 10
20.3550155931409
 20
3.691077737880105
 42
1.0
 10
20.5472520480352
 20
4.182348678165498
 42
1.0
 10
20.79667712571159
 20
4.477938065798604
 42
1.0
 72
     4
 94
        3
 73
     1
 74
     0
 95
        8
 96
        4
 40
1.0
 40
1.0
 40
1.0
 40
1.0
 40
2.0
 40
2.0
 40
2.0
 40
2.0
 10
20.79667712571159
 20
4.477938065798604
 42
1.0
 10
21.23558258007591
 20
5.000214885905574
 42
1.0
 10
21.82676135534206
 20
4.998147827250804
 42
1.0
 10
21.93355938583891
 20
4.998147827250804
 42
1.0
 72
     4
 94
        3
 73
     1
 74
     0
 95
        8
 96
        4
 40
2.0
 40
2.0
 40
2.0
 40
2.0
 40
3.0
 40
3.0
 40
3.0
 40
3.0
 10
21.93355938583891
 20
4.998147827250804
 42
1.0
 10
22.05138172916116
 20
4.998147827250804
 42
1.0
 10
22.62878011339559
 20
5.000214885905574
 42
1.0
 10
23.0718196850695
 20
4.477938065798604
 42
1.0
 72
     4
 94
        3
 73
     1
 74
     0
 95
        8
 96
        4
 40
3.0
 40
3.0
 40
3.0
 40
3.0
 40
4.0
 40
4.0
 40
4.0
 40
4.0
 10
23.0718196850695
 20
4.477938065798604
 42
1.0
 10
23.31779966498787
 20
4.182348678165498
 42
1.0
 10
23.51072513943381
 20
3.691077737880105
 42
1.0
 10
23.51072513943381
 20
2.916619761890421
 42
1.0
 72
     1
 10
23.51072513943381
 20
2.916619761890421
 11
23.51072513943381
 21
2.780882910226684
 72
     4
 94
        3
 73
     1
 74
     0
 95
        8
 96
        4
 40
5.0
 40
5.0
 40
5.0
 40
5.0
 40
6.0
 40
6.0
 40
6.0
 40
6.0
 10
23.51072513943381
 20
2.780882910226684
 42
1.0
 10
23.51072513943381
 20
2.005735914685308
 42
1.0
 10
23.31779966498787
 20
1.517910072157902
 42
1.0
 10
23.0718196850695
 20
1.223009704076405
 42
1.0
 72
     4
 94
        3
 73
     1
 74
     0
 95
        8
 96
        4
 40
6.0
 40
6.0
 40
6.0
 40
6.0
 40
7.0
 40
7.0
 40
7.0
 40
7.0
 10
23.0718196850695
 20
1.223009704076405
 42
1.0
 10
22.62878011339559
 20
0.6952207275567057
 42
1.0
 10
22.04655859230009
 20
0.6993548448661902
 42
1.0
 10
21.93355938583891
 20
0.6993548448661902
 42
1.0
 97
        0
 75
     0
 76
     2
 52
0.0
 41
0.0625
 77
     0
 78
     1
 53
45.00000209717174
 43
0.0
 44
0.0
 45
-0.1324587826340992
 46
0.1324587729374407
 79
     0
 98
        1
 10
0.0
 20
0.0
  0
ENDBLK
  5
8A
330
88
100
AcDbEntity
  8
0
100
AcDbBlockEnd
  0
BLOCK
  5
123
330
122
100
AcDbEntity
  8
0
100
AcDbBlockBegin
  2
SW_NOTE_0
 70
     0
 10
0.0
 20
0.0
 30
0.0
  3
SW_NOTE_0
  1

  0
MTEXT
  5
126
330
122
100
AcDbEntity
  8
DEFAULT_LAYER
 62
     0
100
AcDbMText
 10
0.0
 20
4.0927900738
 30
0.0
 40
3.175
 41
0.0
 71
     1
 72
     1
  1
ハンガー付きシャワーエルボ
  7
SLDTEXTSTYLE0
 73
     1
 44
1.0
  0
MTEXT
  5
127
330
122
100
AcDbEntity
  8
DEFAULT_LAYER
 62
     0
100
AcDbMText
 10
0.0
 20
-1.1405433723
 30
0.0
 40
3.175
 41
0.0
 71
     1
 72
     1
  1
角型
  7
SLDTEXTSTYLE0
 73
     1
 44
1.0
  0
ENDBLK
  5
124
330
122
100
AcDbEntity
  8
0
100
AcDbBlockEnd
  0
BLOCK
  5
133
330
132
100
AcDbEntity
  8
0
100
AcDbBlockBegin
  2
SW_NOTE_1
 70
     0
 10
0.0
 20
0.0
 30
0.0
  3
SW_NOTE_1
  1

  0
MTEXT
  5
135
330
132
100
AcDbEntity
  8
0
  6
Continuous
 62
     0
370
     0
100
AcDbMText
 10
0.653125
 20
2.8359490275
 30
0.0
 40
2.2
 41
0.0
 71
     2
 72
     1
  1
R
  7
SLDTEXTSTYLE0
 73
     1
 44
1.0
  0
MTEXT
  5
136
330
132
100
AcDbEntity
  8
0
  6
Continuous
 62
     0
370
     0
100
AcDbMText
 10
0.653125
 20
0.1359489575
 30
0.0
 40
2.2
 41
0.0
 71
     2
 72
     1
  1
E
  7
SLDTEXTSTYLE0
 73
     1
 44
1.0
  0
MTEXT
  5
137
330
132
100
AcDbEntity
  8
0
  6
Continuous
 62
     0
370
     0
100
AcDbMText
 10
0.653125
 20
-2.5640511126
 30
0.0
 40
2.2
 41
0.0
 71
     2
 72
     1
  1
V
  7
SLDTEXTSTYLE0
 73
     1
 44
1.0
  0
MTEXT
  5
138
330
132
100
AcDbEntity
  8
0
  6
Continuous
 62
     0
370
     0
100
AcDbMText
 10
0.653125
 20
-5.2640511826
 30
0.0
 40
2.2
 41
0.0
 71
     2
 72
     1
  1
I
  7
SLDTEXTSTYLE0
 73
     1
 44
1.0
  0
MTEXT
  5
139
330
132
100
AcDbEntity
  8
0
  6
Continuous
 62
     0
370
     0
100
AcDbMText
 10
0.653125
 20
-7.9640512526
 30
0.0
 40
2.2
 41
0.0
 71
     2
 72
     1
  1
S
  7
SLDTEXTSTYLE0
 73
     1
 44
1.0
  0
MTEXT
  5
13A
330
132
100
AcDbEntity
  8
0
  6
Continuous
 62
     0
370
     0
100
AcDbMText
 10
0.653125
 20
-10.6640513227
 30
0.0
 40
2.2
 41
0.0
 71
     2
 72
     1
  1
I
  7
SLDTEXTSTYLE0
 73
     1
 44
1.0
  0
MTEXT
  5
13B
330
132
100
AcDbEntity
  8
0
  6
Continuous
 62
     0
370
     0
100
AcDbMText
 10
0.653125
 20
-13.3640513927
 30
0.0
 40
2.2
 41
0.0
 71
     2
 72
     1
  1
O
  7
SLDTEXTSTYLE0
 73
     1
 44
1.0
  0
MTEXT
  5
13C
330
132
100
AcDbEntity
  8
0
  6
Continuous
 62
     0
370
     0
100
AcDbMText
 10
0.653125
 20
-16.0640514627
 30
0.0
 40
2.2
 41
0.0
 71
     2
 72
     1
  1
N
  7
SLDTEXTSTYLE0
 73
     1
 44
1.0
  0
MTEXT
  5
13D
330
132
100
AcDbEntity
  8
0
  6
Continuous
 62
     0
370
     0
100
AcDbMText
 10
0.653125
 20
-18.7640515328
 30
0.0
 40
2.2
 41
0.0
 71
     2
 72
     1
  1
S
  7
SLDTEXTSTYLE0
 73
     1
 44
1.0
  0
ENDBLK
  5
134
330
132
100
AcDbEntity
  8
0
100
AcDbBlockEnd
  0
BLOCK
  5
1C9
330
1C8
100
AcDbEntity
  8
0
100
AcDbBlockBegin
  2
_OPEN30
 70
     0
 10
0.0
 20
0.0
 30
0.0
  3
_OPEN30
  1

  0
LINE
  5
1CB
330
1C8
100
AcDbEntity
  8
0
  6
ByBlock
 62
     0
370
    -2
100
AcDbLine
 10
-1.0
 20
0.267949
 30
0.0
 11
0.0
 21
0.0
 31
0.0
  0
LINE
  5
1CC
330
1C8
100
AcDbEntity
  8
0
  6
ByBlock
 62
     0
370
    -2
100
AcDbLine
 10
0.0
 20
0.0
 30
0.0
 11
-1.0
 21
-0.267949
 31
0.0
  0
LINE
  5
1CD
330
1C8
100
AcDbEntity
  8
0
  6
ByBlock
 62
     0
370
    -2
100
AcDbLine
 10
0.0
 20
0.0
 30
0.0
 11
-1.0
 21
0.0
 31
0.0
  0
ENDBLK
  5
1CA
330
1C8
100
AcDbEntity
  8
0
100
AcDbBlockEnd
  0
BLOCK
  5
1CF
330
1CE
100
AcDbEntity
  8
0
100
AcDbBlockBegin
  2
_D
 70
     0
 10
0.0
 20
0.0
 30
0.0
  3
_D
  1

  0
INSERT
  5
1D1
330
1CE
100
AcDbEntity
  8
DEFAULT_LAYER
100
AcDbBlockReference
  2
_OPEN30
 10
69.3634483283
 20
152.6322011272
 30
-10.204713415
 41
2.5
 42
2.5
 50
180.0
  0
INSERT
  5
1D2
330
1CE
100
AcDbEntity
  8
DEFAULT_LAYER
100
AcDbBlockReference
  2
_OPEN30
 10
124.3634483283
 20
152.6322011272
 30
-10.204713415
 41
2.5
 42
2.5
 50
0.0
  0
LINE
  5
1D3
330
1CE
100
AcDbEntity
  8
DEFAULT_LAYER
100
AcDbLine
 10
69.3634483283
 20
134.6322011272
 30
0.0
 11
69.3634483283
 21
153.6322011272
 31
0.0
  0
LINE
  5
1D4
330
1CE
100
AcDbEntity
  8
DEFAULT_LAYER
100
AcDbLine
 10
124.3634483283
 20
134.6322011272
 30
0.0
 11
124.3634483283
 21
153.6322011272
 31
0.0
  0
LINE
  5
1D5
330
1CE
100
AcDbEntity
  8
DEFAULT_LAYER
100
AcDbLine
 10
69.3634483283
 20
152.6322011272
 30
0.0
 11
124.3634483283
 21
152.6322011272
 31
0.0
  0
MTEXT
  5
1D6
330
1CE
100
AcDbEntity
  8
DEFAULT_LAYER
100
AcDbMText
 10
97.0850473467
 20
155.3607277557
 30
0.0
 40
2.1166666667
 41
0.0
 71
     1
 72
     1
  1
55
  7
SLDTEXTSTYLE0
 73
     1
 44
1.0
  0
ENDBLK
  5
1D0
330
1CE
100
AcDbEntity
  8
0
100
AcDbBlockEnd
  0
BLOCK
  5
1D9
330
1D8
100
AcDbEntity
  8
0
100
AcDbBlockBegin
  2
_D_1
 70
     0
 10
0.0
 20
0.0
 30
0.0
  3
_D_1
  1

  0
INSERT
  5
1DB
330
1D8
100
AcDbEntity
  8
DEFAULT_LAYER
100
AcDbBlockReference
  2
_OPEN30
 10
77.8634483283
 20
146.6322011272
 30
-10.204713415
 41
2.5
 42
2.5
 50
180.0
  0
INSERT
  5
1DC
330
1D8
100
AcDbEntity
  8
DEFAULT_LAYER
100
AcDbBlockReference
  2
_OPEN30
 10
115.8634483283
 20
146.6322011272
 30
-10.204713415
 41
2.5
 42
2.5
 50
0.0
  0
LINE
  5
1DD
330
1D8
100
AcDbEntity
  8
DEFAULT_LAYER
100
AcDbLine
 10
77.8634483283
 20
126.1322011272
 30
0.0
 11
77.8634483283
 21
147.6322011272
 31
0.0
  0
LINE
  5
1DE
330
1D8
100
AcDbEntity
  8
DEFAULT_LAYER
100
AcDbLine
 10
115.8634483283
 20
126.1322011272
 30
0.0
 11
115.8634483283
 21
147.6322011272
 31
0.0
  0
LINE
  5
1DF
330
1D8
100
AcDbEntity
  8
DEFAULT_LAYER
100
AcDbLine
 10
77.8634483283
 20
146.6322011272
 30
0.0
 11
115.8634483283
 21
146.6322011272
 31
0.0
  0
MTEXT
  5
1E0
330
1D8
100
AcDbEntity
  8
DEFAULT_LAYER
100
AcDbMText
 10
97.0850473467
 20
149.3607277557
 30
0.0
 40
2.1166666667
 41
0.0
 71
     1
 72
     1
  1
38
  7
SLDTEXTSTYLE0
 73
     1
 44
1.0
  0
ENDBLK
  5
1DA
330
1D8
100
AcDbEntity
  8
0
100
AcDbBlockEnd
  0
BLOCK
  5
1E3
330
1E2
100
AcDbEntity
  8
0
100
AcDbBlockBegin
  2
_D_2
 70
     0
 10
0.0
 20
0.0
 30
0.0
  3
_D_2
  1

  0
INSERT
  5
1E5
330
1E2
100
AcDbEntity
  8
DEFAULT_LAYER
100
AcDbBlockReference
  2
_OPEN30
 10
140.3634483283
 20
136.6322011272
 30
-10.204713415
 41
2.5
 42
2.5
 50
90.0
  0
INSERT
  5
1E6
330
1E2
100
AcDbEntity
  8
DEFAULT_LAYER
100
AcDbBlockReference
  2
_OPEN30
 10
140.3634483283
 20
81.6322011272
 30
-10.204713415
 41
2.5
 42
2.5
 50
270.0
  0
LINE
  5
1E7
330
1E2
100
AcDbEntity
  8
DEFAULT_LAYER
100
AcDbLine
 10
122.3634483283
 20
136.6322011272
 30
0.0
 11
141.3634483283
 21
136.6322011272
 31
0.0
  0
LINE
  5
1E8
330
1E2
100
AcDbEntity
  8
DEFAULT_LAYER
100
AcDbLine
 10
122.3634483283
 20
81.6322011272
 30
0.0
 11
141.3634483283
 21
81.6322011272
 31
0.0
  0
LINE
  5
1E9
330
1E2
100
AcDbEntity
  8
DEFAULT_LAYER
100
AcDbLine
 10
140.3634483283
 20
136.6322011272
 30
0.0
 11
140.3634483283
 21
81.6322011272
 31
0.0
  0
MTEXT
  5
1EA
330
1E2
100
AcDbEntity
  8
DEFAULT_LAYER
100
AcDbMText
 10
137.6349216997
 20
107.4348436885
 30
0.0
 40
2.1166666667
 41
0.0
 71
     1
 72
     1
  1
55
  7
SLDTEXTSTYLE0
 11
-7.044195017643634E-15
 21
1.0
 31
0.0
 73
     1
 44
1.0
  0
ENDBLK
  5
1E4
330
1E2
100
AcDbEntity
  8
0
100
AcDbBlockEnd
  0
BLOCK
  5
1ED
330
1EC
100
AcDbEntity
  8
0
100
AcDbBlockBegin
  2
_D_3
 70
     0
 10
0.0
 20
0.0
 30
0.0
  3
_D_3
  1

  0
INSERT
  5
1EF
330
1EC
100
AcDbEntity
  8
DEFAULT_LAYER
100
AcDbBlockReference
  2
_OPEN30
 10
134.3634483283
 20
128.1322011272
 30
-10.204713415
 41
2.5
 42
2.5
 50
90.0
  0
INSERT
  5
1F0
330
1EC
100
AcDbEntity
  8
DEFAULT_LAYER
100
AcDbBlockReference
  2
_OPEN30
 10
134.3634483283
 20
90.1322011272
 30
-10.204713415
 41
2.5
 42
2.5
 50
270.0
  0
LINE
  5
1F1
330
1EC
100
AcDbEntity
  8
DEFAULT_LAYER
100
AcDbLine
 10
113.8634483283
 20
128.1322011272
 30
0.0
 11
135.3634483283
 21
128.1322011272
 31
0.0
  0
LINE
  5
1F2
330
1EC
100
AcDbEntity
  8
DEFAULT_LAYER
100
AcDbLine
 10
113.8634483283
 20
90.1322011272
 30
0.0
 11
135.3634483283
 21
90.1322011272
 31
0.0
  0
LINE
  5
1F3
330
1EC
100
AcDbEntity
  8
DEFAULT_LAYER
100
AcDbLine
 10
134.3634483283
 20
128.1322011272
 30
0.0
 11
134.3634483283
 21
90.1322011272
 31
0.0
  0
MTEXT
  5
1F4
330
1EC
100
AcDbEntity
  8
DEFAULT_LAYER
100
AcDbMText
 10
131.6349216997
 20
107.4348436885
 30
0.0
 40
2.1166666667
 41
0.0
 71
     1
 72
     1
  1
38
  7
SLDTEXTSTYLE0
 11
-7.044195017643634E-15
 21
1.0
 31
0.0
 73
     1
 44
1.0
  0
ENDBLK
  5
1EE
330
1EC
100
AcDbEntity
  8
0
100
AcDbBlockEnd
  0
BLOCK
  5
23A
330
239
100
AcDbEntity
  8
0
100
AcDbBlockBegin
  2
_D_4
 70
     0
 10
0.0
 20
0.0
 30
0.0
  3
_D_4
  1

  0
INSERT
  5
23C
330
239
100
AcDbEntity
  8
DEFAULT_LAYER
100
AcDbBlockReference
  2
_OPEN30
 10
165.0400616254
 20
157.133009364
 30
0.0
 41
2.5
 42
2.5
 50
180.0
  0
INSERT
  5
23D
330
239
100
AcDbEntity
  8
DEFAULT_LAYER
100
AcDbBlockReference
  2
_OPEN30
 10
241.0400616254
 20
157.133009364
 30
0.0
 41
2.5
 42
2.5
 50
0.0
  0
LINE
  5
23E
330
239
100
AcDbEntity
  8
DEFAULT_LAYER
100
AcDbLine
 10
165.0400616254
 20
127.3322011272
 30
0.0
 11
165.0400616254
 21
158.133009364
 31
0.0
  0
LINE
  5
23F
330
239
100
AcDbEntity
  8
DEFAULT_LAYER
100
AcDbLine
 10
241.0400616254
 20
150.980499864
 30
0.0
 11
241.0400616254
 21
158.133009364
 31
0.0
  0
LINE
  5
240
330
239
100
AcDbEntity
  8
DEFAULT_LAYER
100
AcDbLine
 10
165.0400616254
 20
157.133009364
 30
0.0
 11
241.0400616254
 21
157.133009364
 31
0.0
  0
MTEXT
  5
241
330
239
100
AcDbEntity
  8
DEFAULT_LAYER
100
AcDbMText
 10
203.0846972244
 20
159.8615359925
 30
0.0
 40
2.1166666667
 41
0.0
 71
     1
 72
     1
  1
76
  7
SLDTEXTSTYLE0
 73
     1
 44
1.0
  0
ENDBLK
  5
23B
330
239
100
AcDbEntity
  8
0
100
AcDbBlockEnd
  0
BLOCK
  5
245
330
244
100
AcDbEntity
  8
0
100
AcDbBlockBegin
  2
_D_5
 70
     0
 10
0.0
 20
0.0
 30
0.0
  3
_D_5
  1

  0
INSERT
  5
247
330
244
100
AcDbEntity
  8
DEFAULT_LAYER
100
AcDbBlockReference
  2
_OPEN30
 10
241.0400616254
 20
157.133009364
 30
0.0
 41
2.5
 42
2.5
 50
180.0
  0
INSERT
  5
248
330
244
100
AcDbEntity
  8
DEFAULT_LAYER
100
AcDbBlockReference
  2
_OPEN30
 10
252.2494884554
 20
157.133009364
 30
0.0
 41
2.5
 42
2.5
 50
0.0
  0
LINE
  5
249
330
244
100
AcDbEntity
  8
DEFAULT_LAYER
100
AcDbLine
 10
241.0400616254
 20
150.980499864
 30
0.0
 11
241.0400616254
 21
158.133009364
 31
0.0
  0
LINE
  5
24A
330
244
100
AcDbEntity
  8
DEFAULT_LAYER
100
AcDbLine
 10
252.2494884554
 20
118.4477011272
 30
0.0
 11
252.2494884554
 21
158.133009364
 31
0.0
  0
LINE
  5
24B
330
244
100
AcDbEntity
  8
DEFAULT_LAYER
100
AcDbLine
 10
241.0400616254
 20
157.133009364
 30
0.0
 11
252.2494884554
 21
157.133009364
 31
0.0
  0
LINE
  5
24C
330
244
100
AcDbEntity
  8
DEFAULT_LAYER
100
AcDbLine
 10
252.2494884554
 20
157.133009364
 30
0.0
 11
265.5727932867
 21
157.133009364
 31
0.0
  0
MTEXT
  5
24D
330
244
100
AcDbEntity
  8
DEFAULT_LAYER
100
AcDbMText
 10
254.2839045343
 20
159.8615359925
 30
0.0
 40
2.1166666667
 41
0.0
 71
     1
 72
     1
  1
10.5
  7
SLDTEXTSTYLE0
 73
     1
 44
1.0
  0
MTEXT
  5
24E
330
244
100
AcDbEntity
  8
DEFAULT_LAYER
100
AcDbMText
 10
261.1851197438
 20
159.8615359925
 30
0.0
 40
2.1166666667
 41
0.0
 71
     1
 72
     1
  1
±4
  7
SLDTEXTSTYLE0
 73
     1
 44
1.0
  0
ENDBLK
  5
246
330
244
100
AcDbEntity
  8
0
100
AcDbBlockEnd
  0
BLOCK
  5
252
330
251
100
AcDbEntity
  8
0
100
AcDbBlockBegin
  2
_D_6
 70
     0
 10
0.0
 20
0.0
 30
0.0
  3
_D_6
  1

  0
INSERT
  5
254
330
251
100
AcDbEntity
  8
DEFAULT_LAYER
100
AcDbBlockReference
  2
_OPEN30
 10
218.8494884554
 20
76.3740582975
 30
0.0
 41
2.5
 42
2.5
 50
180.0
  0
INSERT
  5
255
330
251
100
AcDbEntity
  8
DEFAULT_LAYER
100
AcDbBlockReference
  2
_OPEN30
 10
241.0400616254
 20
76.3740582975
 30
0.0
 41
2.5
 42
2.5
 50
0.0
  0
LINE
  5
256
330
251
100
AcDbEntity
  8
DEFAULT_LAYER
100
AcDbLine
 10
218.8494884554
 20
83.6322011272
 30
0.0
 11
218.8494884554
 21
75.3740582975
 31
0.0
  0
LINE
  5
257
330
251
100
AcDbEntity
  8
DEFAULT_LAYER
100
AcDbLine
 10
218.8494884554
 20
76.3740582975
 30
0.0
 11
241.0400616254
 21
76.3740582975
 31
0.0
  0
MTEXT
  5
258
330
251
100
AcDbEntity
  8
DEFAULT_LAYER
100
AcDbMText
 10
225.1500056842
 20
79.102584926
 30
0.0
 40
2.1166666667
 41
0.0
 71
     1
 72
     1
  1
23
  7
SLDTEXTSTYLE0
 73
     1
 44
1.0
  0
MTEXT
  5
259
330
251
100
AcDbEntity
  8
DEFAULT_LAYER
100
AcDbMText
 10
229.2289987056
 20
79.102584926
 30
0.0
 40
2.1166666667
 41
0.0
 71
     1
 72
     1
  1
±4
  7
SLDTEXTSTYLE0
 73
     1
 44
1.0
  0
ENDBLK
  5
253
330
251
100
AcDbEntity
  8
0
100
AcDbBlockEnd
  0
BLOCK
  5
25C
330
25B
100
AcDbEntity
  8
0
100
AcDbBlockBegin
  2
_D_7
 70
     0
 10
0.0
 20
0.0
 30
0.0
  3
_D_7
  1

  0
INSERT
  5
25E
330
25B
100
AcDbEntity
  8
DEFAULT_LAYER
100
AcDbBlockReference
  2
_OPEN30
 10
213.7445717947
 20
109.1322011272
 30
0.0
 41
2.5
 42
2.5
 50
90.0
  0
INSERT
  5
25F
330
25B
100
AcDbEntity
  8
DEFAULT_LAYER
100
AcDbBlockReference
  2
_OPEN30
 10
213.7445717947
 20
85.6322011272
 30
0.0
 41
2.5
 42
2.5
 50
270.0
  0
LINE
  5
260
330
25B
100
AcDbEntity
  8
DEFAULT_LAYER
100
AcDbLine
 10
213.7445717947
 20
109.1322011272
 30
0.0
 11
213.7445717947
 21
85.6322011272
 31
0.0
  0
MTEXT
  5
261
330
25B
100
AcDbEntity
  8
DEFAULT_LAYER
100
AcDbMText
 10
211.0160451662
 20
95.5391395919
 30
0.0
 40
2.1166666667
 41
0.0
 71
     1
 72
     1
  1
23.5
  7
SLDTEXTSTYLE0
 11
-7.044195017643634E-15
 21
1.0
 31
0.0
 73
     1
 44
1.0
  0
ENDBLK
  5
25D
330
25B
100
AcDbEntity
  8
0
100
AcDbBlockEnd
  0
BLOCK
  5
263
330
262
100
AcDbEntity
  8
0
100
AcDbBlockBegin
  2
SW_NOTE_2
 70
     0
 10
0.0
 20
0.0
 30
0.0
  3
SW_NOTE_2
  1

  0
LINE
  5
265
330
262
100
AcDbEntity
  8
DEFAULT_LAYER
 62
     0
100
AcDbLine
 10
5.4464245743
 20
0.0
 30
0.0
 11
0.0
 21
0.0
 31
0.0
  0
MTEXT
  5
266
330
262
100
AcDbEntity
  8
DEFAULT_LAYER
 62
     0
100
AcDbMText
 10
0.4908230282
 20
2.7034076638
 30
0.0
 40
2.1166666667
 41
0.0
 71
     1
 72
     1
  1
G1/2
  7
SLDTEXTSTYLE0
 73
     1
 44
1.0
  0
ENDBLK
  5
264
330
262
100
AcDbEntity
  8
0
100
AcDbBlockEnd
  0
BLOCK
  5
26D
330
26C
100
AcDbEntity
  8
0
100
AcDbBlockBegin
  2
SW_NOTE_3
 70
     0
 10
0.0
 20
0.0
 30
0.0
  3
SW_NOTE_3
  1

  0
LINE
  5
26F
330
26C
100
AcDbEntity
  8
DEFAULT_LAYER
 62
     0
100
AcDbLine
 10
-5.8424641782
 20
0.0
 30
0.0
 11
0.0
 21
0.0
 31
0.0
  0
MTEXT
  5
270
330
26C
100
AcDbEntity
  8
DEFAULT_LAYER
 62
     0
100
AcDbMText
 10
-6.2965686682
 20
2.7269318653
 30
0.0
 40
2.1166666667
 41
0.0
 71
     1
 72
     1
  1
G1/2
  7
SLDTEXTSTYLE0
 73
     1
 44
1.0
  0
ENDBLK
  5
26E
330
26C
100
AcDbEntity
  8
0
100
AcDbBlockEnd
  0
BLOCK
  5
33A
330
339
100
AcDbEntity
  8
0
100
AcDbBlockBegin
  2
SW_NOTE_4
 70
     0
 10
0.0
 20
0.0
 30
0.0
  3
SW_NOTE_4
  1

  0
LINE
  5
33C
330
339
100
AcDbEntity
  8
DEFAULT_LAYER
 62
     0
100
AcDbLine
 10
-5.8424641782
 20
0.0
 30
0.0
 11
0.0
 21
0.0
 31
0.0
  0
MTEXT
  5
33D
330
339
100
AcDbEntity
  8
DEFAULT_LAYER
 62
     0
100
AcDbMText
 10
-6.1844428354
 20
2.8633271102
 30
0.0
 40
2.1166666667
 41
0.0
 71
     1
 72
     1
  1
TOTO
  7
SLDTEXTSTYLE0
 73
     1
 44
1.0
  0
ENDBLK
  5
33B
330
339
100
AcDbEntity
  8
0
100
AcDbBlockEnd
  0
ENDSEC
  0
SECTION
  2
ENTITIES
  0
HATCH
  5
E3
330
1F
100
AcDbEntity
  8
0
  6
Continuous
 62
     7
100
AcDbHatch
 10
0.0
 20
0.0
 30
0.0
210
0.0
220
0.0
230
1.0
  2
0_TOTO_Metal
 70
     0
 71
     0
 91
        1
 92
        0
 93
        1
 72
     2
 10
210.0
 20
288.5
 40
0.6999999999999784
 50
0.0
 51
360.0
 73
     1
 97
        0
 75
     0
 76
     2
 52
0.0
 41
0.0625
 77
     0
 78
     1
 53
45.00000209717174
 43
0.0
 44
0.0
 45
-0.1324587826340992
 46
0.1324587729374407
 79
     0
 98
        1
 10
0.0
 20
0.0
  0
HATCH
  5
E4
330
1F
100
AcDbEntity
  8
0
  6
Continuous
 62
     7
100
AcDbHatch
 10
0.0
 20
0.0
 30
0.0
210
0.0
220
0.0
230
1.0
  2
0_TOTO_Metal
 70
     0
 71
     0
 91
        1
 92
        0
 93
        1
 72
     2
 10
315.0
 20
288.5
 40
0.7000000000000339
 50
0.0
 51
360.0
 73
     1
 97
        0
 75
     0
 76
     2
 52
0.0
 41
0.03125
 77
     0
 78
     1
 53
45.00000209717174
 43
0.0
 44
0.0
 45
-0.0662293913170496
 46
0.0662293864687203
 79
     0
 98
        1
 10
0.0
 20
0.0
  0
HATCH
  5
E5
330
1F
100
AcDbEntity
  8
0
  6
Continuous
 62
     7
100
AcDbHatch
 10
0.0
 20
0.0
 30
0.0
210
0.0
220
0.0
230
1.0
  2
0_TOTO_Metal
 70
     0
 71
     0
 91
        1
 92
        0
 93
        1
 72
     2
 10
315.0000000000001
 20
8.49999999999999
 40
0.7000000000000174
 50
0.0
 51
360.0
 73
     1
 97
        0
 75
     0
 76
     2
 52
0.0
 41
0.03125
 77
     0
 78
     1
 53
45.00000209717174
 43
0.0
 44
0.0
 45
-0.0662293913170496
 46
0.0662293864687203
 79
     0
 98
        1
 10
0.0
 20
0.0
  0
LINE
  5
E6
330
1F
100
AcDbEntity
  8
0
  6
Continuous
 62
     7
370
    25
100
AcDbLine
 10
328.0
 20
50.0
 30
0.0
 11
328.0
 21
10.0
 31
0.0
  0
LINE
  5
E7
330
1F
100
AcDbEntity
  8
0
  6
Continuous
 62
     7
370
    25
100
AcDbLine
 10
410.0
 20
10.0
 30
0.0
 11
410.0
 21
287.0
 31
0.0
  0
LINE
  5
E8
330
1F
100
AcDbEntity
  8
0
  6
Continuous
 62
     7
370
    25
100
AcDbLine
 10
378.0
 20
269.5
 30
0.0
 11
410.0
 21
269.5
 31
0.0
  0
LINE
  5
E9
330
1F
100
AcDbEntity
  8
0
  6
Continuous
 62
     7
370
    25
100
AcDbLine
 10
314.0
 20
50.0
 30
0.0
 11
314.0
 21
39.0
 31
0.0
  0
LINE
  5
EA
330
1F
100
AcDbEntity
  8
0
  6
Continuous
 62
     7
370
    25
100
AcDbLine
 10
20.0
 20
287.0
 30
0.0
 11
20.0
 21
291.5
 31
0.0
  0
LINE
  5
EB
330
1F
100
AcDbEntity
  8
0
  6
Continuous
 62
     7
370
    25
100
AcDbLine
 10
370.0
 20
50.0
 30
0.0
 11
370.0
 21
68.5
 31
0.0
  0
LINE
  5
EC
330
1F
100
AcDbEntity
  8
0
  6
Continuous
 62
     7
370
    25
100
AcDbLine
 10
210.0
 20
10.0
 30
0.0
 11
210.0
 21
15.0
 31
0.0
  0
LINE
  5
ED
330
1F
100
AcDbEntity
  8
0
  6
Continuous
 62
     7
370
    25
100
AcDbLine
 10
370.0
 20
68.5
 30
0.0
 11
410.0
 21
68.5
 31
0.0
  0
LINE
  5
EE
330
1F
100
AcDbEntity
  8
0
  6
Continuous
 62
     7
370
    25
100
AcDbLine
 10
210.0
 20
287.0
 30
0.0
 11
210.0
 21
282.0
 31
0.0
  0
LINE
  5
EF
330
1F
100
AcDbEntity
  8
0
  6
Continuous
 62
     7
370
    25
100
AcDbLine
 10
378.0
 20
282.0
 30
0.0
 11
410.0
 21
282.0
 31
0.0
  0
LINE
  5
F0
330
1F
100
AcDbEntity
  8
0
  6
Continuous
 62
     7
370
    25
100
AcDbLine
 10
240.0
 20
31.5
 30
0.0
 11
306.0
 21
31.5
 31
0.0
  0
LINE
  5
F1
330
1F
100
AcDbEntity
  8
0
  6
Continuous
 62
     7
370
    25
100
AcDbLine
 10
378.0
 20
277.0
 30
0.0
 11
410.0
 21
277.0
 31
0.0
  0
LINE
  5
F2
330
1F
100
AcDbEntity
  8
0
  6
Continuous
 62
     7
370
    25
100
AcDbLine
 10
378.0
 20
262.0
 30
0.0
 11
378.0
 21
287.0
 31
0.0
  0
LINE
  5
F3
330
1F
100
AcDbEntity
  8
0
  6
Continuous
 62
     7
370
    25
100
AcDbLine
 10
235.0
 20
287.0
 30
0.0
 11
235.0
 21
262.0
 31
0.0
  0
LINE
  5
F4
330
1F
100
AcDbEntity
  8
0
  6
Continuous
 62
     7
370
    25
100
AcDbLine
 10
230.0
 20
287.0
 30
0.0
 11
230.0
 21
262.0
 31
0.0
  0
LINE
  5
F5
330
1F
100
AcDbEntity
  8
0
  6
HIDDEN
 62
     7
370
    25
100
AcDbLine
 10
235.0
 20
272.0
 30
0.0
 11
378.0
 21
272.0
 31
0.0
  0
LINE
  5
F6
330
1F
100
AcDbEntity
  8
0
  6
HIDDEN
 62
     7
370
    25
100
AcDbLine
 10
235.0
 20
267.0
 30
0.0
 11
378.0
 21
267.0
 31
0.0
  0
LINE
  5
F7
330
1F
100
AcDbEntity
  8
0
  6
Continuous
 62
     7
370
    25
100
AcDbLine
 10
230.0
 20
262.0
 30
0.0
 11
410.0
 21
262.0
 31
0.0
  0
LINE
  5
F8
330
1F
100
AcDbEntity
  8
0
  6
Continuous
 62
     7
370
    25
100
AcDbLine
 10
20.0
 20
291.5
 30
0.0
 11
45.0
 21
291.5
 31
0.0
  0
LINE
  5
F9
330
1F
100
AcDbEntity
  8
0
  6
Continuous
 62
     7
370
    25
100
AcDbLine
 10
45.0
 20
291.5
 30
0.0
 11
45.0
 21
287.0
 31
0.0
  0
LINE
  5
FA
330
1F
100
AcDbEntity
  8
0
  6
Continuous
 62
     7
370
    25
100
AcDbLine
 10
286.0
 20
50.0
 30
0.0
 11
286.0
 21
39.0
 31
0.0
  0
LINE
  5
FB
330
1F
100
AcDbEntity
  8
0
  6
Continuous
 62
     7
370
    25
100
AcDbLine
 10
209.318682
 20
8.339447
 30
0.0
 11
210.160553
 21
9.181318
 31
0.0
  0
LINE
  5
FC
330
1F
100
AcDbEntity
  8
0
  6
Continuous
 62
     7
370
    25
100
AcDbLine
 10
210.0
 20
287.0
 30
0.0
 11
210.0
 21
297.0
 31
0.0
  0
LINE
  5
FD
330
1F
100
AcDbEntity
  8
0
  6
Continuous
 62
     7
370
    25
100
AcDbLine
 10
210.054152
 20
7.802124
 30
0.0
 11
210.697876
 21
8.445848
 31
0.0
  0
LINE
  5
FE
330
1F
100
AcDbEntity
  8
0
  6
Continuous
 62
     7
370
    25
100
AcDbLine
 10
20.0
 20
287.0
 30
0.0
 11
410.0
 21
287.0
 31
0.0
  0
LINE
  5
FF
330
1F
100
AcDbEntity
  8
0
  6
Continuous
 62
     7
370
    25
100
AcDbLine
 10
209.696842
 20
7.869078
 30
0.0
 11
210.630922
 21
8.803158
 31
0.0
  0
LINE
  5
100
330
1F
100
AcDbEntity
  8
0
  6
Continuous
 62
     7
370
    25
100
AcDbLine
 10
410.0
 20
10.0
 30
0.0
 11
20.0
 21
10.0
 31
0.0
  0
LINE
  5
101
330
1F
100
AcDbEntity
  8
0
  6
Continuous
 62
     7
370
    25
100
AcDbLine
 10
209.353157
 20
8.2325
 30
0.0
 11
210.2675
 21
9.146843
 31
0.0
  0
LINE
  5
102
330
1F
100
AcDbEntity
  8
0
  6
Continuous
 62
     7
370
    25
100
AcDbLine
 10
410.0
 20
50.0
 30
0.0
 11
240.0
 21
50.0
 31
0.0
  0
LINE
  5
103
330
1F
100
AcDbEntity
  8
0
  6
Continuous
 62
     7
370
    25
100
AcDbLine
 10
25.0
 20
148.5
 30
0.0
 11
0.0
 21
148.5
 31
0.0
  0
LINE
  5
104
330
1F
100
AcDbEntity
  8
0
  6
Continuous
 62
     7
370
    25
100
AcDbLine
 10
240.0
 20
39.0
 30
0.0
 11
328.0
 21
39.0
 31
0.0
  0
LINE
  5
105
330
1F
100
AcDbEntity
  8
0
  6
Continuous
 62
     7
370
    25
100
AcDbLine
 10
20.0
 20
10.0
 30
0.0
 11
20.0
 21
287.0
 31
0.0
  0
LINE
  5
106
330
1F
100
AcDbEntity
  8
0
  6
Continuous
 62
     7
370
    25
100
AcDbLine
 10
410.0
 20
27.0
 30
0.0
 11
328.0
 21
27.0
 31
0.0
  0
LINE
  5
107
330
1F
100
AcDbEntity
  8
0
  6
Continuous
 62
     7
370
    25
100
AcDbLine
 10
405.0
 20
148.5
 30
0.0
 11
420.0
 21
148.5
 31
0.0
  0
LINE
  5
108
330
1F
100
AcDbEntity
  8
0
  6
Continuous
 62
     7
370
    25
100
AcDbLine
 10
306.0
 20
39.0
 30
0.0
 11
306.0
 21
24.0
 31
0.0
  0
LINE
  5
109
330
1F
100
AcDbEntity
  8
0
  6
Continuous
 62
     7
370
    25
100
AcDbLine
 10
209.309165
 20
8.612772
 30
0.0
 11
209.887228
 21
9.190835
 31
0.0
  0
LINE
  5
10A
330
1F
100
AcDbEntity
  8
0
  6
Continuous
 62
     7
370
    25
100
AcDbLine
 10
209.607054
 20
7.920712
 30
0.0
 11
210.579288
 21
8.892946
 31
0.0
  0
LINE
  5
10B
330
1F
100
AcDbEntity
  8
0
  6
Continuous
 62
     7
370
    25
100
AcDbLine
 10
209.459151
 20
8.055651
 30
0.0
 11
210.444349
 21
9.040849
 31
0.0
  0
LINE
  5
10C
330
1F
100
AcDbEntity
  8
0
  6
Continuous
 62
     7
370
    25
100
AcDbLine
 10
240.0
 20
50.0
 30
0.0
 11
240.0
 21
10.0
 31
0.0
  0
LINE
  5
10D
330
1F
100
AcDbEntity
  8
0
  6
Continuous
 62
     7
370
    25
100
AcDbLine
 10
210.233608
 20
7.840159
 30
0.0
 11
210.659841
 21
8.266392
 31
0.0
  0
LINE
  5
10E
330
1F
100
AcDbEntity
  8
0
  6
Continuous
 62
     7
370
    25
100
AcDbLine
 10
209.400579
 20
8.138501
 30
0.0
 11
210.361499
 21
9.099421
 31
0.0
  0
LINE
  5
10F
330
1F
100
AcDbEntity
  8
0
  6
Continuous
 62
     7
370
    25
100
AcDbLine
 10
398.0
 20
10.0
 30
0.0
 11
398.0
 21
18.5
 31
0.0
  0
LINE
  5
110
330
1F
100
AcDbEntity
  8
0
  6
Continuous
 62
     7
370
    25
100
AcDbLine
 10
240.0
 20
24.0
 30
0.0
 11
328.0
 21
24.0
 31
0.0
  0
LINE
  5
111
330
1F
100
AcDbEntity
  8
0
  6
Continuous
 62
     7
370
    25
100
AcDbLine
 10
272.0
 20
24.0
 30
0.0
 11
272.0
 21
39.0
 31
0.0
  0
LINE
  5
112
330
1F
100
AcDbEntity
  8
0
  6
Continuous
 62
     7
370
    25
100
AcDbLine
 10
209.915708
 20
7.805102
 30
0.0
 11
210.694898
 21
8.584292
 31
0.0
  0
LINE
  5
113
330
1F
100
AcDbEntity
  8
0
  6
Continuous
 62
     7
370
    25
100
AcDbLine
 10
210.0
 20
10.0
 30
0.0
 11
210.0
 21
0.0
 31
0.0
  0
LINE
  5
114
330
1F
100
AcDbEntity
  8
0
  6
Continuous
 62
     7
370
    25
100
AcDbLine
 10
300.0
 20
50.0
 30
0.0
 11
300.0
 21
39.0
 31
0.0
  0
LINE
  5
115
330
1F
100
AcDbEntity
  8
0
  6
Continuous
 62
     7
370
    25
100
AcDbLine
 10
209.300972
 20
8.463158
 30
0.0
 11
210.036842
 21
9.199028
 31
0.0
  0
LINE
  5
116
330
1F
100
AcDbEntity
  8
0
  6
Continuous
 62
     7
370
    25
100
AcDbLine
 10
410.0
 20
18.5
 30
0.0
 11
328.0
 21
18.5
 31
0.0
  0
LINE
  5
117
330
1F
100
AcDbEntity
  8
0
  6
Continuous
 62
     7
370
    25
100
AcDbLine
 10
209.798759
 20
7.829574
 30
0.0
 11
210.670426
 21
8.701241
 31
0.0
  0
LINE
  5
118
330
1F
100
AcDbEntity
  8
0
  6
Continuous
 62
     7
370
    25
100
AcDbLine
 10
209.380129
 20
8.825158
 30
0.0
 11
209.674842
 21
9.119871
 31
0.0
  0
LINE
  5
119
330
1F
100
AcDbEntity
  8
0
  6
Continuous
 62
     7
370
    25
100
AcDbLine
 10
209.528014
 20
7.983093
 30
0.0
 11
210.516907
 21
8.971986
 31
0.0
  0
LINE
  5
11A
330
1F
100
AcDbEntity
  8
0
  6
HIDDEN
 62
     7
370
    25
100
AcDbLine
 10
235.0
 20
282.0
 30
0.0
 11
378.0
 21
282.0
 31
0.0
  0
LINE
  5
11B
330
1F
100
AcDbEntity
  8
0
  6
HIDDEN
 62
     7
370
    25
100
AcDbLine
 10
235.0
 20
277.0
 30
0.0
 11
378.0
 21
277.0
 31
0.0
  0
CIRCLE
  5
11C
330
1F
100
AcDbEntity
  8
0
  6
Continuous
 62
     7
370
    25
100
AcDbCircle
 10
315.0
 20
8.5
 30
0.0
 40
0.6999999999999975
  0
CIRCLE
  5
11D
330
1F
100
AcDbEntity
  8
0
  6
Continuous
 62
     7
370
    25
100
AcDbCircle
 10
315.0
 20
288.5
 30
0.0
 40
0.7000000000000455
  0
CIRCLE
  5
11E
330
1F
100
AcDbEntity
  8
0
  6
Continuous
 62
     7
370
    25
100
AcDbCircle
 10
210.0
 20
288.5
 30
0.0
 40
0.6999999999999602
  0
CIRCLE
  5
11F
330
1F
100
AcDbEntity
  8
0
  6
Continuous
 62
     7
370
    25
100
AcDbCircle
 10
210.0
 20
8.5
 30
0.0
 40
0.6999999999999602
  0
INSERT
  5
120
330
1F
100
AcDbEntity
  8
0
  6
Continuous
 62
     7
100
AcDbBlockReference
  2
ﾌﾞﾛｯｸ7
 10
287.4
 20
41.9
 30
0.0
  0
INSERT
  5
121
330
1F
100
AcDbEntity
  8
LOGO
100
AcDbBlockReference
  2
ﾌﾞﾛｯｸ5
 10
250.6568067551
 20
41.4848012428
 30
0.0
  0
INSERT
  5
128
330
1F
100
AcDbEntity
  8
DEFAULT_LAYER
100
AcDbBlockReference
  2
SW_NOTE_0
 10
345.8926530197
 20
38.3727993672
 30
0.0
  0
MTEXT
  5
129
330
1F
100
AcDbEntity
  8
DEFAULT_LAYER
100
AcDbMText
 10
354.547540366
 20
16.1487169092
 30
0.0
 40
3.175
 41
0.0
 71
     1
 72
     1
  1
TBW08010
  7
SLDTEXTSTYLE0
 73
     1
 44
1.0
  0
MTEXT
  5
12A
330
1F
100
AcDbEntity
  8
DEFAULT_LAYER
100
AcDbMText
 10
250.8959365753
 20
35.8199316528
 30
0.0
 40
2.1166666667
 41
0.0
 71
     1
 72
     1
  1
岡本
  7
SLDTEXTSTYLE0
 73
     1
 44
1.0
  0
MTEXT
  5
12B
330
1F
100
AcDbEntity
  8
DEFAULT_LAYER
100
AcDbMText
 10
283.681073283
 20
35.8199316528
 30
0.0
 40
2.1166666667
 41
0.0
 71
     1
 72
     1
  1
岩男
  7
SLDTEXTSTYLE0
 73
     1
 44
1.0
  0
MTEXT
  5
12C
330
1F
100
AcDbEntity
  8
DEFAULT_LAYER
100
AcDbMText
 10
250.8959365753
 20
28.910100231
 30
0.0
 40
2.1166666667
 41
0.0
 71
     1
 72
     1
  1
小薗
  7
SLDTEXTSTYLE0
 73
     1
 44
1.0
  0
MTEXT
  5
12D
330
1F
100
AcDbEntity
  8
DEFAULT_LAYER
100
AcDbMText
 10
283.681073283
 20
28.910100231
 30
0.0
 40
2.1166666667
 41
0.0
 71
     1
 72
     1
  1
芝田
  7
SLDTEXTSTYLE0
 73
     1
 44
1.0
  0
MTEXT
  5
12E
330
1F
100
AcDbEntity
  8
0
  6
Continuous
 62
     7
370
     0
100
AcDbMText
 10
378.3689681642
 20
286.1612523228
 30
0.0
 40
2.5
 41
0.0
 71
     1
 72
     1
  1
REV.NO
  7
SLDTEXTSTYLE0
 73
     1
 44
1.0
  0
MTEXT
  5
12F
330
1F
100
AcDbEntity
  8
0
  6
Continuous
 62
     7
370
     0
100
AcDbMText
 10
378.3658588642
 20
281.2712982284
 30
0.0
 40
2.5
 41
0.0
 71
     1
 72
     1
  1
DATE
  7
SLDTEXTSTYLE0
 73
     1
 44
1.0
  0
MTEXT
  5
130
330
1F
100
AcDbEntity
  8
0
  6
Continuous
 62
     7
370
     0
100
AcDbMText
 10
378.3658588642
 20
277.0683627146
 30
0.0
 40
2.5
 41
0.0
 71
     1
 72
     1
  1
DS.BY
  7
SLDTEXTSTYLE0
 73
     1
 44
1.0
  0
MTEXT
  5
131
330
1F
100
AcDbEntity
  8
0
  6
Continuous
 62
     7
370
     0
100
AcDbMText
 10
378.3906460572
 20
269.5791272083
 30
0.0
 40
2.5
 41
0.0
 71
     1
 72
     1
  1
CH.BY
  7
SLDTEXTSTYLE0
 73
     1
 44
1.0
  0
INSERT
  5
13E
330
1F
100
AcDbEntity
  8
0
  6
Continuous
 62
     7
370
     0
100
AcDbBlockReference
  2
SW_NOTE_1
 10
231.7145551078
 20
283.9911451355
 30
0.0
  0
MTEXT
  5
13F
330
1F
100
AcDbEntity
  8
0
  6
Continuous
 62
     7
370
     0
100
AcDbMText
 10
407.2196387195
 20
9.0891905269
 30
0.0
 40
2.5
 41
0.0
 71
     1
 72
     1
  1
A3
  7
SLDTEXTSTYLE0
 73
     1
 44
1.0
  0
MTEXT
  5
140
330
1F
100
AcDbEntity
  8
0
  6
Continuous
 62
     7
370
     0
100
AcDbMText
 10
21.8497624408
 20
291.2293635269
 30
0.0
 40
3.0
 41
0.0
 71
     1
 72
     1
  1
CONFIDENTIAL
  7
SLDTEXTSTYLE0
 73
     1
 44
1.0
  0
MTEXT
  5
141
330
1F
100
AcDbEntity
  8
0
  6
Continuous
 62
     7
370
     0
100
AcDbMText
 10
398.3417137658
 20
18.5731820894
 30
0.0
 40
2.5
 41
0.0
 71
     1
 72
     1
  1
PAGE
  7
SLDTEXTSTYLE0
 73
     1
 44
1.0
  0
MTEXT
  5
142
330
1F
100
AcDbEntity
  8
0
  6
Continuous
 62
     7
370
     0
100
AcDbMText
 10
328.3644834083
 20
50.0730110094
 30
0.0
 40
2.5
 41
0.0
 71
     1
 72
     1
  1
TITLE
  7
SLDTEXTSTYLE0
 73
     1
 44
1.0
  0
MTEXT
  5
143
330
1F
100
AcDbEntity
  8
0
  6
Continuous
 62
     7
370
     0
100
AcDbMText
 10
328.3638097261
 20
18.5732069919
 30
0.0
 40
2.5
 41
0.0
 71
     1
 72
     1
  1
DRAWING NO.
  7
SLDTEXTSTYLE0
 73
     1
 44
1.0
  0
MTEXT
  5
144
330
1F
100
AcDbEntity
  8
0
  6
Continuous
 62
     7
370
     0
100
AcDbMText
 10
306.3641561632
 20
39.0707213285
 30
0.0
 40
2.5
 41
0.0
 71
     1
 72
     1
  1
DATE
  7
SLDTEXTSTYLE0
 73
     1
 44
1.0
  0
MTEXT
  5
145
330
1F
100
AcDbEntity
  8
0
  6
Continuous
 62
     7
370
     0
100
AcDbMText
 10
300.365304593
 20
50.0718888249
 30
0.0
 40
2.5
 41
0.0
 71
     1
 72
     1
  1
UNIT
  7
SLDTEXTSTYLE0
 73
     1
 44
1.0
  0
MTEXT
  5
146
330
1F
100
AcDbEntity
  8
0
  6
Continuous
 62
     7
370
     0
100
AcDbMText
 10
314.388127961
 20
50.0705338539
 30
0.0
 40
2.5
 41
0.0
 71
     1
 72
     1
  1
SCALE
  7
SLDTEXTSTYLE0
 73
     1
 44
1.0
  0
MTEXT
  5
147
330
1F
100
AcDbEntity
  8
0
  6
Continuous
 62
     7
370
     0
100
AcDbMText
 10
272.4638995124
 20
31.5690558399
 30
0.0
 40
2.5
 41
0.0
 71
     1
 72
     1
  1
AP.BY
  7
SLDTEXTSTYLE0
 73
     1
 44
1.0
  0
MTEXT
  5
148
330
1F
100
AcDbEntity
  8
0
  6
Continuous
 62
     7
370
     0
100
AcDbMText
 10
240.3869600063
 20
31.5725040447
 30
0.0
 40
2.5
 41
0.0
 71
     1
 72
     1
  1
CH.BY
  7
SLDTEXTSTYLE0
 73
     1
 44
1.0
  0
MTEXT
  5
149
330
1F
100
AcDbEntity
  8
0
  6
Continuous
 62
     7
370
     0
100
AcDbMText
 10
272.3653612469
 20
39.0704699215
 30
0.0
 40
2.5
 41
0.0
 71
     1
 72
     1
  1
DS.BY
  7
SLDTEXTSTYLE0
 73
     1
 44
1.0
  0
MTEXT
  5
14A
330
1F
100
AcDbEntity
  8
0
  6
Continuous
 62
     7
370
     0
100
AcDbMText
 10
240.3670967154
 20
39.0698671351
 30
0.0
 40
2.5
 41
0.0
 71
     1
 72
     1
  1
DR.BY
  7
SLDTEXTSTYLE0
 73
     1
 44
1.0
  0
MTEXT
  5
14B
330
1F
100
AcDbEntity
  8
0
  6
Continuous
 62
     7
370
     0
100
AcDbMText
 10
240.3906156425
 20
24.0730489075
 30
0.0
 40
2.5
 41
0.0
 71
     1
 72
     1
  1
COMMENTS
  7
SLDTEXTSTYLE0
 73
     1
 44
1.0
  0
MTEXT
  5
14C
330
1F
100
AcDbEntity
  8
0
  6
Continuous
 62
     7
370
     0
100
AcDbMText
 10
328.0371947157
 20
27.072287341
 30
0.0
 40
2.5
 41
0.0
 71
     1
 72
     1
  1
ITEM NO.
  7
SLDTEXTSTYLE0
 73
     1
 44
1.0
  0
MTEXT
  5
14D
330
1F
100
AcDbEntity
  8
0
  6
Continuous
 62
     7
370
     0
100
AcDbMText
 10
302.6517362517
 20
45.8859945588
 30
0.0
 40
3.5
 41
0.0
 71
     1
 72
     1
  1
ｍｍ
  7
SLDTEXTSTYLE0
 73
     1
 44
1.0
  0
MTEXT
  5
14E
330
1F
100
AcDbEntity
  8
0
  6
Continuous
 62
     7
370
     0
100
AcDbMText
 10
321.0903304816
 20
45.4360993895
 30
0.0
 40
3.5
 41
0.0
 71
     2
 72
     1
  1
1:1
  7
SLDTEXTSTYLE0
 73
     1
 44
1.0
  0
MTEXT
  5
14F
330
1F
100
AcDbEntity
  8
0
  6
Continuous
 62
     7
370
     0
100
AcDbMText
 10
317.2178479074
 20
32.4989359241
 30
0.0
 40
3.5
 41
0.0
 71
     2
 72
     1
  1
2021/12/21
  7
SLDTEXTSTYLE0
 73
     1
 44
1.0
  0
MTEXT
  5
150
330
1F
100
AcDbEntity
  8
0
  6
Continuous
 62
     7
370
     0
100
AcDbMText
 10
405.9431973506
 20
15.0868071218
 30
0.0
 40
3.5
 41
0.0
 71
     1
 72
     1
  1
1
  7
SLDTEXTSTYLE0
 73
     1
 44
1.0
  0
MTEXT
  5
151
330
1F
100
AcDbEntity
  8
0
  6
Continuous
 62
     7
370
     0
100
AcDbMText
 10
400.3097798698
 20
15.0868071218
 30
0.0
 40
3.5
 41
0.0
 71
     1
 72
     1
  1
1
  7
SLDTEXTSTYLE0
 73
     1
 44
1.0
  0
MTEXT
  5
152
330
1F
100
AcDbEntity
  8
0
  6
Continuous
 62
     7
370
     0
100
AcDbMText
 10
403.3709836287
 20
14.3546296644
 30
0.0
 40
2.5
 41
0.0
 71
     1
 72
     1
  1
/
  7
SLDTEXTSTYLE0
 73
     1
 44
1.0
  0
LINE
  5
153
330
1F
100
AcDbEntity
  8
0
  6
Continuous
 62
     7
370
    25
100
AcDbLine
 10
107.3409483646
 20
86.7942019323
 30
0.0
 11
107.3409483646
 21
90.1322017381
 31
0.0
  0
LINE
  5
154
330
1F
100
AcDbEntity
  8
0
  6
Continuous
 62
     7
370
    25
100
AcDbLine
 10
86.3859482919
 20
90.1322017381
 30
0.0
 11
86.3859482919
 21
86.7942019323
 31
0.0
  0
LINE
  5
155
330
1F
100
AcDbEntity
  8
0
  6
Continuous
 62
     7
370
    25
100
AcDbLine
 10
86.3859482919
 20
86.7942019323
 30
0.0
 11
87.5479482924
 21
85.6322019318
 31
0.0
  0
LINE
  5
156
330
1F
100
AcDbEntity
  8
0
  6
Continuous
 62
     7
370
    25
100
AcDbLine
 10
106.1789483642
 20
85.6322019318
 30
0.0
 11
107.3409483646
 21
86.7942019323
 31
0.0
  0
CIRCLE
  5
157
330
1F
100
AcDbEntity
  8
0
  6
Continuous
 62
     7
370
    25
100
AcDbCircle
 10
96.8634483283
 20
119.3322011272
 30
0.0
 40
6.200000000000006
  0
CIRCLE
  5
158
330
1F
100
AcDbEntity
  8
0
  6
Continuous
 62
     7
370
    25
100
AcDbCircle
 10
96.8634483283
 20
98.9322011272
 30
0.0
 40
6.200000000000001
  0
LINE
  5
159
330
1F
100
AcDbEntity
  8
0
  6
Continuous
 62
     7
370
    25
100
AcDbLine
 10
106.3634480228
 20
90.9322003791
 30
0.0
 11
106.3634480228
 21
127.3322018752
 31
0.0
  0
LINE
  5
15A
330
1F
100
AcDbEntity
  8
0
  6
Continuous
 62
     7
370
    25
100
AcDbLine
 10
87.3634486337
 20
90.9322003791
 30
0.0
 11
87.3634486337
 21
127.3322018752
 31
0.0
  0
LINE
  5
15B
330
1F
100
AcDbEntity
  8
0
  6
Continuous
 62
     7
370
    25
100
AcDbLine
 10
86.5634481301
 20
128.1322005162
 30
0.0
 11
85.3634483059
 21
128.1322005162
 31
0.0
  0
ARC
  5
15C
330
1F
100
AcDbEntity
  8
0
  6
Continuous
 62
     7
370
    25
100
AcDbCircle
 10
86.5634483283
 20
127.3322011272
 30
0.0
 40
0.8000000000000114
100
AcDbArc
 50
0.0
 51
90.0
  0
LINE
  5
15D
330
1F
100
AcDbEntity
  8
0
  6
Continuous
 62
     7
370
    25
100
AcDbLine
 10
108.3634483506
 20
90.1322017381
 30
0.0
 11
107.1634485265
 21
90.1322017381
 31
0.0
  0
ARC
  5
15E
330
1F
100
AcDbEntity
  8
0
  6
Continuous
 62
     7
370
    25
100
AcDbCircle
 10
107.1634483283
 20
90.9322011272
 30
0.0
 40
0.8000000000000114
100
AcDbArc
 50
180.0
 51
270.0
  0
ARC
  5
15F
330
1F
100
AcDbEntity
  8
0
  6
Continuous
 62
     7
370
    25
100
AcDbCircle
 10
79.8634483283
 20
126.1322011272
 30
0.0
 40
2.0
100
AcDbArc
 50
90.0
 51
180.0
  0
LINE
  5
160
330
1F
100
AcDbEntity
  8
0
  6
Continuous
 62
     7
370
    25
100
AcDbLine
 10
77.8634489392
 20
126.1322020511
 30
0.0
 11
77.8634489392
 21
92.1322002033
 31
0.0
  0
ARC
  5
161
330
1F
100
AcDbEntity
  8
0
  6
Continuous
 62
     7
370
    25
100
AcDbCircle
 10
107.1634483283
 20
127.3322011272
 30
0.0
 40
0.8000000000000114
100
AcDbArc
 50
90.0
 51
180.0
  0
LINE
  5
162
330
1F
100
AcDbEntity
  8
0
  6
Continuous
 62
     7
370
    25
100
AcDbLine
 10
107.1634485265
 20
128.1322005162
 30
0.0
 11
108.3634483506
 21
128.1322005162
 31
0.0
  0
LINE
  5
163
330
1F
100
AcDbEntity
  8
0
  6
Continuous
 62
     7
370
    25
100
AcDbLine
 10
108.3634483506
 20
128.1322005162
 30
0.0
 11
113.8634492521
 21
128.1322005162
 31
0.0
  0
LINE
  5
164
330
1F
100
AcDbEntity
  8
0
  6
Continuous
 62
     7
370
    25
100
AcDbLine
 10
115.8634477173
 20
126.1322020511
 30
0.0
 11
115.8634477173
 21
92.1322002033
 31
0.0
  0
ARC
  5
165
330
1F
100
AcDbEntity
  8
0
  6
Continuous
 62
     7
370
    25
100
AcDbCircle
 10
86.5634483283
 20
90.9322011272
 30
0.0
 40
0.8000000000000114
100
AcDbArc
 50
270.0
 51
0.0
  0
LINE
  5
166
330
1F
100
AcDbEntity
  8
0
  6
Continuous
 62
     7
370
    25
100
AcDbLine
 10
85.3634483059
 20
90.1322017381
 30
0.0
 11
86.5634481301
 21
90.1322017381
 31
0.0
  0
ARC
  5
167
330
1F
100
AcDbEntity
  8
0
  6
Continuous
 62
     7
370
    25
100
AcDbCircle
 10
113.8634483283
 20
92.1322011272
 30
0.0
 40
2.0
100
AcDbArc
 50
270.0
 51
0.0
  0
ARC
  5
168
330
1F
100
AcDbEntity
  8
0
  6
Continuous
 62
     7
370
    25
100
AcDbCircle
 10
79.8634483283
 20
92.1322011272
 30
0.0
 40
2.0
100
AcDbArc
 50
180.0
 51
270.0
  0
LINE
  5
169
330
1F
100
AcDbEntity
  8
0
  6
Continuous
 62
     7
370
    25
100
AcDbLine
 10
113.8634492521
 20
90.1322017381
 30
0.0
 11
108.3634483506
 21
90.1322017381
 31
0.0
  0
ARC
  5
16A
330
1F
100
AcDbEntity
  8
0
  6
Continuous
 62
     7
370
    25
100
AcDbCircle
 10
113.8634483283
 20
126.1322011272
 30
0.0
 40
2.0
100
AcDbArc
 50
0.0
 51
90.0
  0
LINE
  5
16B
330
1F
100
AcDbEntity
  8
0
  6
Continuous
 62
     7
370
    25
100
AcDbLine
 10
85.3634483059
 20
128.1322005162
 30
0.0
 11
79.8634474044
 21
128.1322005162
 31
0.0
  0
LINE
  5
16C
330
1F
100
AcDbEntity
  8
0
  6
Continuous
 62
     7
370
    25
100
AcDbLine
 10
79.8634474044
 20
90.1322017381
 30
0.0
 11
85.3634483059
 21
90.1322017381
 31
0.0
  0
LINE
  5
16D
330
1F
100
AcDbEntity
  8
0
  6
Continuous
 62
     7
370
    25
100
AcDbLine
 10
86.5634481301
 20
128.1322005162
 30
0.0
 11
107.1634485265
 21
128.1322005162
 31
0.0
  0
LINE
  5
16E
330
1F
100
AcDbEntity
  8
0
  6
Continuous
 62
     7
370
    25
100
AcDbLine
 10
87.3634486337
 20
123.1322015593
 30
0.0
 11
91.8385104155
 21
123.1322015593
 31
0.0
  0
LINE
  5
16F
330
1F
100
AcDbEntity
  8
0
  6
Continuous
 62
     7
370
    25
100
AcDbLine
 10
106.3634480228
 20
123.1322015593
 30
0.0
 11
101.8883862411
 21
123.1322015593
 31
0.0
  0
SPLINE
  5
170
330
1F
100
AcDbEntity
  8
0
  6
Continuous
 62
     7
370
    25
100
AcDbSpline
210
0.0
220
0.0
230
1.0
 70
     8
 71
     3
 72
    18
 73
    14
 74
     0
 42
0.000000001
 43
0.00000001
 40
0.0
 40
0.0
 40
0.0
 40
0.0
 40
0.0950446167286873
 40
0.1900450905358707
 40
0.2856897475353314
 40
0.3812323609206304
 40
0.4998637311013557
 40
0.5790204758956939
 40
0.658206118865334
 40
0.7370406566354676
 40
0.815922290588144
 40
0.9079423142006187
 40
1.0
 40
1.0
 40
1.0
 40
1.0
 10
101.8883862410938
 20
123.1322015593123
 30
0.0
 10
101.6596328448749
 20
123.4055069255934
 30
0.0
 10
101.2022322956266
 20
123.9519907230619
 30
0.0
 10
100.3432029281368
 20
124.6201542511908
 30
0.0
 10
99.36795842395793
 20
125.1479875185085
 30
0.0
 10
98.20285661957152
 20
125.5332479559473
 30
0.0
 10
97.02126295488871
 20
125.6691076692982
 30
0.0
 10
95.90943890999624
 20
125.5825597151011
 30
0.0
 10
94.98656124902696
 20
125.3709070886953
 30
0.0
 10
94.12112563965967
 20
125.0284393132209
 30
0.0
 10
93.28684259539818
 20
124.5478076044998
 30
0.0
 10
92.50166881353843
 20
123.9272194295772
 30
0.0
 10
92.0595933642686
 20
123.3972436603069
 30
0.0
 10
91.83851041545024
 20
123.1322015593123
 30
0.0
  0
LINE
  5
171
330
1F
100
AcDbEntity
  8
0
  6
Continuous
 62
     7
370
    25
100
AcDbLine
 10
87.3634486337
 20
103.132201075
 30
0.0
 11
92.1677054716
 21
103.132201075
 31
0.0
  0
SPLINE
  5
172
330
1F
100
AcDbEntity
  8
0
  6
Continuous
 62
     7
370
    25
100
AcDbSpline
210
0.0
220
0.0
230
1.0
 70
     8
 71
     3
 72
    21
 73
    17
 74
     0
 42
0.000000001
 43
0.00000001
 40
0.0
 40
0.0
 40
0.0
 40
0.0
 40
0.0747399817605137
 40
0.1494336868151668
 40
0.2247167454863985
 40
0.2999249184403247
 40
0.365700605943209
 40
0.4315038490034058
 40
0.4942687982659194
 40
0.55706804508325
 40
0.6289840073295971
 40
0.700905547336308
 40
0.7807892500092154
 40
0.8606177689987636
 40
0.9303199711450284
 40
0.9999999999999999
 40
0.9999999999999999
 40
0.9999999999999999
 40
0.9999999999999999
 10
91.83851041545024
 20
123.1322015593123
 30
0.0
 10
91.64778896561965
 20
122.853849230207
 30
0.0
 10
91.26646415483441
 20
122.2973169192269
 30
0.0
 10
90.8649101979309
 20
121.3453062793767
 30
0.0
 10
90.61294797619576
 20
120.3235270853177
 30
0.0
 10
90.53595388632021
 20
119.2971501987479
 30
0.0
 10
90.6239907498821
 20
118.3134140215159
 30
0.0
 10
90.83864892299542
 20
117.4155594213767
 30
0.0
 10
91.17318328442997
 20
116.5826837019827
 30
0.0
 10
91.62691398481726
 20
115.7878982473001
 30
0.0
 10
92.21567989396729
 20
115.0418186166497
 30
0.0
 10
92.96851303191316
 20
114.3432918484943
 30
0.0
 10
93.86515574282392
 20
113.7550953666684
 30
0.0
 10
94.85249686625195
 20
113.3321521120952
 30
0.0
 10
95.86253810008827
 20
113.0799673238189
 30
0.0
 10
96.52543780730517
 20
113.0481237619139
 30
0.0
 10
96.8568349330006
 20
113.0322045138401
 30
0.0
  0
ARC
  5
173
330
1F
100
AcDbEntity
  8
0
  6
Continuous
 62
     7
370
    25
100
AcDbCircle
 10
96.8634483283
 20
119.3322011272
 30
0.0
 40
6.300000000000007
100
AcDbArc
 50
269.9398540131
 51
270.0601459869
  0
SPLINE
  5
174
330
1F
100
AcDbEntity
  8
0
  6
Continuous
 62
     7
370
    25
100
AcDbSpline
210
0.0
220
0.0
230
1.0
 70
     8
 71
     3
 72
    21
 73
    17
 74
     0
 42
0.000000001
 43
0.00000001
 40
0.0
 40
0.0
 40
0.0
 40
0.0
 40
0.0689877018898205
 40
0.1379965833604276
 40
0.2069888431817796
 40
0.2760134649659964
 40
0.3497291135321142
 40
0.423447455699596
 40
0.5034815472937015
 40
0.5834279137205989
 40
0.656270894444166
 40
0.7290905995829833
 40
0.7915280437432497
 40
0.8540043573834374
 40
0.9269814939556267
 40
0.9999999999999999
 40
0.9999999999999999
 40
0.9999999999999999
 40
0.9999999999999999
 10
96.87006172354343
 20
113.0322045138401
 30
0.0
 10
97.19815829693891
 20
113.0477878215188
 30
0.0
 10
97.85445217107248
 20
113.0789592210321
 30
0.0
 10
98.80878939125131
 20
113.3150387623621
 30
0.0
 10
99.70554868274105
 20
113.6826612849254
 30
0.0
 10
100.546340734062
 20
114.1888549538773
 30
0.0
 10
101.3077142098769
 20
114.8296216286484
 30
0.0
 10
101.9910324336507
 20
115.6201175530943
 30
0.0
 10
102.5498995432058
 20
116.5477581019399
 30
0.0
 10
102.9452583255387
 20
117.569861426378
 30
0.0
 10
103.1507069973966
 20
118.6256185481283
 30
0.0
 10
103.1820681711017
 20
119.6199817250564
 30
0.0
 10
103.0653840986217
 20
120.5475972063148
 30
0.0
 10
102.8251028043345
 20
121.4366781775304
 30
0.0
 10
102.4481585639562
 20
122.3173097671696
 30
0.0
 10
102.0750122604186
 20
122.8605196537648
 30
0.0
 10
101.8883862410938
 20
123.1322015593123
 30
0.0
  0
LINE
  5
175
330
1F
100
AcDbEntity
  8
0
  6
Continuous
 62
     7
370
    25
100
AcDbLine
 10
106.3634480228
 20
103.132201075
 30
0.0
 11
101.559191185
 21
103.132201075
 31
0.0
  0
SPLINE
  5
176
330
1F
100
AcDbEntity
  8
0
  6
Continuous
 62
     7
370
    25
100
AcDbSpline
210
0.0
220
0.0
230
1.0
 70
     8
 71
     3
 72
    17
 73
    13
 74
     0
 42
0.000000001
 43
0.00000001
 40
0.0
 40
0.0
 40
0.0
 40
0.0
 40
0.1013665273387044
 40
0.2026752382956936
 40
0.3047051158712205
 40
0.4066370326679877
 40
0.5000538339491847
 40
0.5874526215702774
 40
0.6748841035137615
 40
0.7619203371883178
 40
0.8490091633414139
 40
1.0
 40
1.0
 40
1.0
 40
1.0
 10
101.5591911849832
 20
103.1322010750246
 30
0.0
 10
101.3159052272961
 20
103.3792318996399
 30
0.0
 10
100.829472074827
 20
103.8731526500075
 30
0.0
 10
99.94451842301294
 20
104.4603940285362
 30
0.0
 10
98.95810826164161
 20
104.9061830837048
 30
0.0
 10
97.9157591348379
 20
105.1743658999101
 30
0.0
 10
96.88503593939194
 20
105.2584634764854
 30
0.0
 10
95.90800809379668
 20
105.1823333304121
 30
0.0
 10
94.98333837942887
 20
104.9705015318069
 30
0.0
 10
94.11884318150767
 20
104.6251377777755
 30
0.0
 10
93.12354067537139
 20
104.065184072084
 30
0.0
 10
92.53864687505349
 20
103.4942739731396
 30
0.0
 10
92.16770547156086
 20
103.1322010750246
 30
0.0
  0
LINE
  5
177
330
1F
100
AcDbEntity
  8
0
  6
Continuous
 62
     7
370
    25
100
AcDbLine
 10
107.1634485265
 20
90.1322017381
 30
0.0
 11
86.5634481301
 21
90.1322017381
 31
0.0
  0
SPLINE
  5
178
330
1F
100
AcDbEntity
  8
0
  6
Continuous
 62
     7
370
    25
100
AcDbSpline
210
0.0
220
0.0
230
1.0
 70
     8
 71
     3
 72
    37
 73
    33
 74
     0
 42
0.000000001
 43
0.00000001
 40
0.0
 40
0.0
 40
0.0
 40
0.0
 40
0.036255834362849
 40
0.072491233887396
 40
0.1090373961828543
 40
0.1455349238246464
 40
0.1768252964237567
 40
0.2081292167477199
 40
0.23711740718431
 40
0.2661242662290175
 40
0.2999293562622805
 40
0.3337416105249578
 40
0.3728897210223659
 40
0.4120081485549362
 40
0.4494141417144949
 40
0.4867925485527771
 40
0.4999768389158909
 40
0.5324622873968196
 40
0.5649592292800849
 40
0.5973180527800527
 40
0.6296950010414473
 40
0.6645668501050465
 40
0.6994457238332996
 40
0.7386621421956696
 40
0.7778344042543394
 40
0.8074488719516772
 40
0.837045376178706
 40
0.8666958074419864
 40
0.8963608518132551
 40
0.9256137215599047
 40
0.9548847744857357
 40
1.0
 40
1.0
 40
1.0
 40
1.0
 10
92.16770547156086
 20
103.1322010750246
 30
0.0
 10
91.95227296182571
 20
102.867088581029
 30
0.0
 10
91.52152936635736
 20
102.3370130181178
 30
0.0
 10
91.04121864176578
 20
101.4107211431966
 30
0.0
 10
90.70702173356084
 20
100.40121691963
 30
0.0
 10
90.55120809188978
 20
99.37672003569006
 30
0.0
 10
90.56520947365036
 20
98.38852311824142
 30
0.0
 10
90.70820112842826
 20
97.49292622695674
 30
0.0
 10
90.96707750937915
 20
96.66256571336118
 30
0.0
 10
91.33657976257027
 20
95.86373235794721
 30
0.0
 10
91.83594557459816
 20
95.09635461851269
 30
0.0
 10
92.50448499112812
 20
94.34424277417071
 30
0.0
 10
93.3322009926502
 20
93.67635695745449
 30
0.0
 10
94.30725236747398
 20
93.13741988816199
 30
0.0
 10
95.3660574441079
 20
92.78133384566775
 30
0.0
 10
96.23120401612911
 20
92.64770995295956
 30
0.0
 10
97.0547929952245
 20
92.62209959744337
 30
0.0
 10
97.83130815210271
 20
92.68321353054405
 30
0.0
 10
98.76768358039205
 20
92.90118575146117
 30
0.0
 10
99.64591666335606
 20
93.25494415720443
 30
0.0
 10
100.4708426092395
 20
93.73717328119052
 30
0.0
 10
101.2216478163882
 20
94.34807037056676
 30
0.0
 10
101.9094461418227
 20
95.11136584319658
 30
0.0
 10
102.4855354882831
 20
96.01860678301188
 30
0.0
 10
102.8832614379066
 20
96.98326066346536
 30
0.0
 10
103.1020154797093
 20
97.92489636880912
 30
0.0
 10
103.1834147979193
 20
98.80483891904215
 30
0.0
 10
103.1373579957468
 20
99.68926510553204
 30
0.0
 10
102.9738835929846
 20
100.5481869855357
 30
0.0
 10
102.6962630202197
 20
101.3574650377601
 30
0.0
 10
102.2624486141438
 20
102.2506743229667
 30
0.0
 10
101.8246909189721
 20
102.7993995880145
 30
0.0
 10
101.5591911849832
 20
103.1322010750246
 30
0.0
  0
ARC
  5
179
330
1F
100
AcDbEntity
  8
0
  6
Continuous
 62
     7
370
    25
100
AcDbCircle
 10
71.3634483283
 20
134.6322011272
 30
0.0
 40
2.0
100
AcDbArc
 50
90.0
 51
180.0
  0
ARC
  5
17A
330
1F
100
AcDbEntity
  8
0
  6
Continuous
 62
     7
370
    25
100
AcDbCircle
 10
122.3634483283
 20
134.6322011272
 30
0.0
 40
2.0
100
AcDbArc
 50
0.0
 51
90.0
  0
ARC
  5
17B
330
1F
100
AcDbEntity
  8
0
  6
Continuous
 62
     7
370
    25
100
AcDbCircle
 10
122.3634483283
 20
83.6322011272
 30
0.0
 40
2.0
100
AcDbArc
 50
270.0
 51
0.0
  0
LINE
  5
17C
330
1F
100
AcDbEntity
  8
0
  6
Continuous
 62
     7
370
    25
100
AcDbLine
 10
122.3634478514
 20
81.6322012762
 30
0.0
 11
71.3634488051
 21
81.6322012762
 31
0.0
  0
ARC
  5
17D
330
1F
100
AcDbEntity
  8
0
  6
Continuous
 62
     7
370
    25
100
AcDbCircle
 10
71.3634483283
 20
83.6322011272
 30
0.0
 40
2.0
100
AcDbArc
 50
180.0
 51
270.0
  0
LINE
  5
17E
330
1F
100
AcDbEntity
  8
0
  6
Continuous
 62
     7
370
    25
100
AcDbLine
 10
69.3634484773
 20
83.632201604
 30
0.0
 11
69.3634484773
 21
134.6322006503
 31
0.0
  0
LINE
  5
17F
330
1F
100
AcDbEntity
  8
0
  6
Continuous
 62
     7
370
    25
100
AcDbLine
 10
71.3634488051
 20
136.6322009782
 30
0.0
 11
122.3634478514
 21
136.6322009782
 31
0.0
  0
LINE
  5
180
330
1F
100
AcDbEntity
  8
0
  6
Continuous
 62
     7
370
    25
100
AcDbLine
 10
124.3634481793
 20
134.6322006503
 30
0.0
 11
124.3634481793
 21
83.632201604
 31
0.0
  0
LINE
  5
181
330
1F
100
AcDbEntity
  8
0
  6
Continuous
 62
     7
370
    25
100
AcDbLine
 10
106.1789483642
 20
85.6322019318
 30
0.0
 11
87.5479482924
 21
85.6322019318
 31
0.0
  0
LINE
  5
182
330
1F
100
AcDbEntity
  8
0
  6
Continuous
 62
     7
370
    25
100
AcDbLine
 10
107.3409483646
 20
86.7942019323
 30
0.0
 11
86.3859482919
 21
86.7942019323
 31
0.0
  0
LINE
  5
183
330
1F
100
AcDbEntity
  8
0
  6
Continuous
 62
     8
370
    18
100
AcDbLine
 10
106.3634480228
 20
90.9322003791
 30
0.0
 11
108.3634483506
 21
90.9322003791
 31
0.0
  0
LINE
  5
184
330
1F
100
AcDbEntity
  8
0
  6
Continuous
 62
     8
370
    18
100
AcDbLine
 10
108.3634483506
 20
127.3322018752
 30
0.0
 11
106.3634480228
 21
127.3322018752
 31
0.0
  0
LINE
  5
185
330
1F
100
AcDbEntity
  8
0
  6
Continuous
 62
     8
370
    18
100
AcDbLine
 10
108.3634483506
 20
127.3322018752
 30
0.0
 11
108.3634483506
 21
90.9322003791
 31
0.0
  0
LINE
  5
186
330
1F
100
AcDbEntity
  8
0
  6
Continuous
 62
     8
370
    18
100
AcDbLine
 10
85.3634483059
 20
127.3322018752
 30
0.0
 11
87.3634486337
 21
127.3322018752
 31
0.0
  0
LINE
  5
187
330
1F
100
AcDbEntity
  8
0
  6
Continuous
 62
     8
370
    18
100
AcDbLine
 10
87.3634486337
 20
90.9322003791
 30
0.0
 11
85.3634483059
 21
90.9322003791
 31
0.0
  0
LINE
  5
188
330
1F
100
AcDbEntity
  8
0
  6
Continuous
 62
     8
370
    18
100
AcDbLine
 10
85.3634483059
 20
127.3322018752
 30
0.0
 11
85.3634483059
 21
90.9322003791
 31
0.0
  0
LINE
  5
189
330
1F
100
AcDbEntity
  8
0
  6
Continuous
 62
     8
370
    18
100
AcDbLine
 10
85.3634483059
 20
127.3322018752
 30
0.0
 11
85.3634483059
 21
128.1322005162
 31
0.0
  0
LINE
  5
18A
330
1F
100
AcDbEntity
  8
0
  6
Continuous
 62
     8
370
    18
100
AcDbLine
 10
108.3634483506
 20
90.9322003791
 30
0.0
 11
108.3634483506
 21
90.1322017381
 31
0.0
  0
LINE
  5
18B
330
1F
100
AcDbEntity
  8
0
  6
Continuous
 62
     8
370
    18
100
AcDbLine
 10
79.8634474044
 20
127.3322018752
 30
0.0
 11
79.8634474044
 21
128.1322005162
 31
0.0
  0
ARC
  5
18C
330
1F
100
AcDbEntity
  8
0
  6
Continuous
 62
     8
370
    18
100
AcDbCircle
 10
79.8634483283
 20
126.1322011272
 30
0.0
 40
1.200000000000017
100
AcDbArc
 50
90.0
 51
180.0
  0
LINE
  5
18D
330
1F
100
AcDbEntity
  8
0
  6
Continuous
 62
     8
370
    18
100
AcDbLine
 10
78.6634475802
 20
126.1322020511
 30
0.0
 11
77.8634489392
 21
126.1322020511
 31
0.0
  0
LINE
  5
18E
330
1F
100
AcDbEntity
  8
0
  6
Continuous
 62
     8
370
    18
100
AcDbLine
 10
78.6634475802
 20
92.1322002033
 30
0.0
 11
78.6634475802
 21
126.1322020511
 31
0.0
  0
LINE
  5
18F
330
1F
100
AcDbEntity
  8
0
  6
Continuous
 62
     8
370
    18
100
AcDbLine
 10
78.6634475802
 20
92.1322002033
 30
0.0
 11
77.8634489392
 21
92.1322002033
 31
0.0
  0
LINE
  5
190
330
1F
100
AcDbEntity
  8
0
  6
Continuous
 62
     8
370
    18
100
AcDbLine
 10
108.3634483506
 20
127.3322018752
 30
0.0
 11
108.3634483506
 21
128.1322005162
 31
0.0
  0
LINE
  5
191
330
1F
100
AcDbEntity
  8
0
  6
Continuous
 62
     8
370
    18
100
AcDbLine
 10
113.8634492521
 20
127.3322018752
 30
0.0
 11
108.3634483506
 21
127.3322018752
 31
0.0
  0
LINE
  5
192
330
1F
100
AcDbEntity
  8
0
  6
Continuous
 62
     8
370
    18
100
AcDbLine
 10
113.8634492521
 20
127.3322018752
 30
0.0
 11
113.8634492521
 21
128.1322005162
 31
0.0
  0
LINE
  5
193
330
1F
100
AcDbEntity
  8
0
  6
Continuous
 62
     8
370
    18
100
AcDbLine
 10
79.8634474044
 20
127.3322018752
 30
0.0
 11
85.3634483059
 21
127.3322018752
 31
0.0
  0
LINE
  5
194
330
1F
100
AcDbEntity
  8
0
  6
Continuous
 62
     8
370
    18
100
AcDbLine
 10
85.3634483059
 20
90.9322003791
 30
0.0
 11
79.8634474044
 21
90.9322003791
 31
0.0
  0
ARC
  5
195
330
1F
100
AcDbEntity
  8
0
  6
Continuous
 62
     8
370
    18
100
AcDbCircle
 10
79.8634483283
 20
92.1322011272
 30
0.0
 40
1.200000000000003
100
AcDbArc
 50
180.0
 51
270.0
  0
LINE
  5
196
330
1F
100
AcDbEntity
  8
0
  6
Continuous
 62
     8
370
    18
100
AcDbLine
 10
115.0634490763
 20
92.1322002033
 30
0.0
 11
115.0634490763
 21
126.1322020511
 31
0.0
  0
LINE
  5
197
330
1F
100
AcDbEntity
  8
0
  6
Continuous
 62
     8
370
    18
100
AcDbLine
 10
115.0634490763
 20
126.1322020511
 30
0.0
 11
115.8634477173
 21
126.1322020511
 31
0.0
  0
LINE
  5
198
330
1F
100
AcDbEntity
  8
0
  6
Continuous
 62
     8
370
    18
100
AcDbLine
 10
115.0634490763
 20
92.1322002033
 30
0.0
 11
115.8634477173
 21
92.1322002033
 31
0.0
  0
LINE
  5
199
330
1F
100
AcDbEntity
  8
0
  6
Continuous
 62
     8
370
    18
100
AcDbLine
 10
85.3634483059
 20
90.9322003791
 30
0.0
 11
85.3634483059
 21
90.1322017381
 31
0.0
  0
ARC
  5
19A
330
1F
100
AcDbEntity
  8
0
  6
Continuous
 62
     8
370
    18
100
AcDbCircle
 10
113.8634483283
 20
92.1322011272
 30
0.0
 40
1.199999999999989
100
AcDbArc
 50
270.0
 51
0.0
  0
LINE
  5
19B
330
1F
100
AcDbEntity
  8
0
  6
Continuous
 62
     8
370
    18
100
AcDbLine
 10
113.8634492521
 20
90.9322003791
 30
0.0
 11
113.8634492521
 21
90.1322017381
 31
0.0
  0
LINE
  5
19C
330
1F
100
AcDbEntity
  8
0
  6
Continuous
 62
     8
370
    18
100
AcDbLine
 10
79.8634474044
 20
90.9322003791
 30
0.0
 11
79.8634474044
 21
90.1322017381
 31
0.0
  0
LINE
  5
19D
330
1F
100
AcDbEntity
  8
0
  6
Continuous
 62
     8
370
    18
100
AcDbLine
 10
108.3634483506
 20
90.9322003791
 30
0.0
 11
113.8634492521
 21
90.9322003791
 31
0.0
  0
ARC
  5
19E
330
1F
100
AcDbEntity
  8
0
  6
Continuous
 62
     8
370
    18
100
AcDbCircle
 10
113.8634483283
 20
126.1322011272
 30
0.0
 40
1.200000000000003
100
AcDbArc
 50
0.0
 51
90.0
  0
LINE
  5
19F
330
1F
100
AcDbEntity
  8
0
  6
Continuous
 62
     8
370
    18
100
AcDbLine
 10
106.3674182509
 20
127.4118038783
 30
0.0
 11
87.3594784056
 21
127.4118038783
 31
0.0
  0
LINE
  5
1A0
330
1F
100
AcDbEntity
  8
0
  6
Continuous
 62
     8
370
    18
100
AcDbLine
 10
87.3634486337
 20
90.9322003791
 30
0.0
 11
106.3634480228
 21
90.9322003791
 31
0.0
  0
LINE
  5
1A1
330
1F
100
AcDbEntity
  8
0
  6
Continuous
 62
     8
370
    18
100
AcDbLine
 10
113.8634492521
 20
90.1322017381
 30
0.0
 11
113.8634492521
 21
88.1322014103
 31
0.0
  0
LINE
  5
1A2
330
1F
100
AcDbEntity
  8
0
  6
Continuous
 62
     8
370
    18
100
AcDbLine
 10
113.8634492521
 20
88.1322014103
 30
0.0
 11
109.0107361664
 21
88.1322014103
 31
0.0
  0
SPLINE
  5
1A3
330
1F
100
AcDbEntity
  8
0
  6
Continuous
 62
     8
370
    18
100
AcDbSpline
210
0.0
220
0.0
230
1.0
 70
    24
 71
     3
 72
    11
 73
     7
 74
     0
 42
0.000000001
 43
0.00000001
 40
0.0
 40
0.0
 40
0.0
 40
0.0
 40
0.1774272439313331
 40
0.4516182138613946
 40
0.7258091837914561
 40
1.0
 40
1.0
 40
1.0
 40
1.0
 10
109.010736166433
 20
90.07847373879672
 30
0.0
 10
109.010736166433
 20
90.0563160690309
 30
0.0
 10
109.010736166433
 20
89.999916572419
 30
0.0
 10
109.010736166433
 20
89.57565559246412
 30
0.0
 10
109.010736166433
 20
88.91938782042386
 30
0.0
 10
109.010736166433
 20
88.39459683130559
 30
0.0
 10
109.010736166433
 20
88.13220141030074
 30
0.0
  0
LINE
  5
1A4
330
1F
100
AcDbEntity
  8
0
  6
Continuous
 62
     8
370
    18
100
AcDbLine
 10
84.7161604901
 20
88.1322014103
 30
0.0
 11
79.8634474044
 21
88.1322014103
 31
0.0
  0
LINE
  5
1A5
330
1F
100
AcDbEntity
  8
0
  6
Continuous
 62
     8
370
    18
100
AcDbLine
 10
79.8634474044
 20
88.1322014103
 30
0.0
 11
79.8634474044
 21
90.1322017381
 31
0.0
  0
SPLINE
  5
1A6
330
1F
100
AcDbEntity
  8
0
  6
Continuous
 62
     8
370
    18
100
AcDbSpline
210
0.0
220
0.0
230
1.0
 70
    24
 71
     3
 72
    11
 73
     7
 74
     0
 42
0.000000001
 43
0.00000001
 40
0.0
 40
0.0
 40
0.0
 40
0.0
 40
0.2741525670399578
 40
0.5483052877799894
 40
0.822458008520021
 40
1.0
 40
1.0
 40
1.0
 40
1.0
 10
84.71616049011102
 20
88.13220141030074
 30
0.0
 10
84.71616049011102
 20
88.39459625124462
 30
0.0
 10
84.71616049011102
 20
88.91938608024067
 30
0.0
 10
84.71616049011102
 20
89.57566255320148
 30
0.0
 10
84.71616049011102
 20
89.99997590655599
 30
0.0
 10
84.71616049011102
 20
90.05638137703743
 30
0.0
 10
84.71616049011102
 20
90.07855196989298
 30
0.0
  0
LINE
  5
1A7
330
1F
100
AcDbEntity
  8
0
  6
Continuous
 62
     8
370
    18
100
AcDbLine
 10
109.0107361664
 20
88.1322014103
 30
0.0
 11
107.3409483646
 21
88.1322014103
 31
0.0
  0
LINE
  5
1A8
330
1F
100
AcDbEntity
  8
0
  6
Continuous
 62
     8
370
    18
100
AcDbLine
 10
86.3859482919
 20
88.1322014103
 30
0.0
 11
84.7161604901
 21
88.1322014103
 31
0.0
  0
ARC
  5
1A9
330
1F
100
AcDbEntity
  8
0
  6
Continuous
 62
     8
370
    18
100
AcDbCircle
 10
79.8634483283
 20
92.1322011272
 30
0.0
 40
4.000000000000014
100
AcDbArc
 50
180.0
 51
270.0
  0
LINE
  5
1AA
330
1F
100
AcDbEntity
  8
0
  6
Continuous
 62
     8
370
    18
100
AcDbLine
 10
75.8634486114
 20
92.1322002033
 30
0.0
 11
77.8634489392
 21
92.1322002033
 31
0.0
  0
LINE
  5
1AB
330
1F
100
AcDbEntity
  8
0
  6
Continuous
 62
     8
370
    18
100
AcDbLine
 10
75.8634486114
 20
92.1322002033
 30
0.0
 11
75.8634486114
 21
126.1322020511
 31
0.0
  0
LINE
  5
1AC
330
1F
100
AcDbEntity
  8
0
  6
Continuous
 62
     8
370
    18
100
AcDbLine
 10
75.8634486114
 20
126.1322020511
 30
0.0
 11
77.8634489392
 21
126.1322020511
 31
0.0
  0
LINE
  5
1AD
330
1F
100
AcDbEntity
  8
0
  6
Continuous
 62
     8
370
    18
100
AcDbLine
 10
115.8634477173
 20
126.1322020511
 30
0.0
 11
117.8634480451
 21
126.1322020511
 31
0.0
  0
LINE
  5
1AE
330
1F
100
AcDbEntity
  8
0
  6
Continuous
 62
     8
370
    18
100
AcDbLine
 10
117.8634480451
 20
126.1322020511
 30
0.0
 11
117.8634480451
 21
92.1322002033
 31
0.0
  0
LINE
  5
1AF
330
1F
100
AcDbEntity
  8
0
  6
Continuous
 62
     8
370
    18
100
AcDbLine
 10
115.8634477173
 20
92.1322002033
 30
0.0
 11
117.8634480451
 21
92.1322002033
 31
0.0
  0
ARC
  5
1B0
330
1F
100
AcDbEntity
  8
0
  6
Continuous
 62
     8
370
    18
100
AcDbCircle
 10
79.8634483283
 20
126.1322011272
 30
0.0
 40
4.000000000000014
100
AcDbArc
 50
90.0
 51
180.0
  0
LINE
  5
1B1
330
1F
100
AcDbEntity
  8
0
  6
Continuous
 62
     8
370
    18
100
AcDbLine
 10
79.8634474044
 20
128.1322005162
 30
0.0
 11
79.8634474044
 21
130.1322008441
 31
0.0
  0
LINE
  5
1B2
330
1F
100
AcDbEntity
  8
0
  6
Continuous
 62
     8
370
    18
100
AcDbLine
 10
79.8634474044
 20
130.1322008441
 30
0.0
 11
113.8634492521
 21
130.1322008441
 31
0.0
  0
LINE
  5
1B3
330
1F
100
AcDbEntity
  8
0
  6
Continuous
 62
     8
370
    18
100
AcDbLine
 10
113.8634492521
 20
128.1322005162
 30
0.0
 11
113.8634492521
 21
130.1322008441
 31
0.0
  0
ARC
  5
1B4
330
1F
100
AcDbEntity
  8
0
  6
Continuous
 62
     8
370
    18
100
AcDbCircle
 10
113.8634483283
 20
92.1322011272
 30
0.0
 40
4.0
100
AcDbArc
 50
270.0
 51
0.0
  0
ARC
  5
1B5
330
1F
100
AcDbEntity
  8
0
  6
Continuous
 62
     8
370
    18
100
AcDbCircle
 10
113.8634483283
 20
126.1322011272
 30
0.0
 40
4.0
100
AcDbArc
 50
0.0
 51
90.0
  0
LINE
  5
1B6
330
1F
100
AcDbEntity
  8
0
  6
Continuous
 62
     8
370
    18
100
AcDbLine
 10
71.3634488051
 20
82.4322017798
 30
0.0
 11
122.3634478514
 21
82.4322017798
 31
0.0
  0
ARC
  5
1B7
330
1F
100
AcDbEntity
  8
0
  6
Continuous
 62
     8
370
    18
100
AcDbCircle
 10
71.3634483283
 20
83.6322011272
 30
0.0
 40
1.200000000000003
100
AcDbArc
 50
180.0
 51
270.0
  0
LINE
  5
1B8
330
1F
100
AcDbEntity
  8
0
  6
Continuous
 62
     8
370
    18
100
AcDbLine
 10
70.1634489809
 20
134.6322006503
 30
0.0
 11
70.1634489809
 21
83.632201604
 31
0.0
  0
ARC
  5
1B9
330
1F
100
AcDbEntity
  8
0
  6
Continuous
 62
     8
370
    18
100
AcDbCircle
 10
71.3634483283
 20
134.6322011272
 30
0.0
 40
1.200000000000017
100
AcDbArc
 50
90.0
 51
180.0
  0
LINE
  5
1BA
330
1F
100
AcDbEntity
  8
0
  6
Continuous
 62
     8
370
    18
100
AcDbLine
 10
122.3634478514
 20
135.8322004745
 30
0.0
 11
71.3634488051
 21
135.8322004745
 31
0.0
  0
ARC
  5
1BB
330
1F
100
AcDbEntity
  8
0
  6
Continuous
 62
     8
370
    18
100
AcDbCircle
 10
122.3634483283
 20
134.6322011272
 30
0.0
 40
1.200000000000017
100
AcDbArc
 50
0.0
 51
90.0
  0
LINE
  5
1BC
330
1F
100
AcDbEntity
  8
0
  6
Continuous
 62
     8
370
    18
100
AcDbLine
 10
123.5634476756
 20
83.632201604
 30
0.0
 11
123.5634476756
 21
134.6322006503
 31
0.0
  0
ARC
  5
1BD
330
1F
100
AcDbEntity
  8
0
  6
Continuous
 62
     8
370
    18
100
AcDbCircle
 10
122.3634483283
 20
83.6322011272
 30
0.0
 40
1.200000000000003
100
AcDbArc
 50
270.0
 51
0.0
  0
LINE
  5
1BE
330
1F
100
AcDbEntity
  8
0
  6
Continuous
 62
     8
370
    18
100
AcDbLine
 10
69.3634484773
 20
134.6322006503
 30
0.0
 11
70.1634489809
 21
134.6322006503
 31
0.0
  0
LINE
  5
1BF
330
1F
100
AcDbEntity
  8
0
  6
Continuous
 62
     8
370
    18
100
AcDbLine
 10
71.3634488051
 20
135.8322004745
 30
0.0
 11
71.3634488051
 21
136.6322009782
 31
0.0
  0
LINE
  5
1C0
330
1F
100
AcDbEntity
  8
0
  6
Continuous
 62
     8
370
    18
100
AcDbLine
 10
122.3634478514
 20
135.8322004745
 30
0.0
 11
122.3634478514
 21
136.6322009782
 31
0.0
  0
LINE
  5
1C1
330
1F
100
AcDbEntity
  8
0
  6
Continuous
 62
     8
370
    18
100
AcDbLine
 10
123.5634476756
 20
134.6322006503
 30
0.0
 11
124.3634481793
 21
134.6322006503
 31
0.0
  0
LINE
  5
1C2
330
1F
100
AcDbEntity
  8
0
  6
Continuous
 62
     8
370
    18
100
AcDbLine
 10
123.5634476756
 20
83.632201604
 30
0.0
 11
124.3634481793
 21
83.632201604
 31
0.0
  0
LINE
  5
1C3
330
1F
100
AcDbEntity
  8
0
  6
Continuous
 62
     8
370
    18
100
AcDbLine
 10
122.3634478514
 20
81.6322012762
 30
0.0
 11
122.3634478514
 21
82.4322017798
 31
0.0
  0
LINE
  5
1C4
330
1F
100
AcDbEntity
  8
0
  6
Continuous
 62
     8
370
    18
100
AcDbLine
 10
71.3634488051
 20
81.6322012762
 30
0.0
 11
71.3634488051
 21
82.4322017798
 31
0.0
  0
LINE
  5
1C5
330
1F
100
AcDbEntity
  8
0
  6
Continuous
 62
     8
370
    18
100
AcDbLine
 10
69.3634484773
 20
83.632201604
 30
0.0
 11
70.1634489809
 21
83.632201604
 31
0.0
  0
DIMENSION
  5
1C6
330
1F
100
AcDbEntity
  8
DEFAULT_LAYER
100
AcDbDimension
  2
_D
 10
124.3634483283
 20
152.6322011272
 30
0.0
 11
98.4961584408
 21
152.6322011272
 31
0.0
 70
   160
  1
<>
 71
     2
 42
-1.0
  3
SLDDIMSTYLE0
100
AcDbAlignedDimension
 13
69.3634483283
 23
134.6322011272
 33
0.0
 14
124.3634483283
 24
134.6322011272
 34
0.0
100
AcDbRotatedDimension
  0
DIMENSION
  5
1D7
330
1F
100
AcDbEntity
  8
DEFAULT_LAYER
100
AcDbDimension
  2
_D_1
 10
115.8634483283
 20
146.6322011272
 30
0.0
 11
98.4961584408
 21
146.6322011272
 31
0.0
 70
   160
  1
<>
 71
     2
 42
-1.0
  3
SLDDIMSTYLE0
100
AcDbAlignedDimension
 13
77.8634483283
 23
126.1322011272
 33
0.0
 14
115.8634483283
 24
126.1322011272
 34
0.0
100
AcDbRotatedDimension
  0
DIMENSION
  5
1E1
330
1F
100
AcDbEntity
  8
DEFAULT_LAYER
100
AcDbDimension
  2
_D_2
 10
140.3634483283
 20
81.6322011272
 30
0.0
 11
140.3634483283
 21
108.8459547825
 31
0.0
 70
   160
  1
<>
 71
     2
 42
-1.0
  3
SLDDIMSTYLE0
100
AcDbAlignedDimension
 13
122.3634483283
 23
136.6322011272
 33
0.0
 14
122.3634483283
 24
81.6322011272
 34
0.0
 50
90.0
100
AcDbRotatedDimension
  0
DIMENSION
  5
1EB
330
1F
100
AcDbEntity
  8
DEFAULT_LAYER
100
AcDbDimension
  2
_D_3
 10
134.3634483283
 20
90.1322011272
 30
0.0
 11
134.3634483283
 21
108.8459547825
 31
0.0
 70
   160
  1
<>
 71
     2
 42
-1.0
  3
SLDDIMSTYLE0
100
AcDbAlignedDimension
 13
113.8634483283
 23
128.1322011272
 33
0.0
 14
113.8634483283
 24
90.1322011272
 34
0.0
 50
90.0
100
AcDbRotatedDimension
  0
LINE
  5
1F5
330
1F
100
AcDbEntity
  8
DEFAULT_LAYER
  6
CENTERX2
370
    18
100
AcDbLine
 10
129.1289965429
 20
109.1322011272
 30
0.0
 11
64.5251264429
 21
109.1322011272
 31
0.0
  0
LINE
  5
1F6
330
1F
100
AcDbEntity
  8
DEFAULT_LAYER
  6
CENTERX2
370
    18
100
AcDbLine
 10
96.8634483283
 20
142.0228025128
 30
0.0
 11
96.8634483283
 21
76.2407463319
 31
0.0
  0
LINE
  5
1F7
330
1F
100
AcDbEntity
  8
0
  6
Continuous
 62
     7
370
    25
100
AcDbLine
 10
241.5400621627
 20
135.5322009841
 30
0.0
 11
241.0400611494
 21
135.5322009841
 31
0.0
  0
LINE
  5
1F8
330
1F
100
AcDbEntity
  8
0
  6
Continuous
 62
     7
370
    25
100
AcDbLine
 10
241.0400611494
 20
82.7322012702
 30
0.0
 11
241.5400621627
 21
82.7322012702
 31
0.0
  0
LINE
  5
1F9
330
1F
100
AcDbEntity
  8
0
  6
Continuous
 62
     7
370
    25
100
AcDbLine
 10
229.3269884918
 20
86.7942019323
 30
0.0
 11
229.3269884918
 21
90.1322017381
 31
0.0
  0
LINE
  5
1FA
330
1F
100
AcDbEntity
  8
0
  6
Continuous
 62
     7
370
    25
100
AcDbLine
 10
208.3719884191
 20
90.1322017381
 30
0.0
 11
208.3719884191
 21
86.7942019323
 31
0.0
  0
LINE
  5
1FB
330
1F
100
AcDbEntity
  8
0
  6
Continuous
 62
     7
370
    25
100
AcDbLine
 10
208.3719884191
 20
86.7942019323
 30
0.0
 11
209.5339884195
 21
85.6322019318
 31
0.0
  0
LINE
  5
1FC
330
1F
100
AcDbEntity
  8
0
  6
Continuous
 62
     7
370
    25
100
AcDbLine
 10
228.1649884913
 20
85.6322019318
 30
0.0
 11
229.3269884918
 21
86.7942019323
 31
0.0
  0
LINE
  5
1FD
330
1F
100
AcDbEntity
  8
0
  6
Continuous
 62
     7
370
    25
100
AcDbLine
 10
251.0874875966
 20
98.6547010908
 30
0.0
 11
252.2494875971
 21
99.8167010913
 31
0.0
  0
LINE
  5
1FE
330
1F
100
AcDbEntity
  8
0
  6
Continuous
 62
     7
370
    25
100
AcDbLine
 10
252.2494875971
 20
118.4477011631
 30
0.0
 11
251.0874875966
 21
119.6097011635
 31
0.0
  0
LINE
  5
1FF
330
1F
100
AcDbEntity
  8
0
  6
Continuous
 62
     7
370
    25
100
AcDbLine
 10
251.0874875966
 20
119.6097011635
 30
0.0
 11
241.5400621627
 21
119.6097011635
 31
0.0
  0
LINE
  5
200
330
1F
100
AcDbEntity
  8
0
  6
Continuous
 62
     7
370
    25
100
AcDbLine
 10
241.5400621627
 20
98.6547010908
 30
0.0
 11
251.0874875966
 21
98.6547010908
 31
0.0
  0
LINE
  5
201
330
1F
100
AcDbEntity
  8
0
  6
Continuous
 62
     7
370
    25
100
AcDbLine
 10
241.5400621627
 20
82.7322012702
 30
0.0
 11
241.5400621627
 21
135.5322009841
 31
0.0
  0
LINE
  5
202
330
1F
100
AcDbEntity
  8
0
  6
Continuous
 62
     7
370
    25
100
AcDbLine
 10
235.8400625322
 20
136.6322009782
 30
0.0
 11
240.740061659
 21
136.6322009782
 31
0.0
  0
LINE
  5
203
330
1F
100
AcDbEntity
  8
0
  6
Continuous
 62
     7
370
    25
100
AcDbLine
 10
241.0400611494
 20
136.3322014878
 30
0.0
 11
241.0400611494
 21
134.6322006503
 31
0.0
  0
ARC
  5
204
330
1F
100
AcDbEntity
  8
0
  6
Continuous
 62
     7
370
    25
100
AcDbCircle
 10
240.7400616254
 20
136.3322011272
 30
0.0
 40
0.2999999999999829
100
AcDbArc
 50
0.0
 51
90.0
  0
LINE
  5
205
330
1F
100
AcDbEntity
  8
0
  6
Continuous
 62
     7
370
    25
100
AcDbLine
 10
241.0400611494
 20
134.6322006503
 30
0.0
 11
241.0400611494
 21
83.632201604
 31
0.0
  0
LINE
  5
206
330
1F
100
AcDbEntity
  8
0
  6
Continuous
 62
     7
370
    25
100
AcDbLine
 10
240.740061659
 20
81.6322012762
 30
0.0
 11
235.8400625322
 21
81.6322012762
 31
0.0
  0
LINE
  5
207
330
1F
100
AcDbEntity
  8
0
  6
Continuous
 62
     7
370
    25
100
AcDbLine
 10
241.0400611494
 20
83.632201604
 30
0.0
 11
241.0400611494
 21
81.9322007666
 31
0.0
  0
ARC
  5
208
330
1F
100
AcDbEntity
  8
0
  6
Continuous
 62
     7
370
    25
100
AcDbCircle
 10
240.7400616254
 20
81.9322011272
 30
0.0
 40
0.2999999999999972
100
AcDbArc
 50
270.0
 51
0.0
  0
LINE
  5
209
330
1F
100
AcDbEntity
  8
0
  6
Continuous
 62
     7
370
    25
100
AcDbLine
 10
235.0400620285
 20
134.6322006503
 30
0.0
 11
235.0400620285
 21
135.8322004745
 31
0.0
  0
ARC
  5
20A
330
1F
100
AcDbEntity
  8
0
  6
Continuous
 62
     7
370
    25
100
AcDbCircle
 10
235.8400616254
 20
135.8322011272
 30
0.0
 40
0.799999999999983
100
AcDbArc
 50
90.0
 51
180.0
  0
LINE
  5
20B
330
1F
100
AcDbEntity
  8
0
  6
Continuous
 62
     7
370
    25
100
AcDbLine
 10
235.0400620285
 20
83.632201604
 30
0.0
 11
235.0400620285
 21
134.6322006503
 31
0.0
  0
LINE
  5
20C
330
1F
100
AcDbEntity
  8
0
  6
Continuous
 62
     7
370
    25
100
AcDbLine
 10
235.0400620285
 20
82.4322017798
 30
0.0
 11
235.0400620285
 21
83.632201604
 31
0.0
  0
ARC
  5
20D
330
1F
100
AcDbEntity
  8
0
  6
Continuous
 62
     7
370
    25
100
AcDbCircle
 10
235.8400616254
 20
82.4322011272
 30
0.0
 40
0.7999999999999972
100
AcDbArc
 50
180.0
 51
270.0
  0
ARC
  5
20E
330
1F
100
AcDbEntity
  8
0
  6
Continuous
 62
     7
370
    25
100
AcDbCircle
 10
233.0400616254
 20
88.1322011272
 30
0.0
 40
2.0
100
AcDbArc
 50
0.0
 51
90.0
  0
ARC
  5
20F
330
1F
100
AcDbEntity
  8
0
  6
Continuous
 62
     7
370
    25
100
AcDbCircle
 10
233.0400616254
 20
130.1322011272
 30
0.0
 40
2.0
100
AcDbArc
 50
270.0
 51
0.0
  0
LINE
  5
210
330
1F
100
AcDbEntity
  8
0
  6
Continuous
 62
     7
370
    25
100
AcDbLine
 10
233.0400617007
 20
90.1322017381
 30
0.0
 11
165.8400603715
 21
90.1322017381
 31
0.0
  0
LINE
  5
211
330
1F
100
AcDbEntity
  8
0
  6
Continuous
 62
     7
370
    25
100
AcDbLine
 10
165.8400603715
 20
128.1322005162
 30
0.0
 11
233.0400617007
 21
128.1322005162
 31
0.0
  0
LINE
  5
212
330
1F
100
AcDbEntity
  8
0
  6
Continuous
 62
     7
370
    25
100
AcDbLine
 10
165.0400617305
 20
92.1322002033
 30
0.0
 11
165.0400617305
 21
126.1322020511
 31
0.0
  0
LINE
  5
213
330
1F
100
AcDbEntity
  8
0
  6
Continuous
 62
     7
370
    25
100
AcDbLine
 10
165.0400617305
 20
126.1322020511
 30
0.0
 11
165.0400617305
 21
127.3322018752
 31
0.0
  0
ARC
  5
214
330
1F
100
AcDbEntity
  8
0
  6
Continuous
 62
     7
370
    25
100
AcDbCircle
 10
165.8400616254
 20
127.3322011272
 30
0.0
 40
0.8000000000000114
100
AcDbArc
 50
90.0
 51
180.0
  0
LINE
  5
215
330
1F
100
AcDbEntity
  8
0
  6
Continuous
 62
     7
370
    25
100
AcDbLine
 10
165.0400617305
 20
90.9322003791
 30
0.0
 11
165.0400617305
 21
92.1322002033
 31
0.0
  0
ARC
  5
216
330
1F
100
AcDbEntity
  8
0
  6
Continuous
 62
     7
370
    25
100
AcDbCircle
 10
165.8400616254
 20
90.9322011272
 30
0.0
 40
0.8000000000000114
100
AcDbArc
 50
180.0
 51
270.0
  0
LINE
  5
217
330
1F
100
AcDbEntity
  8
0
  6
Continuous
 62
     7
370
    25
100
AcDbLine
 10
252.2494875971
 20
118.4477011631
 30
0.0
 11
252.2494875971
 21
99.8167010913
 31
0.0
  0
LINE
  5
218
330
1F
100
AcDbEntity
  8
0
  6
Continuous
 62
     7
370
    25
100
AcDbLine
 10
228.1649884913
 20
85.6322019318
 30
0.0
 11
209.5339884195
 21
85.6322019318
 31
0.0
  0
LINE
  5
219
330
1F
100
AcDbEntity
  8
0
  6
Continuous
 62
     7
370
    25
100
AcDbLine
 10
229.3269884918
 20
86.7942019323
 30
0.0
 11
208.3719884191
 21
86.7942019323
 31
0.0
  0
LINE
  5
21A
330
1F
100
AcDbEntity
  8
0
  6
Continuous
 62
     7
370
    25
100
AcDbLine
 10
252.2494875971
 20
109.1322011272
 30
0.0
 11
252.2494875971
 21
118.4477011631
 31
0.0
  0
LINE
  5
21B
330
1F
100
AcDbEntity
  8
0
  6
Continuous
 62
     7
370
    25
100
AcDbLine
 10
252.2494875971
 20
99.8167010913
 30
0.0
 11
252.2494875971
 21
109.1322011272
 31
0.0
  0
LINE
  5
21C
330
1F
100
AcDbEntity
  8
0
  6
Continuous
 62
     7
370
    25
100
AcDbLine
 10
251.0874875966
 20
109.1322011272
 30
0.0
 11
251.0874875966
 21
119.6097011635
 31
0.0
  0
LINE
  5
21D
330
1F
100
AcDbEntity
  8
0
  6
Continuous
 62
     7
370
    25
100
AcDbLine
 10
251.0874875966
 20
98.6547010908
 30
0.0
 11
251.0874875966
 21
109.1322011272
 31
0.0
  0
LINE
  5
21E
330
1F
100
AcDbEntity
  8
0
  6
Continuous
 62
     8
370
    18
100
AcDbLine
 10
235.8400625322
 20
136.6322009782
 30
0.0
 11
235.8400625322
 21
134.6322006503
 31
0.0
  0
LINE
  5
21F
330
1F
100
AcDbEntity
  8
0
  6
Continuous
 62
     8
370
    18
100
AcDbLine
 10
240.740061659
 20
134.6322006503
 30
0.0
 11
240.740061659
 21
136.6322009782
 31
0.0
  0
LINE
  5
220
330
1F
100
AcDbEntity
  8
0
  6
Continuous
 62
     8
370
    18
100
AcDbLine
 10
240.740061659
 20
134.6322006503
 30
0.0
 11
235.8400625322
 21
134.6322006503
 31
0.0
  0
LINE
  5
221
330
1F
100
AcDbEntity
  8
0
  6
Continuous
 62
     8
370
    18
100
AcDbLine
 10
240.740061659
 20
134.6322006503
 30
0.0
 11
241.0400611494
 21
134.6322006503
 31
0.0
  0
LINE
  5
222
330
1F
100
AcDbEntity
  8
0
  6
Continuous
 62
     8
370
    18
100
AcDbLine
 10
240.740061659
 20
83.632201604
 30
0.0
 11
240.740061659
 21
134.6322006503
 31
0.0
  0
LINE
  5
223
330
1F
100
AcDbEntity
  8
0
  6
Continuous
 62
     8
370
    18
100
AcDbLine
 10
240.740061659
 20
83.632201604
 30
0.0
 11
241.0400611494
 21
83.632201604
 31
0.0
  0
LINE
  5
224
330
1F
100
AcDbEntity
  8
0
  6
Continuous
 62
     8
370
    18
100
AcDbLine
 10
235.8400625322
 20
134.6322006503
 30
0.0
 11
235.8400625322
 21
83.632201604
 31
0.0
  0
LINE
  5
225
330
1F
100
AcDbEntity
  8
0
  6
Continuous
 62
     8
370
    18
100
AcDbLine
 10
235.8400625322
 20
83.632201604
 30
0.0
 11
240.740061659
 21
83.632201604
 31
0.0
  0
LINE
  5
226
330
1F
100
AcDbEntity
  8
0
  6
Continuous
 62
     8
370
    18
100
AcDbLine
 10
235.8400625322
 20
83.632201604
 30
0.0
 11
235.8400625322
 21
81.6322012762
 31
0.0
  0
LINE
  5
227
330
1F
100
AcDbEntity
  8
0
  6
Continuous
 62
     8
370
    18
100
AcDbLine
 10
240.740061659
 20
81.6322012762
 30
0.0
 11
240.740061659
 21
83.632201604
 31
0.0
  0
LINE
  5
228
330
1F
100
AcDbEntity
  8
0
  6
Continuous
 62
     8
370
    18
100
AcDbLine
 10
235.0400620285
 20
134.6322006503
 30
0.0
 11
235.8400625322
 21
134.6322006503
 31
0.0
  0
LINE
  5
229
330
1F
100
AcDbEntity
  8
0
  6
Continuous
 62
     8
370
    18
100
AcDbLine
 10
235.0400620285
 20
83.632201604
 30
0.0
 11
235.8400625322
 21
83.632201604
 31
0.0
  0
LINE
  5
22A
330
1F
100
AcDbEntity
  8
0
  6
Continuous
 62
     8
370
    18
100
AcDbLine
 10
233.0400617007
 20
90.1322017381
 30
0.0
 11
233.0400617007
 21
92.1322002033
 31
0.0
  0
LINE
  5
22B
330
1F
100
AcDbEntity
  8
0
  6
Continuous
 62
     8
370
    18
100
AcDbLine
 10
233.0400617007
 20
92.1322002033
 30
0.0
 11
235.0400620285
 21
92.1322002033
 31
0.0
  0
LINE
  5
22C
330
1F
100
AcDbEntity
  8
0
  6
Continuous
 62
     8
370
    18
100
AcDbLine
 10
233.0400617007
 20
92.1322002033
 30
0.0
 11
233.0400617007
 21
126.1322020511
 31
0.0
  0
LINE
  5
22D
330
1F
100
AcDbEntity
  8
0
  6
Continuous
 62
     8
370
    18
100
AcDbLine
 10
233.0400617007
 20
126.1322020511
 30
0.0
 11
235.0400620285
 21
126.1322020511
 31
0.0
  0
LINE
  5
22E
330
1F
100
AcDbEntity
  8
0
  6
Continuous
 62
     8
370
    18
100
AcDbLine
 10
233.0400617007
 20
126.1322020511
 30
0.0
 11
233.0400617007
 21
128.1322005162
 31
0.0
  0
LINE
  5
22F
330
1F
100
AcDbEntity
  8
0
  6
Continuous
 62
     8
370
    18
100
AcDbLine
 10
165.8400603715
 20
92.1322002033
 30
0.0
 11
165.8400603715
 21
90.1322017381
 31
0.0
  0
LINE
  5
230
330
1F
100
AcDbEntity
  8
0
  6
Continuous
 62
     8
370
    18
100
AcDbLine
 10
165.8400603715
 20
92.1322002033
 30
0.0
 11
233.0400617007
 21
92.1322002033
 31
0.0
  0
LINE
  5
231
330
1F
100
AcDbEntity
  8
0
  6
Continuous
 62
     8
370
    18
100
AcDbLine
 10
165.8400603715
 20
126.1322020511
 30
0.0
 11
165.8400603715
 21
92.1322002033
 31
0.0
  0
LINE
  5
232
330
1F
100
AcDbEntity
  8
0
  6
Continuous
 62
     8
370
    18
100
AcDbLine
 10
233.0400617007
 20
126.1322020511
 30
0.0
 11
165.8400603715
 21
126.1322020511
 31
0.0
  0
LINE
  5
233
330
1F
100
AcDbEntity
  8
0
  6
Continuous
 62
     8
370
    18
100
AcDbLine
 10
165.8400603715
 20
128.1322005162
 30
0.0
 11
165.8400603715
 21
126.1322020511
 31
0.0
  0
LINE
  5
234
330
1F
100
AcDbEntity
  8
0
  6
Continuous
 62
     8
370
    18
100
AcDbLine
 10
165.0400617305
 20
126.1322020511
 30
0.0
 11
165.8400603715
 21
126.1322020511
 31
0.0
  0
LINE
  5
235
330
1F
100
AcDbEntity
  8
0
  6
Continuous
 62
     8
370
    18
100
AcDbLine
 10
165.0400617305
 20
92.1322002033
 30
0.0
 11
165.8400603715
 21
92.1322002033
 31
0.0
  0
LINE
  5
236
330
1F
100
AcDbEntity
  8
DEFAULT_LAYER
  6
PHANTOM
370
    18
100
AcDbLine
 10
241.0400616254
 20
136.6322011272
 30
0.0
 11
241.0400616254
 21
150.980499864
 31
0.0
  0
LINE
  5
237
330
1F
100
AcDbEntity
  8
DEFAULT_LAYER
  6
PHANTOM
370
    18
100
AcDbLine
 10
241.0400616254
 20
81.6322011272
 30
0.0
 11
241.0400616254
 21
68.3043587503
 31
0.0
  0
DIMENSION
  5
238
330
1F
100
AcDbEntity
  8
DEFAULT_LAYER
100
AcDbDimension
  2
_D_4
 10
241.0400616254
 20
157.133009364
 30
0.0
 11
204.4958083184
 21
157.133009364
 31
0.0
 70
   160
  1
<>
 71
     2
 42
-1.0
  3
SLDDIMSTYLE0
100
AcDbAlignedDimension
 13
165.0400616254
 23
127.3322011272
 33
0.0
 14
241.0400616254
 24
150.980499864
 34
0.0
100
AcDbRotatedDimension
  0
DIMENSION
  5
242
330
1F
100
AcDbEntity
  8
DEFAULT_LAYER
100
AcDbDimension
  2
_D_5
 10
252.2494884554
 20
157.133009364
 30
0.0
 11
259.9283489105
 21
157.133009364
 31
0.0
 70
   160
  1
<>
 71
     2
 42
-1.0
  3
SLDDIMSTYLE1
100
AcDbAlignedDimension
 13
241.0400616254
 23
150.980499864
 33
0.0
 14
252.2494884554
 24
118.4477011272
 34
0.0
100
AcDbRotatedDimension
  0
DIMENSION
  5
24F
330
1F
100
AcDbEntity
  8
DEFAULT_LAYER
100
AcDbDimension
  2
_D_6
 10
241.0400616254
 20
76.3740582975
 30
0.0
 11
229.3833389664
 21
76.3740582975
 31
0.0
 70
   160
  1
<>
 71
     2
 42
-1.0
  3
SLDDIMSTYLE2
100
AcDbAlignedDimension
 13
218.8494884554
 23
83.6322011272
 33
0.0
 14
241.0400616254
 24
81.6322011272
 34
0.0
100
AcDbRotatedDimension
  0
DIMENSION
  5
25A
330
1F
100
AcDbEntity
  8
DEFAULT_LAYER
100
AcDbDimension
  2
_D_7
 10
213.7445717947
 20
85.6322011272
 30
0.0
 11
213.7445717947
 21
98.3613617801
 31
0.0
 70
   160
  1
<>
 71
     2
 42
-1.0
  3
SLDDIMSTYLE0
100
AcDbAlignedDimension
 13
253.0874884554
 23
109.1322011272
 33
0.0
 14
209.5339884554
 24
85.6322011272
 34
0.0
 50
90.0
100
AcDbRotatedDimension
  0
INSERT
  5
267
330
1F
100
AcDbEntity
  8
DEFAULT_LAYER
100
AcDbBlockReference
  2
SW_NOTE_2
 10
252.3712871287
 20
91.2272828313
 30
0.0
  0
LEADER
  5
269
330
1F
100
AcDbEntity
  8
DEFAULT_LAYER
100
AcDbLeader
  3
SLDDIMSTYLE3
 76
     2
 10
246.1466423727
 20
98.7246657803
 30
0.0
 10
252.3712871287
 20
91.2272828313
 30
0.0
  0
MTEXT
  5
26A
330
1F
100
AcDbEntity
  8
DEFAULT_LAYER
100
AcDbMText
 10
233.1410677844
 20
72.5383575449
 30
0.0
 40
2.1166666667
 41
0.0
 71
     1
 72
     1
  1
W.L.
  7
SLDTEXTSTYLE0
 73
     1
 44
1.0
  0
MTEXT
  5
26B
330
1F
100
AcDbEntity
  8
DEFAULT_LAYER
100
AcDbMText
 10
241.2147593166
 20
72.6457638934
 30
0.0
 40
2.1166666667
 41
0.0
 71
     1
 72
     1
  1
△
  7
SLDTEXTSTYLE0
 11
-3.491481338843133E-15
 21
-1.0
 31
0.0
 73
     1
 44
1.0
  0
INSERT
  5
271
330
1F
100
AcDbEntity
  8
DEFAULT_LAYER
100
AcDbBlockReference
  2
SW_NOTE_3
 10
197.6295928911
 20
75.9797580788
 30
0.0
  0
LEADER
  5
272
330
1F
100
AcDbEntity
  8
DEFAULT_LAYER
100
AcDbLeader
  3
SLDDIMSTYLE3
 76
     2
 10
208.3719884554
 20
88.2261829405
 30
0.0
 10
197.6295928911
 20
75.9797580788
 30
0.0
  0
MTEXT
  5
273
330
1F
100
AcDbEntity
  8
DEFAULT_LAYER
100
AcDbMText
 10
176.2789798338
 20
75.2052413265
 30
0.0
 40
2.1166666667
 41
0.0
 71
     1
 72
     1
  1
（シャワーエルボ接続）
  7
SLDTEXTSTYLE0
 73
     1
 44
1.0
  0
LINE
  5
274
330
1F
100
AcDbEntity
  8
DEFAULT_LAYER
  6
CENTERX2
370
    18
100
AcDbLine
 10
162.426061143
 20
109.1322011272
 30
0.0
 11
253.0874884554
 21
109.1322011272
 31
0.0
  0
LINE
  5
275
330
1F
100
AcDbEntity
  8
DEFAULT_LAYER
  6
CENTERX2
370
    18
100
AcDbLine
 10
218.8494884554
 20
83.6322011272
 30
0.0
 11
218.8494884554
 21
97.6322011272
 31
0.0
  0
ARC
  5
276
330
1F
100
AcDbEntity
  8
0
  6
Continuous
 62
     7
370
    25
100
AcDbCircle
 10
96.8634483283
 20
216.5161402337
 30
0.0
 40
10.20238095238096
100
AcDbArc
 50
249.9936208482
 51
290.275336533
  0
ARC
  5
277
330
1F
100
AcDbEntity
  8
0
  6
Continuous
 62
     7
370
    25
100
AcDbCircle
 10
96.8634483283
 20
215.8161420846
 30
0.0
 40
10.20238095238095
100
AcDbArc
 50
252.8408642183
 51
286.8980925405
  0
LINE
  5
278
330
1F
100
AcDbEntity
  8
0
  6
Continuous
 62
     7
370
    25
100
AcDbLine
 10
70.4634484713
 20
260.5182616695
 30
0.0
 11
70.4634484713
 21
260.0182606562
 31
0.0
  0
LINE
  5
279
330
1F
100
AcDbEntity
  8
0
  6
Continuous
 62
     7
370
    25
100
AcDbLine
 10
123.2634481852
 20
260.0182606562
 30
0.0
 11
123.2634481852
 21
260.5182616695
 31
0.0
  0
LINE
  5
27A
330
1F
100
AcDbEntity
  8
0
  6
Continuous
 62
     7
370
    25
100
AcDbLine
 10
107.3409483646
 20
270.0656871035
 30
0.0
 11
106.1789483642
 21
271.2276871039
 31
0.0
  0
LINE
  5
27B
330
1F
100
AcDbEntity
  8
0
  6
Continuous
 62
     7
370
    25
100
AcDbLine
 10
87.5479482924
 20
271.2276871039
 30
0.0
 11
86.3859482919
 21
270.0656871035
 31
0.0
  0
LINE
  5
27C
330
1F
100
AcDbEntity
  8
0
  6
Continuous
 62
     7
370
    25
100
AcDbLine
 10
86.3859482919
 20
270.0656871035
 30
0.0
 11
86.3859482919
 21
260.5182616695
 31
0.0
  0
LINE
  5
27D
330
1F
100
AcDbEntity
  8
0
  6
Continuous
 62
     7
370
    25
100
AcDbLine
 10
107.3409483646
 20
260.5182616695
 30
0.0
 11
107.3409483646
 21
270.0656871035
 31
0.0
  0
LINE
  5
27E
330
1F
100
AcDbEntity
  8
0
  6
Continuous
 62
     7
370
    25
100
AcDbLine
 10
123.2634481852
 20
260.5182616695
 30
0.0
 11
70.4634484713
 21
260.5182616695
 31
0.0
  0
LINE
  5
27F
330
1F
100
AcDbEntity
  8
0
  6
Continuous
 62
     7
370
    25
100
AcDbLine
 10
124.3634481793
 20
259.7182611658
 30
0.0
 11
124.3634481793
 21
254.818262039
 31
0.0
  0
LINE
  5
280
330
1F
100
AcDbEntity
  8
0
  6
Continuous
 62
     7
370
    25
100
AcDbLine
 10
69.3634484773
 20
259.7182611658
 30
0.0
 11
69.3634484773
 21
254.818262039
 31
0.0
  0
LINE
  5
281
330
1F
100
AcDbEntity
  8
0
  6
Continuous
 62
     7
370
    25
100
AcDbLine
 10
69.6634479677
 20
260.0182606562
 30
0.0
 11
71.3634488051
 21
260.0182606562
 31
0.0
  0
ARC
  5
282
330
1F
100
AcDbEntity
  8
0
  6
Continuous
 62
     7
370
    25
100
AcDbCircle
 10
69.6634483283
 20
259.7182611323
 30
0.0
 40
0.3000000000000114
100
AcDbArc
 50
90.0
 51
180.0
  0
LINE
  5
283
330
1F
100
AcDbEntity
  8
0
  6
Continuous
 62
     7
370
    25
100
AcDbLine
 10
122.3634478514
 20
260.0182606562
 30
0.0
 11
124.0634486889
 21
260.0182606562
 31
0.0
  0
ARC
  5
284
330
1F
100
AcDbEntity
  8
0
  6
Continuous
 62
     7
370
    25
100
AcDbCircle
 10
124.0634483283
 20
259.7182611323
 30
0.0
 40
0.3000000000000114
100
AcDbArc
 50
0.0
 51
90.0
  0
LINE
  5
285
330
1F
100
AcDbEntity
  8
0
  6
Continuous
 62
     7
370
    25
100
AcDbLine
 10
71.3634488051
 20
260.0182606562
 30
0.0
 11
122.3634478514
 21
260.0182606562
 31
0.0
  0
LINE
  5
286
330
1F
100
AcDbEntity
  8
0
  6
Continuous
 62
     7
370
    25
100
AcDbLine
 10
123.5634476756
 20
254.0182615354
 30
0.0
 11
122.3634478514
 21
254.0182615354
 31
0.0
  0
ARC
  5
287
330
1F
100
AcDbEntity
  8
0
  6
Continuous
 62
     7
370
    25
100
AcDbCircle
 10
123.5634483283
 20
254.8182611323
 30
0.0
 40
0.7999999999999972
100
AcDbArc
 50
270.0
 51
0.0
  0
LINE
  5
288
330
1F
100
AcDbEntity
  8
0
  6
Continuous
 62
     7
370
    25
100
AcDbLine
 10
122.3634478514
 20
254.0182615354
 30
0.0
 11
71.3634488051
 21
254.0182615354
 31
0.0
  0
LINE
  5
289
330
1F
100
AcDbEntity
  8
0
  6
Continuous
 62
     7
370
    25
100
AcDbLine
 10
71.3634488051
 20
254.0182615354
 30
0.0
 11
70.1634489809
 21
254.0182615354
 31
0.0
  0
ARC
  5
28A
330
1F
100
AcDbEntity
  8
0
  6
Continuous
 62
     7
370
    25
100
AcDbCircle
 10
70.1634483283
 20
254.8182611323
 30
0.0
 40
0.7999999999999972
100
AcDbArc
 50
180.0
 51
270.0
  0
ARC
  5
28B
330
1F
100
AcDbEntity
  8
0
  6
Continuous
 62
     7
370
    25
100
AcDbCircle
 10
117.8634483283
 20
252.0182611323
 30
0.0
 40
2.0
100
AcDbArc
 50
90.0
 51
180.0
  0
ARC
  5
28C
330
1F
100
AcDbEntity
  8
0
  6
Continuous
 62
     7
370
    25
100
AcDbCircle
 10
75.8634483283
 20
252.0182611323
 30
0.0
 40
2.000000000000014
100
AcDbArc
 50
0.0
 51
90.0
  0
LINE
  5
28D
330
1F
100
AcDbEntity
  8
0
  6
Continuous
 62
     7
370
    25
100
AcDbLine
 10
115.8634477173
 20
252.0182612075
 30
0.0
 11
115.8634477173
 21
184.8182598784
 31
0.0
  0
LINE
  5
28E
330
1F
100
AcDbEntity
  8
0
  6
Continuous
 62
     7
370
    25
100
AcDbLine
 10
77.8634489392
 20
252.0182612075
 30
0.0
 11
77.8634489392
 21
184.8182598784
 31
0.0
  0
SPLINE
  5
28F
330
1F
100
AcDbEntity
  8
0
  6
Continuous
 62
     7
370
    25
100
AcDbSpline
210
0.0
220
0.0
230
1.0
 70
     8
 71
     3
 72
     9
 73
     5
 74
     0
 42
0.000000001
 43
0.00000001
 40
0.0
 40
0.0
 40
0.0
 40
0.0
 40
0.4930821685814914
 40
0.9999999999999999
 40
0.9999999999999999
 40
0.9999999999999999
 40
0.9999999999999999
 10
106.3634480227982
 20
188.4263115658392
 30
0.0
 10
106.3779922855011
 20
188.621972903758
 30
0.0
 10
106.4074889163461
 20
189.0187857483224
 30
0.0
 10
106.6023990013958
 20
189.3661488834439
 30
0.0
 10
106.7012023990308
 20
189.5422334506144
 30
0.0
  0
SPLINE
  5
290
330
1F
100
AcDbEntity
  8
0
  6
Continuous
 62
     7
370
    25
100
AcDbSpline
210
0.0
220
0.0
230
1.0
 70
     8
 71
     3
 72
     9
 73
     5
 74
     0
 42
0.000000001
 43
0.00000001
 40
0.0
 40
0.0
 40
0.0
 40
0.0
 40
0.4930821685814914
 40
0.9999999999999999
 40
0.9999999999999999
 40
0.9999999999999999
 40
0.9999999999999999
 10
87.36344863374582
 20
188.4263115658392
 30
0.0
 10
87.34890437104292
 20
188.621972903758
 30
0.0
 10
87.31940774019793
 20
189.0187857483224
 30
0.0
 10
87.12449765514819
 20
189.3661488834439
 30
0.0
 10
87.0256942575132
 20
189.5422334506144
 30
0.0
  0
LINE
  5
291
330
1F
100
AcDbEntity
  8
0
  6
Continuous
 62
     7
370
    25
100
AcDbLine
 10
87.3634486337
 20
186.0182615652
 30
0.0
 11
87.3634486337
 21
188.4263115658
 31
0.0
  0
LINE
  5
292
330
1F
100
AcDbEntity
  8
0
  6
Continuous
 62
     7
370
    25
100
AcDbLine
 10
106.3634480228
 20
186.0182615652
 30
0.0
 11
106.3634480228
 21
188.4263115658
 31
0.0
  0
ARC
  5
293
330
1F
100
AcDbEntity
  8
0
  6
Continuous
 62
     7
370
    25
100
AcDbCircle
 10
108.3634483283
 20
186.0182611323
 30
0.0
 40
2.000000000000014
100
AcDbArc
 50
180.0
 51
270.0
  0
ARC
  5
294
330
1F
100
AcDbEntity
  8
0
  6
Continuous
 62
     7
370
    25
100
AcDbCircle
 10
85.3634483283
 20
186.0182611323
 30
0.0
 40
2.0
100
AcDbArc
 50
270.0
 51
0.0
  0
LINE
  5
295
330
1F
100
AcDbEntity
  8
0
  6
Continuous
 62
     7
370
    25
100
AcDbLine
 10
113.8634492521
 20
184.0182612373
 30
0.0
 11
108.3634483506
 21
184.0182612373
 31
0.0
  0
LINE
  5
296
330
1F
100
AcDbEntity
  8
0
  6
Continuous
 62
     7
370
    25
100
AcDbLine
 10
79.8634474044
 20
184.0182612373
 30
0.0
 11
85.3634483059
 21
184.0182612373
 31
0.0
  0
LINE
  5
297
330
1F
100
AcDbEntity
  8
0
  6
Continuous
 62
     7
370
    25
100
AcDbLine
 10
78.6634475802
 20
184.0182612373
 30
0.0
 11
79.8634474044
 21
184.0182612373
 31
0.0
  0
ARC
  5
298
330
1F
100
AcDbEntity
  8
0
  6
Continuous
 62
     7
370
    25
100
AcDbCircle
 10
78.6634483283
 20
184.8182611323
 30
0.0
 40
0.799999999999983
100
AcDbArc
 50
180.0
 51
270.0
  0
LINE
  5
299
330
1F
100
AcDbEntity
  8
0
  6
Continuous
 62
     7
370
    25
100
AcDbLine
 10
115.0634490763
 20
184.0182612373
 30
0.0
 11
113.8634492521
 21
184.0182612373
 31
0.0
  0
ARC
  5
29A
330
1F
100
AcDbEntity
  8
0
  6
Continuous
 62
     7
370
    25
100
AcDbCircle
 10
115.0634483283
 20
184.8182611323
 30
0.0
 40
0.7999999999999972
100
AcDbArc
 50
270.0
 51
0.0
  0
LINE
  5
29B
330
1F
100
AcDbEntity
  8
0
  6
Continuous
 62
     7
370
    25
100
AcDbLine
 10
87.0848174085
 20
190.2563008203
 30
0.0
 11
87.0790199255
 21
190.2660908832
 31
0.0
  0
SPLINE
  5
29C
330
1F
100
AcDbEntity
  8
0
  6
Continuous
 62
     7
370
    25
100
AcDbSpline
210
0.0
220
0.0
230
1.0
 70
     8
 71
     3
 72
    10
 73
     6
 74
     0
 42
0.000000001
 43
0.00000001
 40
0.0
 40
0.0
 40
0.0
 40
0.0
 40
0.0257790114431679
 40
0.3686847163454275
 40
1.0
 40
1.0
 40
1.0
 40
1.0
 10
87.36344863374582
 20
189.246788127624
 30
0.0
 10
87.36340460863903
 20
189.2558549527616
 30
0.0
 10
87.36277497301326
 20
189.3855263275314
 30
0.0
 10
87.32997061426803
 20
189.7401910212164
 30
0.0
 10
87.18121446182981
 20
190.0533605256263
 30
0.0
 10
87.08481740851751
 20
190.2563008203139
 30
0.0
  0
SPLINE
  5
29D
330
1F
100
AcDbEntity
  8
0
  6
Continuous
 62
     7
370
    25
100
AcDbSpline
210
0.0
220
0.0
230
1.0
 70
    24
 71
     3
 72
     9
 73
     5
 74
     0
 42
0.000000001
 43
0.00000001
 40
0.0
 40
0.0
 40
0.0
 40
0.0
 40
0.416292707850485
 40
1.0
 40
1.0
 40
1.0
 40
1.0
 10
87.36344863374582
 20
188.4263115658392
 30
0.0
 10
87.36344863374582
 20
188.5366193843129
 30
0.0
 10
87.36344863374582
 20
188.8015959654384
 30
0.0
 10
87.36344863374582
 20
189.082703569345
 30
0.0
 10
87.36344863374582
 20
189.246788127624
 30
0.0
  0
SPLINE
  5
29E
330
1F
100
AcDbEntity
  8
0
  6
Continuous
 62
     7
370
    25
100
AcDbSpline
210
0.0
220
0.0
230
1.0
 70
     8
 71
     3
 72
    10
 73
     6
 74
     0
 42
0.000000001
 43
0.00000001
 40
0.0
 40
0.0
 40
0.0
 40
0.0
 40
0.0257790114431679
 40
0.3686847163454275
 40
1.0
 40
1.0
 40
1.0
 40
1.0
 10
106.3634480227982
 20
189.246788127624
 30
0.0
 10
106.363492047905
 20
189.2558549527616
 30
0.0
 10
106.3641216835308
 20
189.3855263275314
 30
0.0
 10
106.396926042276
 20
189.7401910212164
 30
0.0
 10
106.5456821947142
 20
190.0533605256263
 30
0.0
 10
106.6420792480265
 20
190.2563008203139
 30
0.0
  0
LINE
  5
29F
330
1F
100
AcDbEntity
  8
0
  6
Continuous
 62
     7
370
    25
100
AcDbLine
 10
106.642079248
 20
190.2563008203
 30
0.0
 11
106.6478767311
 21
190.2660908832
 31
0.0
  0
SPLINE
  5
2A0
330
1F
100
AcDbEntity
  8
0
  6
Continuous
 62
     7
370
    25
100
AcDbSpline
210
0.0
220
0.0
230
1.0
 70
    24
 71
     3
 72
     9
 73
     5
 74
     0
 42
0.000000001
 43
0.00000001
 40
0.0
 40
0.0
 40
0.0
 40
0.0
 40
0.416292707850485
 40
1.0
 40
1.0
 40
1.0
 40
1.0
 10
106.3634480227982
 20
188.4263115658392
 30
0.0
 10
106.3634480227982
 20
188.5366193843129
 30
0.0
 10
106.3634480227982
 20
188.8015959654384
 30
0.0
 10
106.3634480227982
 20
189.082703569345
 30
0.0
 10
106.3634480227982
 20
189.246788127624
 30
0.0
  0
ARC
  5
2A1
330
1F
100
AcDbEntity
  8
0
  6
Continuous
 62
     7
370
    25
100
AcDbCircle
 10
96.8634483283
 20
196.0182611323
 30
0.0
 40
11.35
100
AcDbArc
 50
116.2779275506
 51
210.4508574376
  0
ARC
  5
2A2
330
1F
100
AcDbEntity
  8
0
  6
Continuous
 62
     7
370
    25
100
AcDbCircle
 10
96.8634483283
 20
196.0182611323
 30
0.0
 40
11.35
100
AcDbArc
 50
329.5491425624
 51
63.7220724494
  0
SPLINE
  5
2A3
330
1F
100
AcDbEntity
  8
0
  6
Continuous
 62
     7
370
    25
100
AcDbSpline
210
0.0
220
0.0
230
1.0
 70
     8
 71
     3
 72
    18
 73
    14
 74
     0
 42
0.000000001
 43
0.00000001
 40
0.0
 40
0.0
 40
0.0
 40
0.0
 40
0.0950446167286873
 40
0.1900450905358707
 40
0.2856897475353314
 40
0.3812323609206304
 40
0.4998637311013557
 40
0.5790204758956939
 40
0.658206118865334
 40
0.7370406566354676
 40
0.815922290588144
 40
0.9079423142006187
 40
1.0
 40
1.0
 40
1.0
 40
1.0
 10
101.8883862410938
 20
206.1953204407324
 30
0.0
 10
101.6596328448749
 20
206.3330683549848
 30
0.0
 10
101.2022322956266
 20
206.6085002072691
 30
0.0
 10
100.3432029281368
 20
206.9925407504659
 30
0.0
 10
99.36795842395793
 20
207.310774811039
 30
0.0
 10
98.20285661957152
 20
207.5543381058237
 30
0.0
 10
97.02126295488871
 20
207.6421695476744
 30
0.0
 10
95.90943890999624
 20
207.5860242003065
 30
0.0
 10
94.98656124902696
 20
207.4514628776101
 30
0.0
 10
94.12112563965967
 20
207.2378875582214
 30
0.0
 10
93.28684259539818
 20
206.9506872110423
 30
0.0
 10
92.50166881353843
 20
206.5955286731534
 30
0.0
 10
92.0595933642686
 20
206.3287413797118
 30
0.0
 10
91.83851041545024
 20
206.1953204407324
 30
0.0
  0
SPLINE
  5
2A4
330
1F
100
AcDbEntity
  8
0
  6
Continuous
 62
     7
370
    25
100
AcDbSpline
210
0.0
220
0.0
230
1.0
 70
     8
 71
     3
 72
    19
 73
    15
 74
     0
 42
0.000000001
 43
0.00000001
 40
0.0
 40
0.0
 40
0.0
 40
0.0
 40
0.0391543528573781
 40
0.123734231035274
 40
0.2118681199031343
 40
0.302171669769384
 40
0.3973522172913767
 40
0.4958015749570702
 40
0.5822512762985048
 40
0.6721170712127502
 40
0.7467362318734642
 40
0.8233031217355761
 40
0.9105420931754106
 40
1.0
 40
1.0
 40
1.0
 40
1.0
 10
99.26311037217131
 20
206.6595139636626
 30
0.0
 10
99.40443441114634
 20
206.6320483184522
 30
0.0
 10
99.85104174885592
 20
206.5452523368569
 30
0.0
 10
100.5371500531749
 20
206.3394447654718
 30
0.0
 10
101.3059125716741
 20
206.0662137636436
 30
0.0
 10
101.9841154999382
 20
205.7745893590441
 30
0.0
 10
102.5482573185329
 20
205.5031225995503
 30
0.0
 10
102.9407401542292
 20
205.3074720732682
 30
0.0
 10
103.1518780463939
 20
205.2221134872219
 30
0.0
 10
103.1821430634201
 20
205.2553397218312
 30
0.0
 10
103.0669108744813
 20
205.3846363168513
 30
0.0
 10
102.8272762502473
 20
205.5868477768755
 30
0.0
 10
102.4505577678163
 20
205.8632863048937
 30
0.0
 10
102.0773390267451
 20
206.0837196713662
 30
0.0
 10
101.8883862410938
 20
206.1953204407324
 30
0.0
  0
SPLINE
  5
2A5
330
1F
100
AcDbEntity
  8
0
  6
Continuous
 62
     7
370
    25
100
AcDbSpline
210
0.0
220
0.0
230
1.0
 70
     8
 71
     3
 72
    19
 73
    15
 74
     0
 42
0.000000001
 43
0.00000001
 40
0.0
 40
0.0
 40
0.0
 40
0.0
 40
0.0896343812500312
 40
0.1815518883767462
 40
0.2712984484427146
 40
0.3644054834294643
 40
0.4430733963407105
 40
0.5242765583271604
 40
0.5997097812667026
 40
0.6768294436577031
 40
0.7631917820226031
 40
0.8515818496107599
 40
0.9470546282674505
 40
1.0
 40
1.0
 40
1.0
 40
1.0
 10
91.83851041545024
 20
206.1953204407324
 30
0.0
 10
91.64993965234707
 20
206.0839306232686
 30
0.0
 10
91.26799493809146
 20
205.8583137179645
 30
0.0
 10
90.86907946601528
 20
205.5641700167322
 30
0.0
 10
90.61232449182374
 20
205.3414222040585
 30
0.0
 10
90.5364656500014
 20
205.2330641318001
 30
0.0
 10
90.62190096820501
 20
205.237893615553
 30
0.0
 10
90.83654322723568
 20
205.3329708486617
 30
0.0
 10
91.17123519674034
 20
205.4987958169643
 30
0.0
 10
91.62348006021948
 20
205.7178184247796
 30
0.0
 10
92.21194705527932
 20
205.9805964209532
 30
0.0
 10
92.96378361517246
 20
206.2646077900665
 30
0.0
 10
93.70557419933773
 20
206.5039695209778
 30
0.0
 10
94.23682246006094
 20
206.6103759012042
 30
0.0
 10
94.42633524251035
 20
206.6483343674769
 30
0.0
  0
ARC
  5
2A6
330
1F
100
AcDbEntity
  8
0
  6
Continuous
 62
     7
370
    25
100
AcDbCircle
 10
96.8634483283
 20
196.0182611323
 30
0.0
 40
10.45000000000001
100
AcDbArc
 50
116.7022046297
 51
202.505197344
  0
ARC
  5
2A7
330
1F
100
AcDbEntity
  8
0
  6
Continuous
 62
     7
370
    25
100
AcDbCircle
 10
96.8634483283
 20
196.0182611323
 30
0.0
 40
10.45000000000001
100
AcDbArc
 50
337.494802656
 51
63.2977953703
  0
SPLINE
  5
2A8
330
1F
100
AcDbEntity
  8
0
  6
Continuous
 62
     7
370
    25
100
AcDbSpline
210
0.0
220
0.0
230
1.0
 70
     8
 71
     3
 72
    11
 73
     7
 74
     0
 42
0.000000001
 43
0.00000001
 40
0.0
 40
0.0
 40
0.0
 40
0.0
 40
0.2816883299667531
 40
0.5632159934843572
 40
0.8467477132297621
 40
1.0
 40
1.0
 40
1.0
 40
1.0
 10
101.5591911849832
 20
205.3538108899226
 30
0.0
 10
101.3160638443925
 20
205.4821877714494
 30
0.0
 10
100.8299478356457
 20
205.7388683122374
 30
0.0
 10
99.94261100558147
 20
206.0790072287894
 30
0.0
 10
99.11508845538691
 20
206.322943837595
 30
0.0
 10
98.56161498523805
 20
206.4031747873515
 30
0.0
 10
98.36742043209127
 20
206.4313250317206
 30
0.0
  0
SPLINE
  5
2A9
330
1F
100
AcDbEntity
  8
0
  6
Continuous
 62
     7
370
    25
100
AcDbSpline
210
0.0
220
0.0
230
1.0
 70
     8
 71
     3
 72
    11
 73
     7
 74
     0
 42
0.000000001
 43
0.00000001
 40
0.0
 40
0.0
 40
0.0
 40
0.0
 40
0.127950773721665
 40
0.3614056156853516
 40
0.5950015249752273
 40
1.0
 40
1.0
 40
1.0
 40
1.0
 10
95.49441427172026
 20
206.4552600218882
 30
0.0
 10
95.32542005074338
 20
206.433190291618
 30
0.0
 10
94.84808444187652
 20
206.3708528455493
 30
0.0
 10
94.12011902383188
 20
206.1798481492672
 30
0.0
 10
93.12293805565362
 20
205.8469050216855
 30
0.0
 10
92.53841300984013
 20
205.5451713133104
 30
0.0
 10
92.16770547156086
 20
205.3538108899226
 30
0.0
  0
SPLINE
  5
2AA
330
1F
100
AcDbEntity
  8
0
  6
Continuous
 62
     7
370
    25
100
AcDbSpline
210
0.0
220
0.0
230
1.0
 70
     8
 71
     3
 72
     9
 73
     5
 74
     0
 42
0.000000001
 43
0.00000001
 40
0.0
 40
0.0
 40
0.0
 40
0.0
 40
0.0334394256913729
 40
1.0
 40
1.0
 40
1.0
 40
1.0
 10
106.3634480227982
 20
191.248304648601
 30
0.0
 10
106.3634767065212
 20
191.2570210850193
 30
0.0
 10
106.3643344880903
 20
191.5176845455333
 30
0.0
 10
106.4414868069049
 20
191.7703465133615
 30
0.0
 10
106.5160591964876
 20
192.0145596100916
 30
0.0
  0
LINE
  5
2AB
330
1F
100
AcDbEntity
  8
0
  6
Continuous
 62
     7
370
    25
100
AcDbLine
 10
106.5160591965
 20
192.0145596101
 30
0.0
 11
106.5176266124
 21
192.018344505
 31
0.0
  0
SPLINE
  5
2AC
330
1F
100
AcDbEntity
  8
0
  6
Continuous
 62
     7
370
    25
100
AcDbSpline
210
0.0
220
0.0
230
1.0
 70
    24
 71
     3
 72
     9
 73
     5
 74
     0
 42
0.000000001
 43
0.00000001
 40
0.0
 40
0.0
 40
0.0
 40
0.0
 40
0.497587802593353
 40
1.0
 40
1.0
 40
1.0
 40
1.0
 10
106.3634480227982
 20
189.246788127624
 30
0.0
 10
106.3634480227982
 20
189.5447467529416
 30
0.0
 10
106.3634480227982
 20
190.143552880754
 30
0.0
 10
106.3634480227982
 20
190.878871570095
 30
0.0
 10
106.3634480227982
 20
191.248304648601
 30
0.0
  0
LINE
  5
2AD
330
1F
100
AcDbEntity
  8
0
  6
Continuous
 62
     7
370
    25
100
AcDbLine
 10
87.2108374601
 20
192.0145596101
 30
0.0
 11
87.2092700442
 21
192.018344505
 31
0.0
  0
SPLINE
  5
2AE
330
1F
100
AcDbEntity
  8
0
  6
Continuous
 62
     7
370
    25
100
AcDbSpline
210
0.0
220
0.0
230
1.0
 70
     8
 71
     3
 72
     9
 73
     5
 74
     0
 42
0.000000001
 43
0.00000001
 40
0.0
 40
0.0
 40
0.0
 40
0.0
 40
0.0334394256913729
 40
1.0
 40
1.0
 40
1.0
 40
1.0
 10
87.36344863374582
 20
191.248304648601
 30
0.0
 10
87.36341995002277
 20
191.2570210850193
 30
0.0
 10
87.3625621684537
 20
191.5176845455333
 30
0.0
 10
87.28540984963912
 20
191.7703465133615
 30
0.0
 10
87.21083746005645
 20
192.0145596100916
 30
0.0
  0
SPLINE
  5
2AF
330
1F
100
AcDbEntity
  8
0
  6
Continuous
 62
     7
370
    25
100
AcDbSpline
210
0.0
220
0.0
230
1.0
 70
    24
 71
     3
 72
     9
 73
     5
 74
     0
 42
0.000000001
 43
0.00000001
 40
0.0
 40
0.0
 40
0.0
 40
0.0
 40
0.497587802593353
 40
1.0
 40
1.0
 40
1.0
 40
1.0
 10
87.36344863374582
 20
189.246788127624
 30
0.0
 10
87.36344863374582
 20
189.5447467529416
 30
0.0
 10
87.36344863374582
 20
190.143552880754
 30
0.0
 10
87.36344863374582
 20
190.878871570095
 30
0.0
 10
87.36344863374582
 20
191.248304648601
 30
0.0
  0
SPLINE
  5
2B0
330
1F
100
AcDbEntity
  8
0
  6
Continuous
 62
     7
370
    25
100
AcDbSpline
210
0.0
220
0.0
230
1.0
 70
     8
 71
     3
 72
     9
 73
     5
 74
     0
 42
0.000000001
 43
0.00000001
 40
0.0
 40
0.0
 40
0.0
 40
0.0
 40
0.5949814498080227
 40
1.0
 40
1.0
 40
1.0
 40
1.0
 10
92.54772652585855
 20
205.5325987472166
 30
0.0
 10
92.79984673803894
 20
205.6451443412751
 30
0.0
 10
93.22359139808127
 20
205.8343024975417
 30
0.0
 10
93.74250828441745
 20
205.9819599623202
 30
0.0
 10
93.95267924939147
 20
206.0417639746298
 30
0.0
  0
SPLINE
  5
2B1
330
1F
100
AcDbEntity
  8
0
  6
Continuous
 62
     7
370
    25
100
AcDbSpline
210
0.0
220
0.0
230
1.0
 70
     8
 71
     3
 72
    10
 73
     6
 74
     0
 42
0.000000001
 43
0.00000001
 40
0.0
 40
0.0
 40
0.0
 40
0.0
 40
0.31772336717998
 40
0.6884906697757741
 40
1.0
 40
1.0
 40
1.0
 40
1.0
 10
99.70352140900543
 20
206.0717190339197
 30
0.0
 10
99.95219853404286
 20
205.996538402393
 30
0.0
 10
100.4910694452212
 20
205.8336257283475
 30
0.0
 10
101.1791504951751
 20
205.546224668294
 30
0.0
 10
101.5661401883047
 20
205.3461134296127
 30
0.0
 10
101.7428293702458
 20
205.2547479703059
 30
0.0
  0
LINE
  5
2B2
330
1F
100
AcDbEntity
  8
0
  6
Continuous
 62
     7
370
    25
100
AcDbLine
 10
87.5479482924
 20
271.2276871039
 30
0.0
 11
106.1789483642
 21
271.2276871039
 31
0.0
  0
LINE
  5
2B3
330
1F
100
AcDbEntity
  8
0
  6
Continuous
 62
     7
370
    25
100
AcDbLine
 10
107.3409483646
 20
270.0656871035
 30
0.0
 11
86.3859482919
 21
270.0656871035
 31
0.0
  0
LINE
  5
2B4
330
1F
100
AcDbEntity
  8
0
  6
Continuous
 62
     8
370
    18
100
AcDbLine
 10
122.3634478514
 20
254.818262039
 30
0.0
 11
124.3634481793
 21
254.818262039
 31
0.0
  0
LINE
  5
2B5
330
1F
100
AcDbEntity
  8
0
  6
Continuous
 62
     8
370
    18
100
AcDbLine
 10
122.3634478514
 20
254.818262039
 30
0.0
 11
122.3634478514
 21
259.7182611658
 31
0.0
  0
LINE
  5
2B6
330
1F
100
AcDbEntity
  8
0
  6
Continuous
 62
     8
370
    18
100
AcDbLine
 10
124.3634481793
 20
259.7182611658
 30
0.0
 11
122.3634478514
 21
259.7182611658
 31
0.0
  0
LINE
  5
2B7
330
1F
100
AcDbEntity
  8
0
  6
Continuous
 62
     8
370
    18
100
AcDbLine
 10
71.3634488051
 20
254.818262039
 30
0.0
 11
122.3634478514
 21
254.818262039
 31
0.0
  0
LINE
  5
2B8
330
1F
100
AcDbEntity
  8
0
  6
Continuous
 62
     8
370
    18
100
AcDbLine
 10
71.3634488051
 20
254.818262039
 30
0.0
 11
71.3634488051
 21
259.7182611658
 31
0.0
  0
LINE
  5
2B9
330
1F
100
AcDbEntity
  8
0
  6
Continuous
 62
     8
370
    18
100
AcDbLine
 10
122.3634478514
 20
259.7182611658
 30
0.0
 11
71.3634488051
 21
259.7182611658
 31
0.0
  0
LINE
  5
2BA
330
1F
100
AcDbEntity
  8
0
  6
Continuous
 62
     8
370
    18
100
AcDbLine
 10
69.3634484773
 20
254.818262039
 30
0.0
 11
71.3634488051
 21
254.818262039
 31
0.0
  0
LINE
  5
2BB
330
1F
100
AcDbEntity
  8
0
  6
Continuous
 62
     8
370
    18
100
AcDbLine
 10
71.3634488051
 20
259.7182611658
 30
0.0
 11
69.3634484773
 21
259.7182611658
 31
0.0
  0
LINE
  5
2BC
330
1F
100
AcDbEntity
  8
0
  6
Continuous
 62
     8
370
    18
100
AcDbLine
 10
71.3634488051
 20
260.0182606562
 30
0.0
 11
71.3634488051
 21
259.7182611658
 31
0.0
  0
LINE
  5
2BD
330
1F
100
AcDbEntity
  8
0
  6
Continuous
 62
     8
370
    18
100
AcDbLine
 10
122.3634478514
 20
260.0182606562
 30
0.0
 11
122.3634478514
 21
259.7182611658
 31
0.0
  0
LINE
  5
2BE
330
1F
100
AcDbEntity
  8
0
  6
Continuous
 62
     8
370
    18
100
AcDbLine
 10
122.3634478514
 20
254.0182615354
 30
0.0
 11
122.3634478514
 21
254.818262039
 31
0.0
  0
LINE
  5
2BF
330
1F
100
AcDbEntity
  8
0
  6
Continuous
 62
     8
370
    18
100
AcDbLine
 10
71.3634488051
 20
254.0182615354
 30
0.0
 11
71.3634488051
 21
254.818262039
 31
0.0
  0
LINE
  5
2C0
330
1F
100
AcDbEntity
  8
0
  6
Continuous
 62
     8
370
    18
100
AcDbLine
 10
115.8634477173
 20
252.0182612075
 30
0.0
 11
113.8634492521
 21
252.0182612075
 31
0.0
  0
LINE
  5
2C1
330
1F
100
AcDbEntity
  8
0
  6
Continuous
 62
     8
370
    18
100
AcDbLine
 10
113.8634492521
 20
252.0182612075
 30
0.0
 11
113.8634492521
 21
254.0182615354
 31
0.0
  0
LINE
  5
2C2
330
1F
100
AcDbEntity
  8
0
  6
Continuous
 62
     8
370
    18
100
AcDbLine
 10
113.8634492521
 20
252.0182612075
 30
0.0
 11
79.8634474044
 21
252.0182612075
 31
0.0
  0
LINE
  5
2C3
330
1F
100
AcDbEntity
  8
0
  6
Continuous
 62
     8
370
    18
100
AcDbLine
 10
79.8634474044
 20
252.0182612075
 30
0.0
 11
79.8634474044
 21
254.0182615354
 31
0.0
  0
LINE
  5
2C4
330
1F
100
AcDbEntity
  8
0
  6
Continuous
 62
     8
370
    18
100
AcDbLine
 10
79.8634474044
 20
252.0182612075
 30
0.0
 11
77.8634489392
 21
252.0182612075
 31
0.0
  0
SPLINE
  5
2C5
330
1F
100
AcDbEntity
  8
0
  6
Continuous
 62
     8
370
    18
100
AcDbSpline
210
0.0
220
0.0
230
1.0
 70
     8
 71
     3
 72
     9
 73
     5
 74
     0
 42
0.000000001
 43
0.00000001
 40
0.0
 40
0.0
 40
0.0
 40
0.0
 40
0.5395647886969207
 40
1.0
 40
1.0
 40
1.0
 40
1.0
 10
102.1914642182445
 20
248.7984639315833
 30
0.0
 10
102.0276696899433
 20
248.901555957801
 30
0.0
 10
101.7241018298227
 20
249.092621105819
 30
0.0
 10
101.3670983764445
 20
249.1112937492408
 30
0.0
 10
101.2027214159524
 20
249.1198912917604
 30
0.0
  0
SPLINE
  5
2C6
330
1F
100
AcDbEntity
  8
0
  6
Continuous
 62
     8
370
    18
100
AcDbSpline
210
0.0
220
0.0
230
1.0
 70
     8
 71
     3
 72
     9
 73
     5
 74
     0
 42
0.000000001
 43
0.00000001
 40
0.0
 40
0.0
 40
0.0
 40
0.0
 40
0.5785922935551663
 40
1.0
 40
1.0
 40
1.0
 40
1.0
 10
101.2027214159524
 20
249.1198912917604
 30
0.0
 10
100.9951156632552
 20
249.1057022322109
 30
0.0
 10
100.6363038453143
 20
249.0811788161413
 30
0.0
 10
100.3396706207096
 20
248.8822810028847
 30
0.0
 10
100.2146670938735
 20
248.7984639315833
 30
0.0
  0
SPLINE
  5
2C7
330
1F
100
AcDbEntity
  8
0
  6
Continuous
 62
     8
370
    18
100
AcDbSpline
210
0.0
220
0.0
230
1.0
 70
     8
 71
     3
 72
     9
 73
     5
 74
     0
 42
0.000000001
 43
0.00000001
 40
0.0
 40
0.0
 40
0.0
 40
0.0
 40
0.5428622951651214
 40
1.0
 40
1.0
 40
1.0
 40
1.0
 10
100.2146670938735
 20
248.7984639315833
 30
0.0
 10
100.0841379515044
 20
248.6558139682696
 30
0.0
 10
99.84369181344763
 20
248.3930402140705
 30
0.0
 10
99.80747588038548
 20
248.0407167907993
 30
0.0
 10
99.790920211867
 20
247.8796564697255
 30
0.0
  0
LINE
  5
2C8
330
1F
100
AcDbEntity
  8
0
  6
Continuous
 62
     8
370
    18
100
AcDbLine
 10
99.7909202119
 20
247.8796564697
 30
0.0
 11
99.7909202119
 21
247.8107544317
 31
0.0
  0
LINE
  5
2C9
330
1F
100
AcDbEntity
  8
0
  6
Continuous
 62
     8
370
    18
100
AcDbLine
 10
99.7909202119
 20
247.8107544317
 30
0.0
 11
99.7909202119
 21
247.7384074314
 31
0.0
  0
SPLINE
  5
2CA
330
1F
100
AcDbEntity
  8
0
  6
Continuous
 62
     8
370
    18
100
AcDbSpline
210
0.0
220
0.0
230
1.0
 70
     8
 71
     3
 72
    10
 73
     6
 74
     0
 42
0.000000001
 43
0.00000001
 40
0.0
 40
0.0
 40
0.0
 40
0.0
 40
0.2941547897979285
 40
0.5758711380217472
 40
1.0
 40
1.0
 40
1.0
 40
1.0
 10
99.790920211867
 20
247.7384074314465
 30
0.0
 10
99.79863562980499
 20
247.6363927213571
 30
0.0
 10
99.81374021644564
 20
247.4366770300558
 30
0.0
 10
99.94274759837215
 20
247.1068255737096
 30
0.0
 10
100.1126037731159
 20
246.9274083446709
 30
0.0
 10
100.2146670938735
 20
246.8195999695887
 30
0.0
  0
SPLINE
  5
2CB
330
1F
100
AcDbEntity
  8
0
  6
Continuous
 62
     8
370
    18
100
AcDbSpline
210
0.0
220
0.0
230
1.0
 70
     8
 71
     3
 72
     9
 73
     5
 74
     0
 42
0.000000001
 43
0.00000001
 40
0.0
 40
0.0
 40
0.0
 40
0.0
 40
0.5394185640962107
 40
1.0
 40
1.0
 40
1.0
 40
1.0
 10
100.2146670938735
 20
246.8195999695887
 30
0.0
 10
100.3784691545698
 20
246.7172192198659
 30
0.0
 10
100.6821332692276
 20
246.5274208767289
 30
0.0
 10
101.0385585488647
 20
246.5085747848917
 30
0.0
 10
101.2027214159524
 20
246.4998946248521
 30
0.0
  0
SPLINE
  5
2CC
330
1F
100
AcDbEntity
  8
0
  6
Continuous
 62
     8
370
    18
100
AcDbSpline
210
0.0
220
0.0
230
1.0
 70
     8
 71
     3
 72
     9
 73
     5
 74
     0
 42
0.000000001
 43
0.00000001
 40
0.0
 40
0.0
 40
0.0
 40
0.0
 40
0.5792789372898803
 40
1.0
 40
1.0
 40
1.0
 40
1.0
 10
101.2027214159524
 20
246.4998946248521
 30
0.0
 10
101.4104884578059
 20
246.5141169055971
 30
0.0
 10
101.76915339188
 20
246.5386686022487
 30
0.0
 10
102.0664044409768
 20
246.7364071835323
 30
0.0
 10
102.1914642182445
 20
246.8195999695887
 30
0.0
  0
SPLINE
  5
2CD
330
1F
100
AcDbEntity
  8
0
  6
Continuous
 62
     8
370
    18
100
AcDbSpline
210
0.0
220
0.0
230
1.0
 70
     8
 71
     3
 72
     9
 73
     5
 74
     0
 42
0.000000001
 43
0.00000001
 40
0.0
 40
0.0
 40
0.0
 40
0.0
 40
0.5433154448418809
 40
1.0
 40
1.0
 40
1.0
 40
1.0
 10
102.1914642182445
 20
246.8195999695887
 30
0.0
 10
102.3216119169736
 20
246.9625736228681
 30
0.0
 10
102.5611554454426
 20
247.2257239798786
 30
0.0
 10
102.5977911801628
 20
247.5776762606606
 30
0.0
 10
102.6145221543764
 20
247.7384074314465
 30
0.0
  0
LINE
  5
2CE
330
1F
100
AcDbEntity
  8
0
  6
Continuous
 62
     8
370
    18
100
AcDbLine
 10
102.6145221544
 20
247.7384074314
 30
0.0
 11
102.6145221544
 21
247.8107544317
 31
0.0
  0
LINE
  5
2CF
330
1F
100
AcDbEntity
  8
0
  6
Continuous
 62
     8
370
    18
100
AcDbLine
 10
102.6145221544
 20
247.8107544317
 30
0.0
 11
102.6145221544
 21
247.8796564697
 31
0.0
  0
SPLINE
  5
2D0
330
1F
100
AcDbEntity
  8
0
  6
Continuous
 62
     8
370
    18
100
AcDbSpline
210
0.0
220
0.0
230
1.0
 70
     8
 71
     3
 72
    10
 73
     6
 74
     0
 42
0.000000001
 43
0.00000001
 40
0.0
 40
0.0
 40
0.0
 40
0.0
 40
0.2949487906059225
 40
0.5767949362283797
 40
1.0
 40
1.0
 40
1.0
 40
1.0
 10
102.6145221543764
 20
247.8796564697255
 30
0.0
 10
102.6067952306748
 20
247.981915495459
 30
0.0
 10
102.5916846399362
 20
248.1818908474703
 30
0.0
 10
102.4626548213607
 20
248.5115961978773
 30
0.0
 10
102.2931868846419
 20
248.690860827196
 30
0.0
 10
102.1914642182445
 20
248.7984639315833
 30
0.0
  0
LINE
  5
2D1
330
1F
100
AcDbEntity
  8
0
  6
Continuous
 62
     8
370
    18
100
AcDbLine
 10
98.58031274
 20
247.0621349945
 30
0.0
 11
98.58031274
 21
248.7168148815
 31
0.0
  0
LINE
  5
2D2
330
1F
100
AcDbEntity
  8
0
  6
Continuous
 62
     8
370
    18
100
AcDbLine
 10
98.58031274
 20
248.7168148815
 30
0.0
 11
98.8538534724
 21
248.7168148815
 31
0.0
  0
SPLINE
  5
2D3
330
1F
100
AcDbEntity
  8
0
  6
Continuous
 62
     8
370
    18
100
AcDbSpline
210
0.0
220
0.0
230
1.0
 70
     8
 71
     3
 72
    13
 73
     9
 74
     0
 42
0.000000001
 43
0.00000001
 40
0.0
 40
0.0
 40
0.0
 40
0.0
 40
0.1277865551155863
 40
0.2810429265050094
 40
0.4551540375877671
 40
0.6097520929778429
 40
0.7876737495399719
 40
0.9999999999999999
 40
0.9999999999999999
 40
0.9999999999999999
 40
0.9999999999999999
 10
98.85385347244194
 20
248.7168148814668
 30
0.0
 10
98.88472591108193
 20
248.7138454152339
 30
0.0
 10
98.95262413790148
 20
248.7073146226986
 30
0.0
 10
99.05436741258556
 20
248.6606780858529
 30
0.0
 10
99.1452956347855
 20
248.5856312369444
 30
0.0
 10
99.21387135941168
 20
248.4827629294712
 30
0.0
 10
99.25830305836016
 20
248.3570236235577
 30
0.0
 10
99.26321490409892
 20
248.2625022748639
 30
0.0
 10
99.26588734325817
 20
248.2110750584831
 30
0.0
  0
LINE
  5
2D4
330
1F
100
AcDbEntity
  8
0
  6
Continuous
 62
     8
370
    18
100
AcDbLine
 10
99.2658873433
 20
248.2110750585
 30
0.0
 11
99.2658873433
 21
248.1118556767
 31
0.0
  0
LINE
  5
2D5
330
1F
100
AcDbEntity
  8
0
  6
Continuous
 62
     8
370
    18
100
AcDbLine
 10
99.2658873433
 20
248.1118556767
 30
0.0
 11
99.5876592928
 21
248.1118556767
 31
0.0
  0
LINE
  5
2D6
330
1F
100
AcDbEntity
  8
0
  6
Continuous
 62
     8
370
    18
100
AcDbLine
 10
99.5876592928
 20
248.1118556767
 30
0.0
 11
99.5876592928
 21
249.0182607158
 31
0.0
  0
LINE
  5
2D7
330
1F
100
AcDbEntity
  8
0
  6
Continuous
 62
     8
370
    18
100
AcDbLine
 10
99.5876592928
 20
249.0182607158
 30
0.0
 11
96.9642174381
 21
249.0182607158
 31
0.0
  0
LINE
  5
2D8
330
1F
100
AcDbEntity
  8
0
  6
Continuous
 62
     8
370
    18
100
AcDbLine
 10
96.9642174381
 20
249.0182607158
 30
0.0
 11
96.9642174381
 21
248.1118556767
 31
0.0
  0
LINE
  5
2D9
330
1F
100
AcDbEntity
  8
0
  6
Continuous
 62
     8
370
    18
100
AcDbLine
 10
96.9642174381
 20
248.1118556767
 30
0.0
 11
97.285645053
 21
248.1118556767
 31
0.0
  0
LINE
  5
2DA
330
1F
100
AcDbEntity
  8
0
  6
Continuous
 62
     8
370
    18
100
AcDbLine
 10
97.285645053
 20
248.1118556767
 30
0.0
 11
97.285645053
 21
248.2110750585
 31
0.0
  0
SPLINE
  5
2DB
330
1F
100
AcDbEntity
  8
0
  6
Continuous
 62
     8
370
    18
100
AcDbSpline
210
0.0
220
0.0
230
1.0
 70
     8
 71
     3
 72
    13
 73
     9
 74
     0
 42
0.000000001
 43
0.00000001
 40
0.0
 40
0.0
 40
0.0
 40
0.0
 40
0.2035582905948405
 40
0.3753889913932618
 40
0.525327611052296
 40
0.6602221025088053
 40
0.8474933748412904
 40
1.0
 40
1.0
 40
1.0
 40
1.0
 10
97.28564505295692
 20
248.2110750584831
 30
0.0
 10
97.28812919120185
 20
248.2603675238547
 30
0.0
 10
97.29271027776689
 20
248.3512694900929
 30
0.0
 10
97.33379682757219
 20
248.4729341850758
 30
0.0
 10
97.39320299505694
 20
248.5671874269595
 30
0.0
 10
97.47643580845657
 20
248.6459897000182
 30
0.0
 10
97.57947472601555
 20
248.7032134229568
 30
0.0
 10
97.6615354669982
 20
248.7126012358225
 30
0.0
 10
97.69836778233623
 20
248.7168148814668
 30
0.0
  0
LINE
  5
2DC
330
1F
100
AcDbEntity
  8
0
  6
Continuous
 62
     8
370
    18
100
AcDbLine
 10
97.6983677823
 20
248.7168148815
 30
0.0
 11
97.9732865812
 21
248.7168148815
 31
0.0
  0
LINE
  5
2DD
330
1F
100
AcDbEntity
  8
0
  6
Continuous
 62
     8
370
    18
100
AcDbLine
 10
97.9732865812
 20
248.7168148815
 30
0.0
 11
97.9732865812
 21
247.0621349945
 31
0.0
  0
SPLINE
  5
2DE
330
1F
100
AcDbEntity
  8
0
  6
Continuous
 62
     8
370
    18
100
AcDbSpline
210
0.0
220
0.0
230
1.0
 70
     8
 71
     3
 72
    11
 73
     7
 74
     0
 42
0.000000001
 43
0.00000001
 40
0.0
 40
0.0
 40
0.0
 40
0.0
 40
0.2825960006654127
 40
0.556246154860815
 40
0.7735602280343301
 40
1.0
 40
1.0
 40
1.0
 40
1.0
 10
97.97328658115914
 20
247.0621349944701
 30
0.0
 10
97.9701945614569
 20
247.0381205474045
 30
0.0
 10
97.96410840289106
 20
246.9908518535451
 30
0.0
 10
97.92108987909192
 20
246.9382079031471
 30
0.0
 10
97.86816984687346
 20
246.9062781809708
 30
0.0
 10
97.83055907119508
 20
246.9024919089367
 30
0.0
 10
97.81136695475182
 20
246.900559841
 30
0.0
  0
LINE
  5
2DF
330
1F
100
AcDbEntity
  8
0
  6
Continuous
 62
     8
370
    18
100
AcDbLine
 10
97.8113669548
 20
246.900559841
 30
0.0
 11
97.4699577777
 21
246.900559841
 31
0.0
  0
LINE
  5
2E0
330
1F
100
AcDbEntity
  8
0
  6
Continuous
 62
     8
370
    18
100
AcDbLine
 10
97.4699577777
 20
246.900559841
 30
0.0
 11
97.4699577777
 21
246.5987694173
 31
0.0
  0
LINE
  5
2E1
330
1F
100
AcDbEntity
  8
0
  6
Continuous
 62
     8
370
    18
100
AcDbLine
 10
97.4699577777
 20
246.5987694173
 30
0.0
 11
99.0832971287
 21
246.5987694173
 31
0.0
  0
LINE
  5
2E2
330
1F
100
AcDbEntity
  8
0
  6
Continuous
 62
     8
370
    18
100
AcDbLine
 10
99.0832971287
 20
246.5987694173
 30
0.0
 11
99.0832971287
 21
246.900559841
 31
0.0
  0
LINE
  5
2E3
330
1F
100
AcDbEntity
  8
0
  6
Continuous
 62
     8
370
    18
100
AcDbLine
 10
99.0832971287
 20
246.900559841
 30
0.0
 11
98.7401652959
 21
246.900559841
 31
0.0
  0
SPLINE
  5
2E4
330
1F
100
AcDbEntity
  8
0
  6
Continuous
 62
     8
370
    18
100
AcDbSpline
210
0.0
220
0.0
230
1.0
 70
     8
 71
     3
 72
    11
 73
     7
 74
     0
 42
0.000000001
 43
0.00000001
 40
0.0
 40
0.0
 40
0.0
 40
0.0
 40
0.2823447245562574
 40
0.5565518701393969
 40
0.774351947979294
 40
1.0
 40
1.0
 40
1.0
 40
1.0
 10
98.74016529594412
 20
246.900559841
 30
0.0
 10
98.71634296712492
 20
246.9037086831747
 30
0.0
 10
98.66938490309083
 20
246.9099156133869
 30
0.0
 10
98.61747367096369
 20
246.953205630939
 30
0.0
 10
98.58600629002052
 20
247.0058475866047
 30
0.0
 10
98.58223285029517
 20
247.0431524561115
 30
0.0
 10
98.58031273999116
 20
247.0621349944701
 30
0.0
  0
LINE
  5
2E5
330
1F
100
AcDbEntity
  8
0
  6
Continuous
 62
     8
370
    18
100
AcDbLine
 10
108.3634483506
 20
184.8182598784
 30
0.0
 11
113.8634492521
 21
184.8182598784
 31
0.0
  0
ARC
  5
2E6
330
1F
100
AcDbEntity
  8
0
  6
Continuous
 62
     8
370
    18
100
AcDbCircle
 10
108.3634483283
 20
186.0182611323
 30
0.0
 40
1.200000000000045
100
AcDbArc
 50
180.0
 51
270.0
  0
LINE
  5
2E7
330
1F
100
AcDbEntity
  8
0
  6
Continuous
 62
     8
370
    18
100
AcDbLine
 10
107.1634485265
 20
188.4263115658
 30
0.0
 11
107.1634485265
 21
186.0182615652
 31
0.0
  0
SPLINE
  5
2E8
330
1F
100
AcDbEntity
  8
0
  6
Continuous
 62
     8
370
    18
100
AcDbSpline
210
0.0
220
0.0
230
1.0
 70
     8
 71
     3
 72
     9
 73
     5
 74
     0
 42
0.000000001
 43
0.00000001
 40
0.0
 40
0.0
 40
0.0
 40
0.0
 40
0.506518383651051
 40
1.0
 40
1.0
 40
1.0
 40
1.0
 10
107.3661005934035
 20
189.1045416428675
 30
0.0
 10
107.3068181391209
 20
188.9974673697881
 30
0.0
 10
107.1897790420299
 20
188.7860747006659
 30
0.0
 10
107.172148750981
 20
188.545185806629
 30
0.0
 10
107.1634485264575
 20
188.4263115658392
 30
0.0
  0
ARC
  5
2E9
330
1F
100
AcDbEntity
  8
0
  6
Continuous
 62
     8
370
    18
100
AcDbCircle
 10
96.8634483283
 20
196.0182611323
 30
0.0
 40
12.57399004968966
100
AcDbArc
 50
326.6437636667
 51
213.3562363333
  0
SPLINE
  5
2EA
330
1F
100
AcDbEntity
  8
0
  6
Continuous
 62
     8
370
    18
100
AcDbSpline
210
0.0
220
0.0
230
1.0
 70
     8
 71
     3
 72
     9
 73
     5
 74
     0
 42
0.000000001
 43
0.00000001
 40
0.0
 40
0.0
 40
0.0
 40
0.0
 40
0.506518383651051
 40
1.0
 40
1.0
 40
1.0
 40
1.0
 10
86.36079606314054
 20
189.1045416428675
 30
0.0
 10
86.42007851742306
 20
188.9974673697881
 30
0.0
 10
86.5371176145141
 20
188.7860747006659
 30
0.0
 10
86.55474790556303
 20
188.545185806629
 30
0.0
 10
86.56344813008657
 20
188.4263115658392
 30
0.0
  0
LINE
  5
2EB
330
1F
100
AcDbEntity
  8
0
  6
Continuous
 62
     8
370
    18
100
AcDbLine
 10
86.5634481301
 20
188.4263115658
 30
0.0
 11
86.5634481301
 21
186.0182615652
 31
0.0
  0
ARC
  5
2EC
330
1F
100
AcDbEntity
  8
0
  6
Continuous
 62
     8
370
    18
100
AcDbCircle
 10
85.3634483283
 20
186.0182611323
 30
0.0
 40
1.200000000000045
100
AcDbArc
 50
270.0
 51
0.0
  0
LINE
  5
2ED
330
1F
100
AcDbEntity
  8
0
  6
Continuous
 62
     8
370
    18
100
AcDbLine
 10
85.3634483059
 20
184.8182598784
 30
0.0
 11
79.8634474044
 21
184.8182598784
 31
0.0
  0
LINE
  5
2EE
330
1F
100
AcDbEntity
  8
0
  6
Continuous
 62
     8
370
    18
100
AcDbLine
 10
79.8634474044
 20
184.8182598784
 30
0.0
 11
79.8634474044
 21
252.0182612075
 31
0.0
  0
LINE
  5
2EF
330
1F
100
AcDbEntity
  8
0
  6
Continuous
 62
     8
370
    18
100
AcDbLine
 10
113.8634492521
 20
184.8182598784
 30
0.0
 11
113.8634492521
 21
252.0182612075
 31
0.0
  0
LINE
  5
2F0
330
1F
100
AcDbEntity
  8
0
  6
Continuous
 62
     8
370
    18
100
AcDbLine
 10
92.7277805162
 20
247.0621349945
 30
0.0
 11
92.7277805162
 21
248.7168148815
 31
0.0
  0
LINE
  5
2F1
330
1F
100
AcDbEntity
  8
0
  6
Continuous
 62
     8
370
    18
100
AcDbLine
 10
92.7277805162
 20
248.7168148815
 30
0.0
 11
93.0026994896
 21
248.7168148815
 31
0.0
  0
SPLINE
  5
2F2
330
1F
100
AcDbEntity
  8
0
  6
Continuous
 62
     8
370
    18
100
AcDbSpline
210
0.0
220
0.0
230
1.0
 70
     8
 71
     3
 72
    13
 73
     9
 74
     0
 42
0.000000001
 43
0.00000001
 40
0.0
 40
0.0
 40
0.0
 40
0.0
 40
0.1274616897879364
 40
0.2806410870983749
 40
0.4548265839941622
 40
0.6095278241313105
 40
0.7875596785330445
 40
1.0
 40
1.0
 40
1.0
 40
1.0
 10
93.00269948963872
 20
248.7168148814668
 30
0.0
 10
93.03347592206228
 20
248.7138394954954
 30
0.0
 10
93.10123849030322
 20
248.7072883854721
 30
0.0
 10
93.20282513325247
 20
248.6606447366892
 30
0.0
 10
93.29371487875878
 20
248.5856208817383
 30
0.0
 10
93.3623176541402
 20
248.4827660083381
 30
0.0
 10
93.40679331810766
 20
248.3570298334286
 30
0.0
 10
93.41171246154994
 20
248.2625032167084
 30
0.0
 10
93.41438877110234
 20
248.2110750584831
 30
0.0
  0
LINE
  5
2F3
330
1F
100
AcDbEntity
  8
0
  6
Continuous
 62
     8
370
    18
100
AcDbLine
 10
93.4143887711
 20
248.2110750585
 30
0.0
 11
93.4143887711
 21
248.1118556767
 31
0.0
  0
LINE
  5
2F4
330
1F
100
AcDbEntity
  8
0
  6
Continuous
 62
     8
370
    18
100
AcDbLine
 10
93.4143887711
 20
248.1118556767
 30
0.0
 11
93.7361609535
 21
248.1118556767
 31
0.0
  0
LINE
  5
2F5
330
1F
100
AcDbEntity
  8
0
  6
Continuous
 62
     8
370
    18
100
AcDbLine
 10
93.7361609535
 20
248.1118556767
 30
0.0
 11
93.7361609535
 21
249.0182607158
 31
0.0
  0
LINE
  5
2F6
330
1F
100
AcDbEntity
  8
0
  6
Continuous
 62
     8
370
    18
100
AcDbLine
 10
93.7361609535
 20
249.0182607158
 30
0.0
 11
91.1134078046
 21
249.0182607158
 31
0.0
  0
LINE
  5
2F7
330
1F
100
AcDbEntity
  8
0
  6
Continuous
 62
     8
370
    18
100
AcDbLine
 10
91.1134078046
 20
249.0182607158
 30
0.0
 11
91.1134078046
 21
248.1118556767
 31
0.0
  0
LINE
  5
2F8
330
1F
100
AcDbEntity
  8
0
  6
Continuous
 62
     8
370
    18
100
AcDbLine
 10
91.1134078046
 20
248.1118556767
 30
0.0
 11
91.4351802198
 21
248.1118556767
 31
0.0
  0
LINE
  5
2F9
330
1F
100
AcDbEntity
  8
0
  6
Continuous
 62
     8
370
    18
100
AcDbLine
 10
91.4351802198
 20
248.1118556767
 30
0.0
 11
91.4351802198
 21
248.2110750585
 31
0.0
  0
SPLINE
  5
2FA
330
1F
100
AcDbEntity
  8
0
  6
Continuous
 62
     8
370
    18
100
AcDbSpline
210
0.0
220
0.0
230
1.0
 70
     8
 71
     3
 72
    13
 73
     9
 74
     0
 42
0.000000001
 43
0.00000001
 40
0.0
 40
0.0
 40
0.0
 40
0.0
 40
0.2037879032889307
 40
0.3757209961650935
 40
0.5256082725279991
 40
0.6603393114073202
 40
0.8473556195210309
 40
0.9999999999999999
 40
0.9999999999999999
 40
0.9999999999999999
 40
0.9999999999999999
 10
91.43518021975508
 20
248.2110750584831
 30
0.0
 10
91.43764708482989
 20
248.2603628724358
 30
0.0
 10
91.44219521054468
 20
248.3512341472184
 30
0.0
 10
91.48301778592896
 20
248.4728823940854
 30
0.0
 10
91.54209761891431
 20
248.5671509966145
 30
0.0
 10
91.62495614527631
 20
248.6459877538714
 30
0.0
 10
91.7277566459841
 20
248.7032595959543
 30
0.0
 10
91.80969955802543
 20
248.7126119221855
 30
0.0
 10
91.8465249118661
 20
248.7168148814668
 30
0.0
  0
LINE
  5
2FB
330
1F
100
AcDbEntity
  8
0
  6
Continuous
 62
     8
370
    18
100
AcDbLine
 10
91.8465249119
 20
248.7168148815
 30
0.0
 11
92.1214434197
 21
248.7168148815
 31
0.0
  0
LINE
  5
2FC
330
1F
100
AcDbEntity
  8
0
  6
Continuous
 62
     8
370
    18
100
AcDbLine
 10
92.1214434197
 20
248.7168148815
 30
0.0
 11
92.1214434197
 21
247.0621349945
 31
0.0
  0
SPLINE
  5
2FD
330
1F
100
AcDbEntity
  8
0
  6
Continuous
 62
     8
370
    18
100
AcDbSpline
210
0.0
220
0.0
230
1.0
 70
     8
 71
     3
 72
    11
 73
     7
 74
     0
 42
0.000000001
 43
0.00000001
 40
0.0
 40
0.0
 40
0.0
 40
0.0
 40
0.283667006539756
 40
0.5585769400216095
 40
0.7758533323924285
 40
1.0
 40
1.0
 40
1.0
 40
1.0
 10
92.1214434196507
 20
247.0621349944701
 30
0.0
 10
92.11829753930512
 20
247.0381118311736
 30
0.0
 10
92.112102894963
 20
246.9908071227147
 30
0.0
 10
92.06896743151462
 20
246.9383286745814
 30
0.0
 10
92.01642726612292
 20
246.9063679460212
 30
0.0
 10
91.97914441489203
 20
246.9025158605298
 30
0.0
 10
91.96021285553327
 20
246.900559841
 30
0.0
  0
LINE
  5
2FE
330
1F
100
AcDbEntity
  8
0
  6
Continuous
 62
     8
370
    18
100
AcDbLine
 10
91.9602128555
 20
246.900559841
 30
0.0
 11
91.6174256121
 21
246.900559841
 31
0.0
  0
LINE
  5
2FF
330
1F
100
AcDbEntity
  8
0
  6
Continuous
 62
     8
370
    18
100
AcDbLine
 10
91.6174256121
 20
246.900559841
 30
0.0
 11
91.6174256121
 21
246.5987694173
 31
0.0
  0
LINE
  5
300
330
1F
100
AcDbEntity
  8
0
  6
Continuous
 62
     8
370
    18
100
AcDbLine
 10
91.6174256121
 20
246.5987694173
 30
0.0
 11
93.2314539672
 21
246.5987694173
 31
0.0
  0
LINE
  5
301
330
1F
100
AcDbEntity
  8
0
  6
Continuous
 62
     8
370
    18
100
AcDbLine
 10
93.2314539672
 20
246.5987694173
 30
0.0
 11
93.2314539672
 21
246.900559841
 31
0.0
  0
LINE
  5
302
330
1F
100
AcDbEntity
  8
0
  6
Continuous
 62
     8
370
    18
100
AcDbLine
 10
93.2314539672
 20
246.900559841
 30
0.0
 11
92.8890110803
 21
246.900559841
 31
0.0
  0
SPLINE
  5
303
330
1F
100
AcDbEntity
  8
0
  6
Continuous
 62
     8
370
    18
100
AcDbSpline
210
0.0
220
0.0
230
1.0
 70
     8
 71
     3
 72
    11
 73
     7
 74
     0
 42
0.000000001
 43
0.00000001
 40
0.0
 40
0.0
 40
0.0
 40
0.0
 40
0.2833362481238287
 40
0.5578647645588516
 40
0.775238813880189
 40
1.0
 40
1.0
 40
1.0
 40
1.0
 10
92.88901108031025
 20
246.900559841
 30
0.0
 10
92.86500603777667
 20
246.9037024324381
 30
0.0
 10
92.8177421684698
 20
246.9098899253703
 30
0.0
 10
92.76535557140201
 20
246.9531220619322
 30
0.0
 10
92.73354260272804
 20
247.0057925467436
 30
0.0
 10
92.72972248703314
 20
247.0431461455717
 30
0.0
 10
92.72778051619282
 20
247.0621349944701
 30
0.0
  0
SPLINE
  5
304
330
1F
100
AcDbEntity
  8
0
  6
Continuous
 62
     8
370
    18
100
AcDbSpline
210
0.0
220
0.0
230
1.0
 70
     8
 71
     3
 72
     9
 73
     5
 74
     0
 42
0.000000001
 43
0.00000001
 40
0.0
 40
0.0
 40
0.0
 40
0.0
 40
0.5405502592559945
 40
1.0
 40
1.0
 40
1.0
 40
1.0
 10
96.34031023544124
 20
248.7984639315833
 30
0.0
 10
96.17614497997216
 20
248.9015603499013
 30
0.0
 10
95.87244471777079
 20
249.0922852946268
 30
0.0
 10
95.51554478287699
 20
249.1112006408445
 30
0.0
 10
95.35156720031848
 20
249.1198912917604
 30
0.0
  0
SPLINE
  5
305
330
1F
100
AcDbEntity
  8
0
  6
Continuous
 62
     8
370
    18
100
AcDbSpline
210
0.0
220
0.0
230
1.0
 70
     8
 71
     3
 72
     9
 73
     5
 74
     0
 42
0.000000001
 43
0.00000001
 40
0.0
 40
0.0
 40
0.0
 40
0.0
 40
0.5791859260370829
 40
1.0
 40
1.0
 40
1.0
 40
1.0
 10
95.35156720031848
 20
249.1198912917604
 30
0.0
 10
95.14369516003941
 20
249.105793444094
 30
0.0
 10
94.78479134187972
 20
249.0814526460316
 30
0.0
 10
94.4882865151543
 20
248.8822790035162
 30
0.0
 10
94.3635131110703
 20
248.7984639315833
 30
0.0
  0
SPLINE
  5
306
330
1F
100
AcDbEntity
  8
0
  6
Continuous
 62
     8
370
    18
100
AcDbSpline
210
0.0
220
0.0
230
1.0
 70
     8
 71
     3
 72
     9
 73
     5
 74
     0
 42
0.000000001
 43
0.00000001
 40
0.0
 40
0.0
 40
0.0
 40
0.0
 40
0.5432550787477689
 40
1.0
 40
1.0
 40
1.0
 40
1.0
 10
94.3635131110703
 20
248.7984639315833
 30
0.0
 10
94.2323217531515
 20
248.6558994447034
 30
0.0
 10
93.99083048495903
 20
248.3934730220943
 30
0.0
 10
93.95435784958238
 20
248.0407574952558
 30
0.0
 10
93.93769915860942
 20
247.8796564697255
 30
0.0
  0
LINE
  5
307
330
1F
100
AcDbEntity
  8
0
  6
Continuous
 62
     8
370
    18
100
AcDbLine
 10
93.9376991586
 20
247.8796564697
 30
0.0
 11
93.9376991586
 21
247.8107544317
 31
0.0
  0
LINE
  5
308
330
1F
100
AcDbEntity
  8
0
  6
Continuous
 62
     8
370
    18
100
AcDbLine
 10
93.9376991586
 20
247.8107544317
 30
0.0
 11
93.9376991586
 21
247.7384074314
 31
0.0
  0
SPLINE
  5
309
330
1F
100
AcDbEntity
  8
0
  6
Continuous
 62
     8
370
    18
100
AcDbSpline
210
0.0
220
0.0
230
1.0
 70
     8
 71
     3
 72
    10
 73
     6
 74
     0
 42
0.000000001
 43
0.00000001
 40
0.0
 40
0.0
 40
0.0
 40
0.0
 40
0.2938654391304951
 40
0.5754573487143484
 40
1.0
 40
1.0
 40
1.0
 40
1.0
 10
93.93769915860942
 20
247.7384074314465
 30
0.0
 10
93.94544626261276
 20
247.6363839961218
 30
0.0
 10
93.9606169065074
 20
247.4365982173913
 30
0.0
 10
94.09033285632015
 20
247.106571217247
 30
0.0
 10
94.26094036229307
 20
246.927350911249
 30
0.0
 10
94.3635131110703
 20
246.8195999695887
 30
0.0
  0
SPLINE
  5
30A
330
1F
100
AcDbEntity
  8
0
  6
Continuous
 62
     8
370
    18
100
AcDbSpline
210
0.0
220
0.0
230
1.0
 70
     8
 71
     3
 72
     9
 73
     5
 74
     0
 42
0.000000001
 43
0.00000001
 40
0.0
 40
0.0
 40
0.0
 40
0.0
 40
0.5388884331819231
 40
1.0
 40
1.0
 40
1.0
 40
1.0
 10
94.3635131110703
 20
246.8195999695887
 30
0.0
 10
94.52711605352478
 20
246.7172215468426
 30
0.0
 10
94.83070939934679
 20
246.5272408078953
 30
0.0
 10
95.187189912403
 20
246.5085247949198
 30
0.0
 10
95.35156720031848
 20
246.4998946248521
 30
0.0
  0
SPLINE
  5
30B
330
1F
100
AcDbEntity
  8
0
  6
Continuous
 62
     8
370
    18
100
AcDbSpline
210
0.0
220
0.0
230
1.0
 70
     8
 71
     3
 72
     9
 73
     5
 74
     0
 42
0.000000001
 43
0.00000001
 40
0.0
 40
0.0
 40
0.0
 40
0.0
 40
0.5782404556218702
 40
1.0
 40
1.0
 40
1.0
 40
1.0
 10
95.35156720031848
 20
246.4998946248521
 30
0.0
 10
95.55887010514901
 20
246.5142751113823
 30
0.0
 10
95.9173765064481
 20
246.5391444998701
 30
0.0
 10
96.21484855836115
 20
246.7364039245228
 30
0.0
 10
96.34031023544124
 20
246.8195999695887
 30
0.0
  0
SPLINE
  5
30C
330
1F
100
AcDbEntity
  8
0
  6
Continuous
 62
     8
370
    18
100
AcDbSpline
210
0.0
220
0.0
230
1.0
 70
     8
 71
     3
 72
     9
 73
     5
 74
     0
 42
0.000000001
 43
0.00000001
 40
0.0
 40
0.0
 40
0.0
 40
0.0
 40
0.5431986672221796
 40
1.0
 40
1.0
 40
1.0
 40
1.0
 10
96.34031023544124
 20
246.8195999695887
 30
0.0
 10
96.470257061855
 20
246.96259899917
 30
0.0
 10
96.7094822924291
 20
247.2258526450461
 30
0.0
 10
96.74599854539828
 20
247.5776883929055
 30
0.0
 10
96.76267921842266
 20
247.7384074314465
 30
0.0
  0
LINE
  5
30D
330
1F
100
AcDbEntity
  8
0
  6
Continuous
 62
     8
370
    18
100
AcDbLine
 10
96.7626792184
 20
247.7384074314
 30
0.0
 11
96.7626792184
 21
247.8107544317
 31
0.0
  0
LINE
  5
30E
330
1F
100
AcDbEntity
  8
0
  6
Continuous
 62
     8
370
    18
100
AcDbLine
 10
96.7626792184
 20
247.8107544317
 30
0.0
 11
96.7626792184
 21
247.8796564697
 31
0.0
  0
SPLINE
  5
30F
330
1F
100
AcDbEntity
  8
0
  6
Continuous
 62
     8
370
    18
100
AcDbSpline
210
0.0
220
0.0
230
1.0
 70
     8
 71
     3
 72
    10
 73
     6
 74
     0
 42
0.000000001
 43
0.00000001
 40
0.0
 40
0.0
 40
0.0
 40
0.0
 40
0.2950382447002216
 40
0.5769111761236468
 40
1.0
 40
1.0
 40
1.0
 40
1.0
 10
96.76267921842266
 20
247.8796564697255
 30
0.0
 10
96.75496788252795
 20
247.9819114814541
 30
0.0
 10
96.73988930901957
 20
248.1818586413241
 30
0.0
 10
96.611137134704
 20
248.5115319590596
 30
0.0
 10
96.44188709413746
 20
248.6908466730768
 30
0.0
 10
96.34031023544124
 20
248.7984639315833
 30
0.0
  0
LINE
  5
310
330
1F
100
AcDbEntity
  8
0
  6
Continuous
 62
     8
370
    18
100
AcDbLine
 10
113.8634492521
 20
184.8182598784
 30
0.0
 11
115.8634477173
 21
184.8182598784
 31
0.0
  0
LINE
  5
311
330
1F
100
AcDbEntity
  8
0
  6
Continuous
 62
     8
370
    18
100
AcDbLine
 10
79.8634474044
 20
184.8182598784
 30
0.0
 11
77.8634489392
 21
184.8182598784
 31
0.0
  0
LINE
  5
312
330
1F
100
AcDbEntity
  8
0
  6
Continuous
 62
     8
370
    18
100
AcDbLine
 10
94.6256850724
 20
247.8407262548
 30
0.0
 11
94.6256850724
 21
247.7780258938
 31
0.0
  0
SPLINE
  5
313
330
1F
100
AcDbEntity
  8
0
  6
Continuous
 62
     8
370
    18
100
AcDbSpline
210
0.0
220
0.0
230
1.0
 70
     8
 71
     3
 72
     9
 73
     5
 74
     0
 42
0.000000001
 43
0.00000001
 40
0.0
 40
0.0
 40
0.0
 40
0.0
 40
0.6451601158609231
 40
1.0
 40
1.0
 40
1.0
 40
1.0
 10
94.62568507243743
 20
247.7780258937706
 30
0.0
 10
94.63201472819708
 20
247.6113331166698
 30
0.0
 10
94.64182571248458
 20
247.3529588418149
 30
0.0
 10
94.77968384012459
 20
247.1383033310424
 30
0.0
 10
94.82860140216401
 20
247.0621349944701
 30
0.0
  0
SPLINE
  5
314
330
1F
100
AcDbEntity
  8
0
  6
Continuous
 62
     8
370
    18
100
AcDbSpline
210
0.0
220
0.0
230
1.0
 70
     8
 71
     3
 72
    10
 73
     6
 74
     0
 42
0.000000001
 43
0.00000001
 40
0.0
 40
0.0
 40
0.0
 40
0.0
 40
0.3959243513563502
 40
0.7115342397195955
 40
1.0
 40
1.0
 40
1.0
 40
1.0
 10
94.82860140216401
 20
247.0621349944701
 30
0.0
 10
94.88488462767592
 20
247.0067139944282
 30
0.0
 10
94.986033854634
 20
246.9071143133421
 30
0.0
 10
95.17513931630094
 20
246.8333301719949
 30
0.0
 10
95.29454642437584
 20
246.8252029823118
 30
0.0
 10
95.35156720031848
 20
246.8213219850292
 30
0.0
  0
SPLINE
  5
315
330
1F
100
AcDbEntity
  8
0
  6
Continuous
 62
     8
370
    18
100
AcDbSpline
210
0.0
220
0.0
230
1.0
 70
     8
 71
     3
 72
    11
 73
     7
 74
     0
 42
0.000000001
 43
0.00000001
 40
0.0
 40
0.0
 40
0.0
 40
0.0
 40
0.1489211223882403
 40
0.4133601951445778
 40
0.6805056551217484
 40
1.0
 40
1.0
 40
1.0
 40
1.0
 10
95.35156720031848
 20
246.8213219850292
 30
0.0
 10
95.3811291981947
 20
246.8222259305379
 30
0.0
 10
95.4631844030912
 20
246.8247350110896
 30
0.0
 10
95.59532001110503
 20
246.8578207157212
 30
0.0
 10
95.74912589884738
 20
246.9329125168406
 30
0.0
 10
95.83120777481948
 20
247.016572369062
 30
0.0
 10
95.87591100663742
 20
247.0621349944701
 30
0.0
  0
SPLINE
  5
316
330
1F
100
AcDbEntity
  8
0
  6
Continuous
 62
     8
370
    18
100
AcDbSpline
210
0.0
220
0.0
230
1.0
 70
     8
 71
     3
 72
    10
 73
     6
 74
     0
 42
0.000000001
 43
0.00000001
 40
0.0
 40
0.0
 40
0.0
 40
0.0
 40
0.2132514310453084
 40
0.4713092752765329
 40
1.0
 40
1.0
 40
1.0
 40
1.0
 10
95.87591100663742
 20
247.0621349944701
 30
0.0
 10
95.90703739800101
 20
247.1062049059725
 30
0.0
 10
95.97583016944283
 20
247.2036042901169
 30
0.0
 10
96.05975887521424
 20
247.4451911486061
 30
0.0
 10
96.0701332295884
 20
247.6442556441819
 30
0.0
 10
96.07710473884693
 20
247.7780258937706
 30
0.0
  0
LINE
  5
317
330
1F
100
AcDbEntity
  8
0
  6
Continuous
 62
     8
370
    18
100
AcDbLine
 10
96.0771047388
 20
247.7780258938
 30
0.0
 11
96.0771047388
 21
247.8407262548
 31
0.0
  0
SPLINE
  5
318
330
1F
100
AcDbEntity
  8
0
  6
Continuous
 62
     8
370
    18
100
AcDbSpline
210
0.0
220
0.0
230
1.0
 70
     8
 71
     3
 72
     9
 73
     5
 74
     0
 42
0.000000001
 43
0.00000001
 40
0.0
 40
0.0
 40
0.0
 40
0.0
 40
0.645305514622897
 40
0.9999999999999999
 40
0.9999999999999999
 40
0.9999999999999999
 40
0.9999999999999999
 10
96.07710473884693
 20
247.840726254784
 30
0.0
 10
96.07056003893068
 20
248.0074054070807
 30
0.0
 10
96.06041802128487
 20
248.2657003519087
 30
0.0
 10
95.92421977390211
 20
248.4814656732148
 30
0.0
 10
95.87591100663742
 20
248.5579964428176
 30
0.0
  0
SPLINE
  5
319
330
1F
100
AcDbEntity
  8
0
  6
Continuous
 62
     8
370
    18
100
AcDbSpline
210
0.0
220
0.0
230
1.0
 70
     8
 71
     3
 72
    10
 73
     6
 74
     0
 42
0.000000001
 43
0.00000001
 40
0.0
 40
0.0
 40
0.0
 40
0.0
 40
0.3957294345680792
 40
0.7095058541369658
 40
1.0
 40
1.0
 40
1.0
 40
1.0
 10
95.87591100663742
 20
248.5579964428176
 30
0.0
 10
95.81920120464027
 20
248.6129238878995
 30
0.0
 10
95.71752583508419
 20
248.7114036582531
 30
0.0
 10
95.52860316975823
 20
248.7855672065034
 30
0.0
 10
95.40904366544974
 20
248.7935787380904
 30
0.0
 10
95.35156720031848
 20
248.7974301635255
 30
0.0
  0
SPLINE
  5
31A
330
1F
100
AcDbEntity
  8
0
  6
Continuous
 62
     8
370
    18
100
AcDbSpline
210
0.0
220
0.0
230
1.0
 70
     8
 71
     3
 72
    11
 73
     7
 74
     0
 42
0.000000001
 43
0.00000001
 40
0.0
 40
0.0
 40
0.0
 40
0.0
 40
0.1481862192207088
 40
0.4143896648385874
 40
0.6821973173254852
 40
0.9999999999999999
 40
0.9999999999999999
 40
0.9999999999999999
 40
0.9999999999999999
 10
95.35156720031848
 20
248.7974301635255
 30
0.0
 10
95.32224973706913
 20
248.7964741402702
 30
0.0
 10
95.24026604227141
 20
248.7938007057335
 30
0.0
 10
95.10825008035523
 20
248.7609071066126
 30
0.0
 10
94.95445044430231
 20
248.6866161089032
 30
0.0
 10
94.87287258534818
 20
248.6032422762512
 30
0.0
 10
94.82860140216401
 20
248.5579964428176
 30
0.0
  0
SPLINE
  5
31B
330
1F
100
AcDbEntity
  8
0
  6
Continuous
 62
     8
370
    18
100
AcDbSpline
210
0.0
220
0.0
230
1.0
 70
     8
 71
     3
 72
    10
 73
     6
 74
     0
 42
0.000000001
 43
0.00000001
 40
0.0
 40
0.0
 40
0.0
 40
0.0
 40
0.2141349013141976
 40
0.472534701453391
 40
1.0
 40
1.0
 40
1.0
 40
1.0
 10
94.82860140216401
 20
248.5579964428176
 30
0.0
 10
94.79701357750416
 20
248.5137858046216
 30
0.0
 10
94.72730825061161
 20
248.4162255255974
 30
0.0
 10
94.64306866966602
 20
248.173911745714
 30
0.0
 10
94.6326667461437
 20
247.974541618241
 30
0.0
 10
94.62568507243743
 20
247.840726254784
 30
0.0
  0
SPLINE
  5
31C
330
1F
100
AcDbEntity
  8
0
  6
Continuous
 62
     8
370
    18
100
AcDbSpline
210
0.0
220
0.0
230
1.0
 70
     8
 71
     3
 72
    10
 73
     6
 74
     0
 42
0.000000001
 43
0.00000001
 40
0.0
 40
0.0
 40
0.0
 40
0.0
 40
0.3957296179381415
 40
0.7097827300074525
 40
1.0
 40
1.0
 40
1.0
 40
1.0
 10
101.7277540517305
 20
248.5579964428176
 30
0.0
 10
101.6711567708989
 20
248.6129312558292
 30
0.0
 10
101.5696435894772
 20
248.7114626262
 30
0.0
 10
101.3808859202621
 20
248.7855193816509
 30
0.0
 10
101.2614578726305
 20
248.7935657003424
 30
0.0
 10
101.2040993077015
 20
248.7974301635255
 30
0.0
  0
SPLINE
  5
31D
330
1F
100
AcDbEntity
  8
0
  6
Continuous
 62
     8
370
    18
100
AcDbSpline
210
0.0
220
0.0
230
1.0
 70
     8
 71
     3
 72
     9
 73
     5
 74
     0
 42
0.000000001
 43
0.00000001
 40
0.0
 40
0.0
 40
0.0
 40
0.0
 40
0.6450800769626975
 40
1.0
 40
1.0
 40
1.0
 40
1.0
 10
101.9296368462299
 20
247.840726254784
 30
0.0
 10
101.923118837495
 20
248.0074485788707
 30
0.0
 10
101.9130146520338
 20
248.2659007153429
 30
0.0
 10
101.7762828812824
 20
248.4814822582136
 30
0.0
 10
101.7277540517305
 20
248.5579964428176
 30
0.0
  0
LINE
  5
31E
330
1F
100
AcDbEntity
  8
0
  6
Continuous
 62
     8
370
    18
100
AcDbLine
 10
101.9296368462
 20
247.7780258938
 30
0.0
 11
101.9296368462
 21
247.8407262548
 31
0.0
  0
SPLINE
  5
31F
330
1F
100
AcDbEntity
  8
0
  6
Continuous
 62
     8
370
    18
100
AcDbSpline
210
0.0
220
0.0
230
1.0
 70
     8
 71
     3
 72
    10
 73
     6
 74
     0
 42
0.000000001
 43
0.00000001
 40
0.0
 40
0.0
 40
0.0
 40
0.0
 40
0.2134737666692481
 40
0.4715169678250574
 40
1.0
 40
1.0
 40
1.0
 40
1.0
 10
101.7277540517305
 20
247.0621349944701
 30
0.0
 10
101.7590394740037
 20
247.106191957838
 30
0.0
 10
101.8281421449199
 20
247.2035041761164
 30
0.0
 10
101.9122974699739
 20
247.4451597003174
 30
0.0
 10
101.9226684039686
 20
247.6442518285689
 30
0.0
 10
101.9296368462299
 20
247.7780258937706
 30
0.0
  0
SPLINE
  5
320
330
1F
100
AcDbEntity
  8
0
  6
Continuous
 62
     8
370
    18
100
AcDbSpline
210
0.0
220
0.0
230
1.0
 70
     8
 71
     3
 72
    11
 73
     7
 74
     0
 42
0.000000001
 43
0.00000001
 40
0.0
 40
0.0
 40
0.0
 40
0.0
 40
0.1485436966880207
 40
0.4132047763486827
 40
0.680533665754704
 40
0.9999999999999999
 40
0.9999999999999999
 40
0.9999999999999999
 40
0.9999999999999999
 10
101.2040993077015
 20
246.8213219850292
 30
0.0
 10
101.2335558609089
 20
246.822231051513
 30
0.0
 10
101.3154953087039
 20
246.8247598064956
 30
0.0
 10
101.447494920389
 20
246.8578214350569
 30
0.0
 10
101.601229046362
 20
246.9328664047076
 30
0.0
 10
101.6831527119702
 20
247.0165665135556
 30
0.0
 10
101.7277540517305
 20
247.0621349944701
 30
0.0
  0
SPLINE
  5
321
330
1F
100
AcDbEntity
  8
0
  6
Continuous
 62
     8
370
    18
100
AcDbSpline
210
0.0
220
0.0
230
1.0
 70
     8
 71
     3
 72
    10
 73
     6
 74
     0
 42
0.000000001
 43
0.00000001
 40
0.0
 40
0.0
 40
0.0
 40
0.0
 40
0.396441297666238
 40
0.712108039007443
 40
1.0
 40
1.0
 40
1.0
 40
1.0
 10
100.681133509547
 20
247.0621349944701
 30
0.0
 10
100.7375451661424
 20
247.0067228370181
 30
0.0
 10
100.838874655254
 20
246.9071886991455
 30
0.0
 10
101.0279124538434
 20
246.8333699179743
 30
0.0
 10
101.1472001646025
 20
246.8252128375285
 30
0.0
 10
101.2040993077015
 20
246.8213219850292
 30
0.0
  0
SPLINE
  5
322
330
1F
100
AcDbEntity
  8
0
  6
Continuous
 62
     8
370
    18
100
AcDbSpline
210
0.0
220
0.0
230
1.0
 70
     8
 71
     3
 72
     9
 73
     5
 74
     0
 42
0.000000001
 43
0.00000001
 40
0.0
 40
0.0
 40
0.0
 40
0.0
 40
0.6449766370913907
 40
1.0
 40
1.0
 40
1.0
 40
1.0
 10
100.4778725904678
 20
247.7780258937706
 30
0.0
 10
100.4841083216568
 20
247.6112982044478
 30
0.0
 10
100.4937764721453
 20
247.3527962995189
 30
0.0
 10
100.6320449644313
 20
247.1382898098117
 30
0.0
 10
100.681133509547
 20
247.0621349944701
 30
0.0
  0
LINE
  5
323
330
1F
100
AcDbEntity
  8
0
  6
Continuous
 62
     8
370
    18
100
AcDbLine
 10
100.4778725905
 20
247.8407262548
 30
0.0
 11
100.4778725905
 21
247.7780258938
 31
0.0
  0
SPLINE
  5
324
330
1F
100
AcDbEntity
  8
0
  6
Continuous
 62
     8
370
    18
100
AcDbSpline
210
0.0
220
0.0
230
1.0
 70
     8
 71
     3
 72
    10
 73
     6
 74
     0
 42
0.000000001
 43
0.00000001
 40
0.0
 40
0.0
 40
0.0
 40
0.0
 40
0.2143385732983684
 40
0.4726944584407797
 40
1.0
 40
1.0
 40
1.0
 40
1.0
 10
100.681133509547
 20
248.5579964428176
 30
0.0
 10
100.649404316024
 20
248.5137995800833
 30
0.0
 10
100.5794299118917
 20
248.4163294337932
 30
0.0
 10
100.4951722659271
 20
248.1739069023774
 30
0.0
 10
100.4848203773942
 20
247.9745361723701
 30
0.0
 10
100.4778725904678
 20
247.840726254784
 30
0.0
  0
SPLINE
  5
325
330
1F
100
AcDbEntity
  8
0
  6
Continuous
 62
     8
370
    18
100
AcDbSpline
210
0.0
220
0.0
230
1.0
 70
     8
 71
     3
 72
    11
 73
     7
 74
     0
 42
0.000000001
 43
0.00000001
 40
0.0
 40
0.0
 40
0.0
 40
0.0
 40
0.147758416367989
 40
0.4137861370736507
 40
0.6817554893808468
 40
1.0
 40
1.0
 40
1.0
 40
1.0
 10
101.2040993077015
 20
248.7974301635255
 30
0.0
 10
101.1748709079602
 20
248.7964714256115
 30
0.0
 10
101.0930190113367
 20
248.7937865534557
 30
0.0
 10
100.9611170182954
 20
248.760870818966
 30
0.0
 10
100.807273284734
 20
248.6865730914859
 30
0.0
 10
100.7255173001096
 20
248.6032376764988
 30
0.0
 10
100.681133509547
 20
248.5579964428176
 30
0.0
  0
LWPOLYLINE
  5
326
330
1F
100
AcDbEntity
  8
0
  6
Continuous
 62
     8
370
    18
100
AcDbPolyline
 90
        9
 70
   128
 43
0.0
 10
106.701202399
 20
189.5422334506
 10
106.7245711451
 20
189.526851727
 10
106.7695726519
 20
189.4972282185
 10
106.8346888637
 20
189.4543613031
 10
106.9177255844
 20
189.3997001185
 10
107.0158813958
 20
189.3350849583
 10
107.1258463775
 20
189.2626988425
 10
107.2439138656
 20
189.1849743857
 10
107.3661005934
 20
189.1045416429
  0
ARC
  5
327
330
1F
100
AcDbEntity
  8
0
  6
Continuous
 62
     8
370
    18
100
AcDbCircle
 10
96.8634483283
 20
196.0182611323
 30
0.0
 40
11.77796029752168
100
AcDbArc
 50
326.6437636667
 51
213.3562363333
  0
LWPOLYLINE
  5
328
330
1F
100
AcDbEntity
  8
0
  6
Continuous
 62
     8
370
    18
100
AcDbPolyline
 90
        9
 70
   128
 43
0.0
 10
87.0256942575
 20
189.5422334506
 10
87.0023255115
 20
189.526851727
 10
86.9573240047
 20
189.4972282185
 10
86.8922077929
 20
189.4543613031
 10
86.8091710721
 20
189.3997001185
 10
86.7110152607
 20
189.3350849583
 10
86.601050279
 20
189.2626988425
 10
86.482982791
 20
189.1849743857
 10
86.3607960631
 20
189.1045416429
  0
LINE
  5
329
330
1F
100
AcDbEntity
  8
0
  6
Continuous
 62
     8
370
    18
100
AcDbLine
 10
106.3634480228
 20
188.4263115658
 30
0.0
 11
107.1634485265
 21
188.4263115658
 31
0.0
  0
LINE
  5
32A
330
1F
100
AcDbEntity
  8
0
  6
Continuous
 62
     8
370
    18
100
AcDbLine
 10
87.3634486337
 20
188.4263115658
 30
0.0
 11
86.5634481301
 21
188.4263115658
 31
0.0
  0
LINE
  5
32B
330
1F
100
AcDbEntity
  8
0
  6
Continuous
 62
     8
370
    18
100
AcDbLine
 10
87.3634486337
 20
186.0182615652
 30
0.0
 11
86.5634481301
 21
186.0182615652
 31
0.0
  0
LINE
  5
32C
330
1F
100
AcDbEntity
  8
0
  6
Continuous
 62
     8
370
    18
100
AcDbLine
 10
106.3634480228
 20
186.0182615652
 30
0.0
 11
107.1634485265
 21
186.0182615652
 31
0.0
  0
LINE
  5
32D
330
1F
100
AcDbEntity
  8
0
  6
Continuous
 62
     8
370
    18
100
AcDbLine
 10
108.3634483506
 20
184.0182612373
 30
0.0
 11
108.3634483506
 21
184.8182598784
 31
0.0
  0
LINE
  5
32E
330
1F
100
AcDbEntity
  8
0
  6
Continuous
 62
     8
370
    18
100
AcDbLine
 10
85.3634483059
 20
184.0182612373
 30
0.0
 11
85.3634483059
 21
184.8182598784
 31
0.0
  0
LINE
  5
32F
330
1F
100
AcDbEntity
  8
0
  6
Continuous
 62
     8
370
    18
100
AcDbLine
 10
113.8634492521
 20
184.0182612373
 30
0.0
 11
113.8634492521
 21
184.8182598784
 31
0.0
  0
LINE
  5
330
330
1F
100
AcDbEntity
  8
0
  6
Continuous
 62
     8
370
    18
100
AcDbLine
 10
79.8634474044
 20
184.0182612373
 30
0.0
 11
79.8634474044
 21
184.8182598784
 31
0.0
  0
SPLINE
  5
331
330
1F
100
AcDbEntity
  8
0
  6
Continuous
 62
     8
370
    18
100
AcDbSpline
210
0.0
220
0.0
230
1.0
 70
     8
 71
     3
 72
     9
 73
     5
 74
     0
 42
0.000000001
 43
0.00000001
 40
0.0
 40
0.0
 40
0.0
 40
0.0
 40
0.6051747076014989
 40
1.0
 40
1.0
 40
1.0
 40
1.0
 10
87.07901992549053
 20
190.2660908832182
 30
0.0
 10
87.06803364813274
 20
190.1166400528095
 30
0.0
 10
87.04987975435665
 20
189.8696852007122
 30
0.0
 10
87.03254030906895
 20
189.6349233621634
 30
0.0
 10
87.0256942575132
 20
189.5422334506144
 30
0.0
  0
SPLINE
  5
332
330
1F
100
AcDbEntity
  8
0
  6
Continuous
 62
     8
370
    18
100
AcDbSpline
210
0.0
220
0.0
230
1.0
 70
     8
 71
     3
 72
     9
 73
     5
 74
     0
 42
0.000000001
 43
0.00000001
 40
0.0
 40
0.0
 40
0.0
 40
0.0
 40
0.6051747076014989
 40
1.0
 40
1.0
 40
1.0
 40
1.0
 10
106.6478767310535
 20
190.2660908832182
 30
0.0
 10
106.6588630084113
 20
190.1166400528095
 30
0.0
 10
106.6770169021873
 20
189.8696852007122
 30
0.0
 10
106.6943563474751
 20
189.6349233621634
 30
0.0
 10
106.7012023990308
 20
189.5422334506144
 30
0.0
  0
SPLINE
  5
333
330
1F
100
AcDbEntity
  8
0
  6
Continuous
 62
     8
370
    18
100
AcDbSpline
210
0.0
220
0.0
230
1.0
 70
     8
 71
     3
 72
     9
 73
     5
 74
     0
 42
0.000000001
 43
0.00000001
 40
0.0
 40
0.0
 40
0.0
 40
0.0
 40
0.5020701248051694
 40
0.9999999999999999
 40
0.9999999999999999
 40
0.9999999999999999
 40
0.9999999999999999
 10
87.20927004416338
 20
192.0183445050349
 30
0.0
 10
87.187368832774
 20
191.6963372039339
 30
0.0
 10
87.14374701520843
 20
191.0549779889718
 30
0.0
 10
87.10440631731143
 20
190.5217907003785
 30
0.0
 10
87.08481740851751
 20
190.2563008203139
 30
0.0
  0
SPLINE
  5
334
330
1F
100
AcDbEntity
  8
0
  6
Continuous
 62
     8
370
    18
100
AcDbSpline
210
0.0
220
0.0
230
1.0
 70
     8
 71
     3
 72
     9
 73
     5
 74
     0
 42
0.000000001
 43
0.00000001
 40
0.0
 40
0.0
 40
0.0
 40
0.0
 40
0.5020701248051694
 40
0.9999999999999999
 40
0.9999999999999999
 40
0.9999999999999999
 40
0.9999999999999999
 10
106.5176266123807
 20
192.0183445050349
 30
0.0
 10
106.53952782377
 20
191.6963372039339
 30
0.0
 10
106.5831496413356
 20
191.0549779889718
 30
0.0
 10
106.6224903392326
 20
190.5217907003785
 30
0.0
 10
106.6420792480265
 20
190.2563008203139
 30
0.0
  0
LINE
  5
335
330
1F
100
AcDbEntity
  8
DEFAULT_LAYER
  6
PHANTOM
370
    18
100
AcDbLine
 10
69.3634483283
 20
260.0182611323
 30
0.0
 11
43.2081036809
 21
260.0182611323
 31
0.0
  0
LINE
  5
336
330
1F
100
AcDbEntity
  8
DEFAULT_LAYER
  6
PHANTOM
370
    18
100
AcDbLine
 10
124.3634483283
 20
260.0182611323
 30
0.0
 11
150.3417375479
 21
260.0182611323
 31
0.0
  0
MTEXT
  5
337
330
1F
100
AcDbEntity
  8
DEFAULT_LAYER
100
AcDbMText
 10
136.2339695772
 20
260.1534730176
 30
0.0
 40
2.1166666667
 41
0.0
 71
     1
 72
     1
  1
△
  7
SLDTEXTSTYLE0
 73
     1
 44
1.0
  0
MTEXT
  5
338
330
1F
100
AcDbEntity
  8
DEFAULT_LAYER
100
AcDbMText
 10
139.8296149675
 20
259.800547345
 30
0.0
 40
2.1166666667
 41
0.0
 71
     1
 72
     1
  1
W.L.
  7
SLDTEXTSTYLE0
 73
     1
 44
1.0
  0
INSERT
  5
33E
330
1F
100
AcDbEntity
  8
DEFAULT_LAYER
100
AcDbBlockReference
  2
SW_NOTE_4
 10
78.421672099
 20
267.0688669897
 30
0.0
  0
LEADER
  5
33F
330
1F
100
AcDbEntity
  8
DEFAULT_LAYER
100
AcDbLeader
  3
SLDDIMSTYLE3
 76
     2
 10
89.9262860347
 20
249.1825863579
 30
0.0
 10
78.421672099
 20
267.0688669897
 30
0.0
  0
LINE
  5
340
330
1F
100
AcDbEntity
  8
DEFAULT_LAYER
  6
CENTERX2
370
    18
100
AcDbLine
 10
96.8634483283
 20
275.1506542494
 30
0.0
 11
96.8634483283
 21
178.4501591034
 31
0.0
  0
ENDSEC
  0
SECTION
  2
OBJECTS
  0
DICTIONARY
  5
C
330
0
100
AcDbDictionary
281
     1
  3
ACAD_GROUP
350
D
  3
ACAD_LAYOUT
350
1A
  3
ACAD_MLINESTYLE
350
17
  3
ACAD_PLOTSETTINGS
350
19
  3
ACAD_PLOTSTYLENAME
350
E
  3
ACAD_SCALELIST
350
47
  0
DICTIONARY
  5
D
102
{ACAD_REACTORS
330
C
102
}
330
C
100
AcDbDictionary
281
     1
  0
DICTIONARY
  5
1A
102
{ACAD_REACTORS
330
C
102
}
330
C
100
AcDbDictionary
281
     1
  3
Layout1
350
1E
  3
Layout2
350
26
  3
Model
350
22
  0
DICTIONARY
  5
17
102
{ACAD_REACTORS
330
C
102
}
330
C
100
AcDbDictionary
281
     1
  3
Standard
350
18
  0
DICTIONARY
  5
19
102
{ACAD_REACTORS
330
C
102
}
330
C
100
AcDbDictionary
281
     1
  0
ACDBDICTIONARYWDFLT
  5
E
102
{ACAD_REACTORS
330
C
102
}
330
C
100
AcDbDictionary
281
     1
  3
Normal
350
F
100
AcDbDictionaryWithDefault
340
F
  0
DICTIONARY
  5
47
102
{ACAD_REACTORS
330
C
102
}
330
C
100
AcDbDictionary
281
     1
  3
A0
350
48
  3
A1
350
49
  3
A2
350
4A
  3
A3
350
4B
  3
A4
350
4C
  3
A5
350
4D
  3
A6
350
4E
  3
A7
350
4F
  3
A8
350
50
  3
A9
350
51
  3
B0
350
52
  3
B1
350
53
  3
B2
350
54
  3
B3
350
55
  3
B4
350
56
  3
B5
350
57
  3
B6
350
58
  3
B7
350
59
  3
B8
350
5A
  3
B9
350
5B
  3
C0
350
5C
  3
C1
350
5D
  3
C2
350
5E
  3
C3
350
5F
  3
C4
350
60
  3
C5
350
61
  3
C6
350
62
  3
C7
350
63
  3
C8
350
64
  3
C9
350
65
  3
D0
350
66
  3
D1
350
67
  3
D2
350
68
  0
LAYOUT
  5
1E
102
{ACAD_REACTORS
330
1A
102
}
330
1A
100
AcDbPlotSettings
  1

  2
none_device
  4

  6

 40
0.0
 41
0.0
 42
0.0
 43
0.0
 44
0.0
 45
0.0
 46
0.0
 47
0.0
 48
0.0
 49
0.0
140
0.0
141
0.0
142
1.0
143
1.0
 70
   688
 72
     1
 73
     0
 74
     5
  7

 75
    16
147
1.0
148
0.0
149
0.0
100
AcDbLayout
  1
Layout1
 70
     1
 71
     1
 10
0.0
 20
0.0
 11
420.0
 21
297.0
 12
0.0
 22
0.0
 32
0.0
 14
1.0000000000E+20
 24
1.0000000000E+20
 34
1.0000000000E+20
 15
-1.0000000000E+20
 25
-1.0000000000E+20
 35
-1.0000000000E+20
146
0.0
 13
0.0
 23
0.0
 33
0.0
 16
1.0
 26
0.0
 36
0.0
 17
0.0
 27
1.0
 37
0.0
 76
     0
330
1B
  0
LAYOUT
  5
26
102
{ACAD_REACTORS
330
1A
102
}
330
1A
100
AcDbPlotSettings
  1

  2
none_device
  4

  6

 40
0.0
 41
0.0
 42
0.0
 43
0.0
 44
0.0
 45
0.0
 46
0.0
 47
0.0
 48
0.0
 49
0.0
140
0.0
141
0.0
142
1.0
143
1.0
 70
   688
 72
     1
 73
     0
 74
     5
  7

 75
    16
147
1.0
148
0.0
149
0.0
100
AcDbLayout
  1
Layout2
 70
     1
 71
     2
 10
0.0
 20
0.0
 11
0.0
 21
0.0
 12
0.0
 22
0.0
 32
0.0
 14
0.0
 24
0.0
 34
0.0
 15
0.0
 25
0.0
 35
0.0
146
0.0
 13
0.0
 23
0.0
 33
0.0
 16
1.0
 26
0.0
 36
0.0
 17
0.0
 27
1.0
 37
0.0
 76
     0
330
23
  0
LAYOUT
  5
22
102
{ACAD_REACTORS
330
1A
102
}
330
1A
100
AcDbPlotSettings
  1

  2
none_device
  4
Letter_(8.50_x_11.00_Inches)
  6

 40
6.35
 41
6.35
 42
6.35000508
 43
6.35000508
 44
215.9
 45
279.4
 46
0.0
 47
0.0
 48
0.0
 49
0.0
140
0.0
141
0.0
142
1.0
143
1.0
 70
  1712
 72
     1
 73
     0
 74
     0
  7

 75
     0
147
1.0
148
0.0
149
0.0
100
AcDbLayout
  1
Model
 70
     1
 71
     0
 10
0.0
 20
0.0
 11
420.0
 21
297.0
 12
0.0
 22
0.0
 32
0.0
 14
0.0
 24
0.0
 34
0.0
 15
420.0
 25
297.0
 35
0.0
146
0.0
 13
0.0
 23
0.0
 33
0.0
 16
1.0
 26
0.0
 36
0.0
 17
0.0
 27
1.0
 37
0.0
 76
     0
330
1F
331
29
  0
MLINESTYLE
  5
18
102
{ACAD_REACTORS
330
17
102
}
330
17
100
AcDbMlineStyle
  2
Standard
 70
     0
  3

 62
   256
 51
90.0
 52
90.0
 71
     2
 49
0.5
 62
   256
  6
BYLAYER
 49
-0.5
 62
   256
  6
BYLAYER
  0
ACDBPLACEHOLDER
  5
F
102
{ACAD_REACTORS
330
E
102
}
330
E
  0
SCALE
  5
48
102
{ACAD_REACTORS
330
47
102
}
330
47
100
AcDbScale
 70
     0
300
1:1
140
1.0
141
1.0
290
     1
  0
SCALE
  5
49
102
{ACAD_REACTORS
330
47
102
}
330
47
100
AcDbScale
 70
     0
300
1:2
140
1.0
141
2.0
290
     0
  0
SCALE
  5
4A
102
{ACAD_REACTORS
330
47
102
}
330
47
100
AcDbScale
 70
     0
300
1:4
140
1.0
141
4.0
290
     0
  0
SCALE
  5
4B
102
{ACAD_REACTORS
330
47
102
}
330
47
100
AcDbScale
 70
     0
300
1:5
140
1.0
141
5.0
290
     0
  0
SCALE
  5
4C
102
{ACAD_REACTORS
330
47
102
}
330
47
100
AcDbScale
 70
     0
300
1:8
140
1.0
141
8.0
290
     0
  0
SCALE
  5
4D
102
{ACAD_REACTORS
330
47
102
}
330
47
100
AcDbScale
 70
     0
300
1:10
140
1.0
141
10.0
290
     0
  0
SCALE
  5
4E
102
{ACAD_REACTORS
330
47
102
}
330
47
100
AcDbScale
 70
     0
300
1:16
140
1.0
141
16.0
290
     0
  0
SCALE
  5
4F
102
{ACAD_REACTORS
330
47
102
}
330
47
100
AcDbScale
 70
     0
300
1:20
140
1.0
141
20.0
290
     0
  0
SCALE
  5
50
102
{ACAD_REACTORS
330
47
102
}
330
47
100
AcDbScale
 70
     0
300
1:30
140
1.0
141
30.0
290
     0
  0
SCALE
  5
51
102
{ACAD_REACTORS
330
47
102
}
330
47
100
AcDbScale
 70
     0
300
1:40
140
1.0
141
40.0
290
     0
  0
SCALE
  5
52
102
{ACAD_REACTORS
330
47
102
}
330
47
100
AcDbScale
 70
     0
300
1:50
140
1.0
141
50.0
290
     0
  0
SCALE
  5
53
102
{ACAD_REACTORS
330
47
102
}
330
47
100
AcDbScale
 70
     0
300
1:100
140
1.0
141
100.0
290
     0
  0
SCALE
  5
54
102
{ACAD_REACTORS
330
47
102
}
330
47
100
AcDbScale
 70
     0
300
2:1
140
2.0
141
1.0
290
     0
  0
SCALE
  5
55
102
{ACAD_REACTORS
330
47
102
}
330
47
100
AcDbScale
 70
     0
300
4:1
140
4.0
141
1.0
290
     0
  0
SCALE
  5
56
102
{ACAD_REACTORS
330
47
102
}
330
47
100
AcDbScale
 70
     0
300
8:1
140
8.0
141
1.0
290
     0
  0
SCALE
  5
57
102
{ACAD_REACTORS
330
47
102
}
330
47
100
AcDbScale
 70
     0
300
10:1
140
10.0
141
1.0
290
     0
  0
SCALE
  5
58
102
{ACAD_REACTORS
330
47
102
}
330
47
100
AcDbScale
 70
     0
300
100:1
140
100.0
141
1.0
290
     0
  0
SCALE
  5
59
102
{ACAD_REACTORS
330
47
102
}
330
47
100
AcDbScale
 70
     0
300
1/128" = 1'-0"
140
0.0078125
141
12.0
290
     0
  0
SCALE
  5
5A
102
{ACAD_REACTORS
330
47
102
}
330
47
100
AcDbScale
 70
     0
300
1/64" = 1'-0"
140
0.015625
141
12.0
290
     0
  0
SCALE
  5
5B
102
{ACAD_REACTORS
330
47
102
}
330
47
100
AcDbScale
 70
     0
300
1/32" = 1'-0"
140
0.03125
141
12.0
290
     0
  0
SCALE
  5
5C
102
{ACAD_REACTORS
330
47
102
}
330
47
100
AcDbScale
 70
     0
300
1/16" = 1'-0"
140
0.0625
141
12.0
290
     0
  0
SCALE
  5
5D
102
{ACAD_REACTORS
330
47
102
}
330
47
100
AcDbScale
 70
     0
300
3/32" = 1'-0"
140
0.09375
141
12.0
290
     0
  0
SCALE
  5
5E
102
{ACAD_REACTORS
330
47
102
}
330
47
100
AcDbScale
 70
     0
300
1/8" = 1'-0"
140
0.125
141
12.0
290
     0
  0
SCALE
  5
5F
102
{ACAD_REACTORS
330
47
102
}
330
47
100
AcDbScale
 70
     0
300
3/16" = 1'-0"
140
0.1875
141
12.0
290
     0
  0
SCALE
  5
60
102
{ACAD_REACTORS
330
47
102
}
330
47
100
AcDbScale
 70
     0
300
1/4" = 1'-0"
140
0.25
141
12.0
290
     0
  0
SCALE
  5
61
102
{ACAD_REACTORS
330
47
102
}
330
47
100
AcDbScale
 70
     0
300
3/8" = 1'-0"
140
0.375
141
12.0
290
     0
  0
SCALE
  5
62
102
{ACAD_REACTORS
330
47
102
}
330
47
100
AcDbScale
 70
     0
300
1/2" = 1'-0"
140
0.5
141
12.0
290
     0
  0
SCALE
  5
63
102
{ACAD_REACTORS
330
47
102
}
330
47
100
AcDbScale
 70
     0
300
3/4" = 1'-0"
140
0.75
141
12.0
290
     0
  0
SCALE
  5
64
102
{ACAD_REACTORS
330
47
102
}
330
47
100
AcDbScale
 70
     0
300
1" = 1'-0"
140
1.0
141
12.0
290
     0
  0
SCALE
  5
65
102
{ACAD_REACTORS
330
47
102
}
330
47
100
AcDbScale
 70
     0
300
1-1/2" = 1'-0"
140
1.5
141
12.0
290
     0
  0
SCALE
  5
66
102
{ACAD_REACTORS
330
47
102
}
330
47
100
AcDbScale
 70
     0
300
3" = 1'-0"
140
3.0
141
12.0
290
     0
  0
SCALE
  5
67
102
{ACAD_REACTORS
330
47
102
}
330
47
100
AcDbScale
 70
     0
300
6" = 1'-0"
140
6.0
141
12.0
290
     0
  0
SCALE
  5
68
102
{ACAD_REACTORS
330
47
102
}
330
47
100
AcDbScale
 70
     0
300
1'-0" = 1'-0"
140
12.0
141
12.0
290
     0
  0
ENDSEC
  0
EOF
